#TITLE:Hold On;
#SUBTITLE:;
#ARTIST:Colbie Caillat;
#TITLETRANSLIT:;
#SUBTITLETRANSLIT:;
#ARTISTTRANSLIT:;
#GENRE:;
#CREDIT:;
#BANNER:Hold On.png;
#BACKGROUND:Hold On-bg.png;
#LYRICSPATH:;
#CDTITLE:;
#MUSIC:Hold On.mp3;
#OFFSET:0.000000;
#SAMPLESTART:30.544001;
#SAMPLELENGTH:17.457001;
#SELECTABLE:YES;
#BPMS:0.000000=110.000000
,88.000000=55.000000
,96.000000=110.000000
,111.000000=13.750000
,112.000000=110.000000
;
#STOPS:111.000000=0.545456
;
#BGCHANGES:;
#KEYSOUNDS:;
#ATTACKS:;

//---------------dance-single - ----------------
#NOTES:
     dance-single:
     :
     Medium:
     5:
     0.311612,0.339917,0.072709,0.209040,0.004544,240.000000,232.000000,8.000000,23.000000,0.000000,0.000000,0.311612,0.339917,0.072709,0.209040,0.004544,240.000000,232.000000,8.000000,23.000000,0.000000,0.000000:
0000
0000
0000
0000
,
0000
0000
0000
0000
,
0000
0000
0000
0000
,
0000
0000
0000
0000
,
1001
0000
0100
1000
0100
0000
0010
0001
,
0010
0000
1000
0100
1000
0001
1000
0000
,
0010
0100
0001
0010
0001
0000
1000
0100
,
1000
0000
0010
1000
0001
1000
0100
0000
,
0001
0010
0001
0100
2000
3000
0010
0001
,
0200
0300
1000
0010
0001
1000
0100
1000
,
0002
0000
0000
1003
0000
0010
1000
0000
,
0200
0000
1300
0010
0000
0001
1000
0000
,
2000
0000
0000
0000
0000
0000
0000
3000
,
0001
0000
0010
0100
0010
0100
1000
0000
,
1000
0001
2000
0000
3100
0001
0020
0000
,
1030
0000
0100
1000
0010
1000
0001
1000
,
0001
0100
0020
0000
1030
0100
2000
0000
,
3010
0000
0001
1000
0100
1000
0010
0001
,
0100
0001
0100
0000
0010
1000
0100
0000
,
1000
0000
0001
1000
0010
1000
0100
0001
,
2000
0000
3001
0020
1030
0000
0100
0000
,
2000
0000
3001
0100
1000
0000
0001
0000
,
0010
0000
0000
0000
,
1000
0000
0000
0100
0000
0000
0000
0000
0000
0000
0000
0000
0000
0000
0000
0000
,
1000
0000
0001
1000
0100
1000
0010
0001
,
0100
0000
1000
0010
1000
0100
0001
0000
,
1000
0000
0010
1000
0000
0100
0001
0010
,
0000
1000
0000
0100
0001
0000
1002
0000
,
1003
0100
1001
0000
0001
0010
1001
0000
,
0100
0000
1000
0100
1000
0010
1000
0010
,
0010
0100
0110
0000
0100
0010
0110
0000
,
0001
0000
1000
0100
1000
0001
0010
0001
,
2000
0000
3001
0000
0010
0001
0100
0000
,
1000
0000
0010
0100
0010
0100
0001
0010
,
0002
0000
1003
0100
2000
0000
3010
0000
,
0200
0000
0301
0010
0001
1000
0100
0000
,
2000
3010
0002
0103
1000
0010
2000
0000
,
3001
0000
0100
1000
0100
1000
0010
0001
,
0200
0000
0301
0000
0010
0001
1000
0000
,
1000
0000
0010
1000
0100
0001
0100
0001
,
1000
0001
1001
0000
0001
1000
1001
0000
,
1000
0000
0010
0100
0010
0100
1000
0100
,
2000
0000
3001
0010
0001
0100
1000
0000
,
2000
0000
3010
1000
0001
1000
0100
0001
,
1000
0000
0000
0000
;

//---------------dance-single - ----------------
#NOTES:
     dance-single:
     :
     Hard:
     6:
     0.394708,0.419897,0.263572,0.309015,0.063621,304.000000,275.000000,29.000000,34.000000,0.000000,0.000000,0.394708,0.419897,0.263572,0.309015,0.063621,304.000000,275.000000,29.000000,34.000000,0.000000,0.000000:
0000
0000
0000
0000
,
0000
0000
0000
0000
,
0000
0000
0000
0000
,
0000
0000
0000
0000
,
2000
0000
3001
0010
2000
0000
3100
0001
,
0020
0000
1030
0001
1000
0100
1001
0000
,
0001
0010
0001
1000
0200
0000
1300
0010
,
2000
0000
3001
0010
0001
0100
0002
1000
,
1003
0010
1000
0100
2000
0001
3010
0001
,
0100
1000
0010
1000
0001
0100
0010
1000
,
1002
0000
0013
1000
0100
0000
1000
0000
,
0010
0000
0000
1000
0001
0000
0100
0000
1000
0000
0010
0000
2000
0000
0000
0000
,
3001
0000
1000
0010
1000
0000
0100
0010
,
0002
0000
1003
0100
1000
0010
0001
0000
,
1001
1000
1010
1000
0100
0001
0011
0000
,
1000
0000
0110
1000
1000
0010
1001
0010
,
0001
0100
0002
0000
1003
0010
2000
0000
,
3001
0000
0000
0100
1000
0000
0001
0000
0010
0000
0001
0000
1000
0000
0100
0000
,
1000
0000
0002
0000
1000
0003
0000
0000
0010
0000
1000
0000
1100
0000
0000
0000
,
0001
0000
1000
0010
1000
0100
0010
0001
,
2000
0000
3001
0010
1000
0000
0100
0000
,
0002
0000
0000
1003
0010
0000
1000
0000
0100
0000
0001
0000
1001
0000
0100
0000
,
1001
0000
0000
0010
0000
0000
0000
0000
0001
0000
0000
0000
1000
0000
0000
0000
,
1000
0000
0000
0100
0000
0000
0000
0000
1000
0001
0010
0001
0000
0000
0100
0000
,
1000
0000
0000
0001
1000
0000
0010
0000
1000
0000
0100
0000
0001
0000
1000
0000
,
0010
0000
1000
0001
1000
0000
0100
0000
0010
0000
1000
0000
1010
0000
0000
0000
,
0001
0000
0000
0100
0001
0000
1000
0000
0010
0000
1000
0000
0100
0000
0001
0000
,
1000
0000
0000
0010
1000
0000
0100
0000
0001
0000
1000
0000
2002
0000
0000
3000
,
0013
0100
1001
0000
1000
0010
1001
0000
,
1000
0000
0010
1000
0100
0001
1000
0001
,
2000
0000
3010
0000
0002
0000
0000
0003
0100
0000
1000
0000
2020
0000
0000
3030
,
1000
0000
0000
0010
1100
0000
0001
0000
1000
0000
0001
0000
0011
0000
0001
0000
,
1000
0100
0002
0000
0013
1000
0200
0000
,
0301
0000
1000
0010
1000
0100
0001
0010
,
1002
0000
1003
0010
0200
0000
0301
0000
,
0120
0000
0000
0001
1030
0000
0100
0000
0010
0000
1000
0000
1001
0000
1000
0000
,
1100
0000
1000
0000
0002
0000
1000
0003
0010
0000
1000
0000
0200
0000
0001
0300
,
0010
1000
1010
1000
0100
0001
1001
1000
,
0002
0000
0010
0003
0001
0000
0100
0000
1000
0000
0010
0000
1100
0000
1000
0000
,
0001
1000
0010
0001
0100
1000
0110
0000
,
0001
1000
1020
0000
0031
1000
2100
0000
,
3001
1000
0010
1000
0100
0001
0010
0001
,
1002
0000
1000
0013
1000
0100
1001
0000
,
0002
0000
0003
0010
0001
0000
0100
0000
1000
0000
0010
0000
2000
0000
0100
0000
,
3001
0000
0000
0000
;

//---------------dance-single - ----------------
#NOTES:
     dance-single:
     :
     Easy:
     3:
     0.212935,0.239941,0.154508,0.336281,0.000000,164.000000,147.000000,17.000000,37.000000,0.000000,0.000000,0.212935,0.239941,0.154508,0.336281,0.000000,164.000000,147.000000,17.000000,37.000000,0.000000,0.000000:
0000
0000
0000
0000
,
0000
0000
0000
0000
,
0000
0000
0000
0000
,
0000
0000
0000
0000
,
2000
3001
0010
0001
,
0200
0301
0010
0001
,
0020
0031
1000
0001
,
0002
1003
0100
0010
,
2000
3001
2000
3010
,
0100
0001
0010
0001
,
0002
1000
1003
0010
,
0200
0001
0301
1000
,
2000
0000
0000
0000
,
3000
0000
0000
0000
,
1001
0001
0010
0001
,
0100
1000
0010
1000
,
2000
3200
0302
0023
,
1030
0100
1000
0010
,
0002
1003
0020
1030
,
0100
0100
0010
0100
,
0002
1000
1003
0010
,
2000
0001
0001
3100
,
1000
0000
0000
0000
,
0001
0000
0000
0000
,
0010
0001
0100
0101
,
0001
1000
0020
0030
,
0100
1001
0010
1000
,
0100
0001
1000
0002
,
1003
1100
1000
1010
,
0002
0103
2000
3100
,
0010
0011
0010
0110
,
2000
3020
0032
0203
,
1300
1010
1000
1100
,
0002
1003
2000
3010
,
0200
0001
0301
0010
,
2000
0010
0100
3001
,
0002
1003
2000
3001
,
0011
0100
1000
1100
,
0020
1030
0002
0103
,
0110
0001
1000
1001
,
2000
3010
0002
0103
,
1000
1100
0001
0011
,
2000
0010
3100
1001
,
0002
0010
0103
1010
,
1000
0000
0000
0000
;

//---------------dance-single - ----------------
#NOTES:
     dance-single:
     :
     Beginner:
     2:
     0.150612,0.179956,0.018177,0.090887,0.000000,116.000000,114.000000,2.000000,10.000000,0.000000,0.000000,0.150612,0.179956,0.018177,0.090887,0.000000,116.000000,114.000000,2.000000,10.000000,0.000000,0.000000:
// measure 0
0000
0000
0000
0000
,  // measure 1
0000
0000
0000
0000
,  // measure 2
0000
0000
0000
0000
,  // measure 3
0000
0000
0000
0000
,  // measure 4
0001
0000
0100
0000
,  // measure 5
1000
0000
0010
0010
,  // measure 6
0100
0000
0010
0000
,  // measure 7
1000
0000
0001
0100
,  // measure 8
0010
0000
1000
0000
,  // measure 9
0100
0000
1000
1000
,  // measure 10
2000
0000
3001
0000
,  // measure 11
0002
0000
1003
0000
,  // measure 12
0100
0000
0010
0000
,  // measure 13
0001
0000
0000
0000
,  // measure 14
1000
0100
1000
0100
,  // measure 15
0001
0000
0010
0000
,  // measure 16
0001
0010
0001
0010
,  // measure 17
0100
0000
1000
0000
,  // measure 18
0001
1000
1000
0001
,  // measure 19
1000
0000
0001
0000
,  // measure 20
0020
0000
0130
0000
,  // measure 21
0200
0000
0310
0000
,  // measure 22
1000
0000
0000
0000
,  // measure 23
0001
0000
0000
0000
,  // measure 24
1001
0000
0100
0010
,  // measure 25
0001
0000
2000
3010
,  // measure 26
0001
0000
0100
0010
,  // measure 27
1000
0000
0001
0020
,  // measure 28
1030
1001
0001
0010
,  // measure 29
0100
0000
1000
0010
,  // measure 30
1000
0001
0010
0001
,  // measure 31
0100
0000
0100
0001
,  // measure 32
0100
0010
1000
0010
,  // measure 33
1000
0000
0001
0000
,  // measure 34
0100
0010
2000
3000
,  // measure 35
0001
0010
0002
0003
,  // measure 36
1000
0100
1000
0010
,  // measure 37
0001
0000
0100
0100
,  // measure 38
0010
0001
0010
0001
,  // measure 39
1000
1000
0100
0001
,  // measure 40
1000
0001
0010
0100
,  // measure 41
0010
0000
1000
0010
,  // measure 42
1000
0001
0100
0002
,  // measure 43
1003
0010
0100
2000
,  // measure 44
3000
0000
0000
0000
;
