#TITLE:Here;
#SUBTITLE:;
#ARTIST:Namasenda feat. BFOTY;
#TITLETRANSLIT:;
#SUBTITLETRANSLIT:;
#ARTISTTRANSLIT:;
#GENRE:;
#CREDIT:;
#BANNER:sm banners 4\:20.004.png;
#BACKGROUND:sm bgs 4\:20.001.png;
#LYRICSPATH:;
#CDTITLE:;
#MUSIC:here ddr.mp3;
#OFFSET:0.000000;
#SAMPLESTART:25.263159;
#SAMPLELENGTH:25.263159;
#SELECTABLE:YES;
#BPMS:0.000000=152.000000
;
#STOPS:
;
#BGCHANGES:;
#KEYSOUNDS:;
#ATTACKS:;

//---------------dance-single - ----------------
#NOTES:
     dance-single:
     :
     Medium:
     7:
     0.535809,0.602279,0.510166,0.028343,0.000000,397.000000,343.000000,54.000000,3.000000,0.000000,0.000000,0.535809,0.602279,0.510166,0.028343,0.000000,397.000000,343.000000,54.000000,3.000000,0.000000,0.000000:
0000
0000
0000
0000
0010
0001
0100
0001
,
1000
0100
1000
0000
,
0010
0000
0000
0000
0001
0100
0001
1000
,
0010
1000
0100
0000
2000
0000
3000
0000
,
0001
0000
0000
0010
0001
0010
0001
1000
,
0100
1000
0001
0000
2000
0000
0000
3000
,
0010
0000
0000
0100
1000
0100
0001
0000
,
0010
1000
0100
0000
1000
0000
0001
0000
,
1000
0000
0000
0010
1000
0100
0001
0010
,
0001
1000
0100
0000
,
1000
0000
0000
0010
0100
0010
0001
0010
,
0001
1000
0100
0000
,
1000
0000
0000
0010
0100
0001
0010
0001
,
1000
0100
1000
0000
,
0010
0000
0000
0100
0010
0100
0010
0001
,
0010
0001
0010
1100
0001
0000
1100
0100
,
1000
0000
1000
0000
0010
0001
0000
0000
,
1000
0000
0100
0000
1000
0001
0010
0000
,
0100
0000
0000
0000
1000
0100
0000
0000
,
0001
0010
0001
0010
1000
0100
1000
0100
,
1000
0000
0000
0000
0001
0010
0000
0000
,
1000
0000
0000
0100
1000
0010
1000
0000
,
0001
0000
0000
0000
0010
0100
0010
0000
,
1000
0100
1000
0001
1000
1000
0010
1000
,
1001
0000
0011
0000
,
1100
1100
1010
1001
,
1000
0000
0101
0000
,
0110
1001
0110
1001
,
0011
0000
1100
0000
,
1010
0101
0011
1010
,
1100
0001
1010
0101
,
0011
0011
1100
1100
,
1000
0010
0001
0100
,
1000
0010
1000
0000
,
1000
0000
0100
0000
0001
0010
0001
1000
,
0100
1000
0010
1000
,
1000
0000
0001
0000
0010
1000
0100
1000
,
0001
0000
2000
0000
3010
0100
0000
0000
,
1000
0000
0100
0000
0001
1000
0010
0000
,
1000
0001
0100
1000
1001
0000
1001
0000
,
0001
0000
0010
0001
0100
0000
1000
0000
,
1000
0100
1000
0100
1000
0010
0001
0000
,
1000
0000
0001
1000
0100
1000
0010
0001
,
0100
0001
0100
1000
0010
1000
0100
0000
,
1000
0001
0010
0001
0100
0001
1000
0100
,
1000
0010
1000
0100
0010
0100
0010
0100
,
0001
0010
0001
1000
0100
1000
0001
0010
,
1000
0100
0001
0100
1000
0100
0001
0010
,
1001
0100
1010
0100
,
0011
0011
1100
1010
,
1001
1000
1100
1010
,
0001
1000
0001
1000
0010
1000
0100
1000
,
1010
0000
0101
0001
1000
0100
1010
0000
,
1001
0000
0001
0010
1000
0100
0001
0010
,
1001
0000
1100
0000
0001
0010
1001
0000
,
0100
1000
0010
1000
0001
0100
1000
0000
,
1010
0000
0001
0100
1001
0100
1000
0010
,
1000
0001
1000
0010
0101
0000
1000
0100
,
1000
0010
1000
0100
0011
1000
0100
1000
,
0010
1000
0100
0001
0110
1000
0001
0000
,
1001
0001
0010
1000
1100
1000
0001
0010
,
1000
0100
0001
0010
1001
0010
0001
1000
,
0100
1000
0100
0001
0110
1000
0001
0010
,
1000
0100
1000
0001
0010
1000
1100
0000
;

//---------------dance-single - ----------------
#NOTES:
     dance-single:
     :
     Hard:
     8:
     0.587095,0.632393,0.491271,0.151160,0.155884,435.000000,383.000000,52.000000,16.000000,0.000000,0.000000,0.587095,0.632393,0.491271,0.151160,0.155884,435.000000,383.000000,52.000000,16.000000,0.000000,0.000000:
1000
0010
0001
1000
0100
1000
0001
0010
,
2000
0000
0200
3000
0302
0000
0003
0000
,
1000
0000
0000
0100
1000
0010
0001
0100
,
0001
1000
0010
0000
1000
0000
0100
0000
,
1000
0000
0000
0001
0010
0001
1000
0100
,
2000
0000
0002
3000
0023
0000
0000
0030
,
1000
0000
0000
0100
1000
0001
0020
0000
,
2030
3200
0302
0003
,
1000
0000
0000
0100
1000
0010
0000
0001
,
1001
1000
0010
0000
,
2000
0000
0000
3100
0001
0010
0001
0000
,
1000
0010
0100
0000
,
2000
0000
0000
3010
0100
0001
0001
0000
,
1000
0010
0100
0000
2000
0000
0000
3000
,
0010
0000
0000
0001
0100
0000
1000
0000
,
0010
1000
0100
0001
0010
0001
1000
0100
,
1000
0000
0000
0000
0000
0000
0100
1000
0100
0000
0001
0000
0000
0000
0000
0000
,
1000
0000
0000
0010
0000
0000
1000
0100
0001
0000
0100
0000
1000
0000
0000
0000
,
0010
0000
0000
0000
0000
0000
1000
0100
1000
0000
0001
0000
0000
0000
0000
0000
,
0010
0000
0000
1000
0000
0000
0100
0000
0000
0001
0000
0000
1000
0000
0010
0000
,
0100
0000
0000
0000
0000
0000
0100
0001
0100
0000
1000
0000
0000
0000
0000
0000
,
0010
0000
0000
0100
0000
0000
0010
0000
0000
1000
0000
0000
0100
0000
0000
0000
,
1000
0000
0000
0000
0000
0000
0001
0010
0001
0000
1000
0000
0000
0000
1000
0000
,
0100
1000
0001
0010
1000
0100
0001
0010
,
1001
0100
1000
1010
,
0101
0000
0000
0101
0000
0000
1010
0000
0000
1010
0000
0000
1100
0000
0000
0000
,
0001
0110
1000
1100
,
0001
0000
0000
1001
0000
0000
1010
0000
0000
1010
0000
0000
1100
0000
0000
0000
,
0001
0011
0101
1100
,
1010
0000
0000
1010
0000
0000
0101
0000
0000
0101
0000
0000
1010
0000
0000
0000
,
1100
0100
0010
0000
0011
0000
1100
0000
,
1000
0010
1000
0001
0100
1000
0010
0000
,
1000
0000
0001
0010
0001
0100
1000
0100
,
2000
0000
0000
0000
3002
0000
0000
0000
0023
0000
0000
0030
1000
0000
0000
0000
,
1000
0000
0100
0000
0001
0010
0001
0010
,
1000
0000
0000
0100
0010
0000
0100
0000
0010
1000
0000
0000
0001
0000
0000
0000
,
1000
0000
0010
1000
0100
0001
1000
0010
,
1000
0000
0000
0001
0000
0000
0010
0000
0000
0100
0000
0000
0010
0000
0000
0000
,
1000
0000
0001
0010
0001
0100
1000
0000
,
0010
0000
0000
1000
0000
0000
0100
0000
0000
0001
0000
0000
1000
0000
0000
0000
,
1000
0000
0010
1000
0100
0001
0100
0001
,
1000
0010
1000
0100
1000
0100
0001
0010
,
0001
1000
0100
1000
0010
1000
0010
0100
,
0001
0010
0001
0010
0001
0100
1000
0000
,
1000
0010
1000
0100
0001
1000
0010
1000
,
0100
0001
0010
0001
1000
0010
1000
0100
,
0001
0010
0001
0010
0100
1000
0010
1000
,
1000
0100
0001
0010
1000
0100
0001
1000
,
1001
1001
1010
1010
,
1100
0000
0000
1100
0000
0000
0011
0000
0000
0011
0000
0000
1100
0000
1000
0000
,
0110
1001
1010
0110
,
1000
0000
0100
1000
0001
0000
1000
0000
0100
0010
0000
0000
0101
0000
0100
0000
,
1001
0000
0001
0000
1000
0010
1100
0000
,
1001
0000
0000
1010
0000
0000
1000
0000
0100
0000
1000
0000
1001
0000
0010
0000
,
1000
0100
0001
0000
1000
0100
0010
0000
,
1001
0000
0000
1001
0000
0000
1001
0000
0000
0011
0000
0000
0101
0000
0000
0000
,
1000
0000
0100
0000
1001
0000
0010
0000
1000
0100
0010
0000
0001
0000
0010
0000
,
0100
0000
1000
0001
0010
0000
1000
0000
0100
0000
1000
0000
0001
0000
0010
0000
,
1000
0000
0001
0010
1000
0000
0100
0000
0001
0000
0100
0000
1000
0000
0100
0000
,
1000
0001
0010
1000
0010
1000
1100
0000
,
0001
0000
0010
0000
1000
0000
0001
0100
1000
0000
0100
0000
0001
0000
1000
0000
,
0010
1000
0100
0001
0010
0001
0100
1000
,
0010
1000
0100
0001
0010
1000
0010
1000
,
0100
0001
0010
1000
0100
0001
1001
0000
;

//---------------dance-single - ----------------
#NOTES:
     dance-single:
     :
     Beginner:
     4:
     0.267230,0.301139,0.160608,0.028343,0.000000,198.000000,181.000000,17.000000,3.000000,0.000000,0.000000,0.267230,0.301139,0.160608,0.028343,0.000000,198.000000,181.000000,17.000000,3.000000,0.000000,0.000000:
1000
0000
0010
0001
,
0010
0000
1000
0000
,
0100
0000
0001
0100
,
0001
0000
0100
0000
,
1000
0000
0010
0100
,
0010
0000
1000
0000
,
0100
0000
1000
0001
,
0020
2030
3200
0300
,
0001
0000
0010
0001
,
0100
1000
0100
0000
,
0010
0000
0001
0100
,
1000
0100
1000
0000
,
0010
0000
0001
0010
,
0001
0000
0100
0000
,
1000
0000
0010
1000
,
0100
0100
0010
0010
,
0001
0000
1000
0000
,
0100
1000
0100
1000
,
0010
0000
0100
0000
,
0001
0010
0001
0010
,
0001
0000
0100
0000
,
1000
0000
1000
0010
,
0001
0000
0100
0000
,
1000
0010
0001
0100
,
1001
0000
1010
0000
,
0100
1000
0100
1000
,
0001
0000
0101
0000
,
0010
0100
0010
0100
,
0110
0000
1001
0000
,
1000
0100
1000
0010
,
0100
0000
0001
0000
,
0010
0100
1000
0010
,
1000
0000
0001
0010
,
0001
1000
1000
0000
,
1000
0000
0100
0000
,
0001
0010
0001
0000
,
1000
0000
0100
0000
,
0010
0010
0010
0000
,
0100
0000
1000
0000
,
0100
0100
0100
0000
,
0001
0000
0010
0000
,
1000
0000
0100
0000
,
0001
0000
0010
0000
,
1000
0000
0100
0000
,
0001
0010
0001
0100
,
1000
0010
1000
0010
,
1000
0100
0100
0001
,
1000
0010
0100
0001
,
1000
0000
0100
0000
,
0001
0010
0001
0100
,
1001
0000
1010
0000
,
0100
1000
0100
0001
,
1100
0000
0101
0000
,
0011
1000
0100
1000
,
0010
0000
0100
0000
,
0010
0001
1000
0100
,
1000
0000
1001
0000
,
0001
0000
0101
0000
,
0010
0000
0110
0000
,
1000
0100
1000
0010
,
0001
0000
0101
0000
,
1000
0000
1010
0000
,
0010
0000
0110
0000
,
1000
0001
0010
1001
;

//---------------dance-single - ----------------
#NOTES:
     dance-single:
     :
     Easy:
     5:
     0.412991,0.511937,0.566851,0.264530,0.000000,306.000000,246.000000,60.000000,28.000000,0.000000,0.000000,0.412991,0.511937,0.566851,0.264530,0.000000,306.000000,246.000000,60.000000,28.000000,0.000000,0.000000:
// measure 0
1000
0100
0001
0010
,  // measure 1
0002
2003
3200
0300
,  // measure 2
1000
0010
0001
0100
,  // measure 3
2000
3020
0230
0300
,  // measure 4
0001
0010
0001
0100
,  // measure 5
0020
0032
0203
0300
,  // measure 6
1000
0100
1000
0010
,  // measure 7
2000
3020
0230
0300
,  // measure 8
1000
0100
0001
1000
,  // measure 9
0010
1000
1100
0000
,  // measure 10
0001
0100
0001
0010
,  // measure 11
0101
0101
1000
0000
,  // measure 12
0010
0100
1000
0100
,  // measure 13
0001
0010
0001
1000
,  // measure 14
2000
3000
0100
0001
,  // measure 15
0001
0001
1000
1000
,  // measure 16
1100
0001
0011
0100
,  // measure 17
1100
1000
1001
0011
,  // measure 18
0101
1000
0010
0100
,  // measure 19
1000
0100
0010
0100
,  // measure 20
0011
0000
1000
0100
,  // measure 21
1000
0010
0001
0101
,  // measure 22
1000
0000
0010
0000
,  // measure 23
1000
0100
0001
1000
,  // measure 24
1001
0010
1100
0010
,  // measure 25
1001
1001
1010
1100
,  // measure 26
1000
0001
0101
0010
,  // measure 27
0011
0101
1010
1100
,  // measure 28
1000
0001
0101
1000
,  // measure 29
1010
1100
0011
0101
,  // measure 30
1000
0010
0101
1000
,  // measure 31
0010
0100
0010
0001
,  // measure 32
2000
3001
0010
0001
,  // measure 33
0200
2300
3002
0013
,  // measure 34
1000
0100
1000
0010
,  // measure 35
0002
0203
2300
3020
,  // measure 36
1030
0100
0001
0100
,  // measure 37
0010
0100
0010
0100
,  // measure 38
1000
0100
1000
0010
,  // measure 39
1000
0010
0100
1000
,  // measure 40
1001
0001
0010
0001
,  // measure 41
0100
1000
0110
0010
,  // measure 42
0001
1000
0100
0010
,  // measure 43
1000
0100
1000
0010
,  // measure 44
1001
1000
1010
0001
,  // measure 45
0101
1000
0110
0001
,  // measure 46
1001
1001
1010
1010
,  // measure 47
0100
1000
0001
0010
,  // measure 48
1001
1010
1100
0011
,  // measure 49
1001
1001
1010
0100
,  // measure 50
0011
0110
1000
0010
,  // measure 51
0001
0100
1000
0010
,  // measure 52
0110
0001
1000
0100
,  // measure 53
1001
1010
1100
0011
,  // measure 54
0110
1000
0011
0110
,  // measure 55
1000
0100
0002
0023
,  // measure 56
1030
0100
1001
0010
,  // measure 57
2000
3002
0013
0100
,  // measure 58
1000
0001
0011
0010
,  // measure 59
1000
0100
1000
0010
,  // measure 60
1000
0100
1001
0010
,  // measure 61
0100
0010
0110
0001
,  // measure 62
1000
0010
1010
0100
,  // measure 63
0002
2003
3020
1030
;
