#TITLE:Good Girls Go Bad;
#SUBTITLE:;
#ARTIST:Cobra Starship feat. Leighton Meester;
#TITLETRANSLIT:;
#SUBTITLETRANSLIT:;
#ARTISTTRANSLIT:;
#GENRE:;
#CREDIT:;
#BANNER:GGGB-bn.png;
#BACKGROUND:GGGB-bg.png;
#LYRICSPATH:;
#CDTITLE:;
#MUSIC:Good Girls Go Bad.ogg;
#OFFSET:0.000000;
#SAMPLESTART:35.500000;
#SAMPLELENGTH:17.000000;
#SELECTABLE:YES;
#BPMS:0.000000=120.000000
;
#STOPS:
;
#BGCHANGES:;
#KEYSOUNDS:;
#ATTACKS:;

//---------------dance-single - ----------------
#NOTES:
     dance-single:
     :
     Beginner:
     2:
     0.181237,0.220573,0.009611,0.124944,0.000000,132.000000,131.000000,1.000000,13.000000,0.000000,0.000000,0.181237,0.220573,0.009611,0.124944,0.000000,132.000000,131.000000,1.000000,13.000000,0.000000,0.000000:
0000
0000
0000
0000
,
0000
0000
0000
0000
,
0000
0000
0000
0000
,
0000
1000
0100
0010
,
0002
1003
0000
0010
,
0000
1000
0100
1000
,
0000
0001
0000
0010
,
0000
0001
0001
0001
,
0000
1000
0000
0100
,
0000
1000
1000
1000
,
0000
0100
0000
0010
,
0000
0100
0000
0010
,
0000
0010
0000
0100
,
0000
2000
0000
0000
,
0000
3002
0000
0000
,
0000
0103
0000
0000
,
0000
2000
0000
0000
,
3100
0020
0000
0000
,
0001
0031
0001
0001
,
1000
0001
0000
0100
,
0000
1000
1000
1000
,
0001
1000
0000
0010
,
0000
0100
0010
0100
,
0010
0100
0000
0010
,
0000
1000
0001
1000
,
0001
1000
0000
0001
,
0000
0010
0010
0010
,
0100
0010
0000
0001
,
0000
0100
0100
0100
,
0000
0010
0100
1000
,
0001
0010
0000
0200
,
0000
1300
0000
0001
,
0010
0001
0100
0010
,
0000
1000
0000
0100
,
1000
0100
0010
0001
,
1000
1000
0001
1000
,
0010
0100
0000
0000
,
0000
0001
0010
0001
,
0000
1000
0100
1000
,
0002
2003
0000
3020
,
0000
0230
0000
0302
,
0000
2003
0000
3002
,
0000
0013
0001
0010
,
0100
1000
0001
1000
,
0001
1000
0000
0001
,
0000
0100
0010
0100
,
0010
0100
0000
0010
,
0000
1000
1000
1000
,
0001
0100
0000
0010
,
0000
0001
0001
0001
,
0000
1000
0010
0100
,
0110
0000
0000
0000
;

//---------------dance-single - ----------------
#NOTES:
     dance-single:
     :
     Medium:
     6:
     0.389934,0.416639,0.134555,0.134555,0.019222,284.000000,270.000000,14.000000,14.000000,0.000000,0.000000,0.389934,0.416639,0.134555,0.134555,0.019222,284.000000,270.000000,14.000000,14.000000,0.000000,0.000000:
0000
0000
0000
0000
,
0000
0000
0000
0000
,
0000
0000
0000
0000
,
0000
1000
0100
0010
,
0002
0000
1003
0010
1000
0000
0100
0000
,
0010
0000
0001
0000
0010
0000
0100
0010
,
0001
1000
0010
0100
,
0001
1000
0100
0010
0000
0001
0000
1000
,
0001
0010
0001
0000
0100
0000
0010
0000
,
1000
0100
1000
0100
0010
0001
0000
1000
,
0001
2000
3001
0000
0010
0000
0100
0000
,
0010
0100
0010
0001
0000
1000
0000
0100
,
1000
0100
0010
0000
0001
1000
0000
0100
,
0001
0000
0100
0000
0010
0000
0010
0100
,
0010
0100
0001
0000
1000
0000
0010
0000
,
1000
0100
1000
0010
0100
0000
0001
1000
,
0001
0020
0100
0000
0031
0000
2000
0000
,
3100
0020
0000
0031
1000
0001
0000
0010
,
0100
0010
1000
0000
0110
0000
0001
0000
,
0110
0000
0010
0100
0010
1000
0000
0100
,
1000
0100
0010
0000
1001
0000
0100
0000
,
1001
0000
1000
0100
0010
0100
0000
1000
,
0001
0010
0001
0100
0001
0010
0001
0000
,
1000
0000
0010
1000
0000
0100
0000
0000
,
1000
0000
0001
0010
0001
0000
0100
0001
,
0100
0000
0010
0100
0010
0100
0000
0001
,
1000
0100
1000
0000
0110
0000
0001
0000
,
0110
0000
0010
0000
0100
1000
0000
0100
,
1000
0010
0100
0000
1001
0000
0010
0000
,
1001
0020
0230
0320
,
1030
0002
1000
0023
,
0100
0000
0000
0000
1030
0000
0000
0000
0100
0000
0000
1000
0000
0000
0100
0000
,
1000
0000
0000
0000
0001
0000
0000
0000
0010
0000
0000
0001
0000
0000
0010
0000
,
0001
0000
0000
0000
0100
0000
0000
0000
0010
0000
0000
0100
0000
0000
0010
0000
,
0100
0001
2000
3200
,
1300
0000
0100
0000
0010
0000
0000
0000
0110
0000
0000
0100
0000
0000
0020
0000
,
1030
0000
0100
0001
0100
1000
0100
0000
,
0010
0001
1000
0000
0001
0000
1000
0000
,
0010
0100
0001
1000
,
0002
0000
1003
0010
1000
0100
1000
0001
,
1000
0100
0010
0100
0010
0001
0100
0001
,
0010
1000
0010
0001
0010
0100
1000
0100
,
1000
0010
0100
0001
0100
0001
1000
0001
,
0100
0100
1000
0001
1000
0001
0010
0001
,
0100
0001
0010
0001
0000
1000
0000
0100
,
1000
0010
0100
0010
1000
0001
0010
0001
,
0100
0001
0010
1000
0010
0100
0000
1000
,
0010
1000
0001
0000
0110
0000
1000
0000
,
0110
0000
1000
0100
1000
0010
0000
0100
,
0001
0010
0100
0000
1001
0000
0010
0000
,
1001
0000
1000
0000
0001
0000
0010
0001
,
0101
0000
0000
0000
;

//---------------dance-single - ----------------
#NOTES:
     dance-single:
     :
     Hard:
     7:
     0.486044,0.514671,0.288331,0.365220,0.115332,354.000000,324.000000,30.000000,38.000000,0.000000,0.000000,0.486044,0.514671,0.288331,0.365220,0.115332,354.000000,324.000000,30.000000,38.000000,0.000000,0.000000:
0000
0000
0000
0000
,
0000
0000
0000
0000
,
0000
0000
0000
0000
,
0000
2000
0100
0010
,
3001
0000
0000
0000
0001
0010
0001
0000
0010
0000
0001
0000
0100
0000
0000
0000
,
0110
0000
0000
0000
1000
0100
1000
0000
0100
0000
1000
0000
0010
0000
0100
0000
,
1001
0010
2000
0000
3100
0000
0010
0000
,
0001
1000
0010
0200
0000
0301
0000
1000
,
0100
0010
1001
0000
0010
0000
0200
0000
,
0301
0000
0010
0000
0001
0000
1000
0000
0100
0000
1000
0000
0000
0000
0001
0100
,
0001
0100
0100
0000
2000
0000
0000
0000
3002
0000
0000
0000
2003
0000
0000
0000
,
3010
0100
0010
0200
0001
0301
0000
1000
,
0100
1000
0020
0000
0130
0200
0000
1300
,
0002
0000
0000
0000
1000
0000
0000
0000
1003
0000
0000
0001
0000
1000
0002
0000
,
2003
3001
0020
0001
0000
0100
0000
0001
,
0000
0000
1030
0000
0100
0001
0100
0000
0010
0000
0000
0001
0000
1000
0100
0000
,
0010
0200
1000
1000
0000
0010
0000
1000
,
0310
0002
1000
0103
0001
2000
0000
3100
,
0010
0001
1001
0000
0101
0000
1001
0000
,
1200
1300
0010
1000
0100
0010
0000
0010
,
1000
0001
0110
0000
1010
0000
0011
0000
,
0210
0310
1000
0001
1000
0010
0000
0100
,
0010
1000
1001
0100
0100
0010
0010
1000
,
0001
1000
0010
0200
0301
2000
0001
3001
,
0010
0100
0100
0001
0010
0010
1000
0001
,
1000
0100
0010
0001
1000
0020
0000
0130
,
0001
1000
0110
0000
0101
0000
1001
0000
,
1200
0000
1300
0010
0100
0002
0000
0013
,
0100
0010
0001
0000
0011
0000
1010
0000
,
0100
2000
3200
0320
,
0032
2003
0001
0010
,
0001
0000
0000
0000
3100
0000
1000
0010
1000
0000
0100
0000
1000
0000
0001
0100
,
0001
0000
0010
0000
0001
0000
0010
0000
1000
0000
0010
0001
0000
0000
0100
0000
,
0020
0000
1000
0000
1030
0000
0001
0100
0001
0000
0010
0000
0001
0000
1000
0010
,
1000
0000
0100
0000
0010
0000
0100
0000
0001
0000
0100
1000
0000
0000
0010
0000
,
0100
0000
0001
0000
1000
0000
0000
0000
1001
0000
0000
0001
1000
0000
0001
0000
,
1000
0000
0001
0000
0100
0000
0010
0000
1000
0000
0100
0010
0000
0000
0100
0000
,
1000
0010
0100
0000
1001
0000
0010
0000
,
1001
0000
0000
0000
0001
0000
0000
0000
0110
0000
0000
1000
0010
0000
0100
0000
,
0002
0000
0000
0000
1003
0000
0100
0000
1000
0010
1000
0000
0100
0000
0010
0001
,
0010
0000
0001
0000
0010
0000
0100
0000
1000
0001
1000
0000
0001
0000
0100
0001
,
0010
0000
0100
0000
1000
0000
0010
0000
1000
0100
0001
0000
0100
0000
0010
0001
,
1000
0001
0100
0010
0010
0100
0001
1000
,
0100
0010
1001
0010
0010
0100
0100
0001
,
1000
0001
0100
0020
1030
0002
1000
1003
,
0100
0010
0010
1000
0100
0100
0001
1000
,
0001
0010
0100
1000
0001
0200
0000
0310
,
1000
0001
0110
0000
1010
0000
1001
0000
,
0021
0000
0031
0100
0010
2000
0000
3100
,
0010
0100
1000
0000
1100
0000
0101
0000
,
0010
0000
0002
0000
0023
0000
0130
1000
,
1100
0000
0000
0000
;

//---------------dance-single - ----------------
#NOTES:
     dance-single:
     :
     Easy:
     3:
     0.254006,0.294098,0.105721,0.249887,0.000000,185.000000,174.000000,11.000000,26.000000,0.000000,0.000000,0.254006,0.294098,0.105721,0.249887,0.000000,185.000000,174.000000,11.000000,26.000000,0.000000,0.000000:
// measure 0
0000
0000
0000
0000
,  // measure 1
0000
0000
0000
0000
,  // measure 2
0000
0000
0000
0000
,  // measure 3
0000
1000
0100
0010
,  // measure 4
0002
1003
0010
1000
,  // measure 5
0100
0010
0001
0010
,  // measure 6
0001
2000
0100
3100
,  // measure 7
0010
0001
1000
0100
,  // measure 8
0000
0020
0001
0031
,  // measure 9
0000
0010
0100
0010
,  // measure 10
0000
0001
1000
0001
,  // measure 11
1000
0100
0010
0001
,  // measure 12
1000
0000
0001
0000
0000
0010
0000
0000
,  // measure 13
0100
1000
0100
1000
,  // measure 14
0100
2000
0000
3001
,  // measure 15
0000
0010
0100
0010
,  // measure 16
0100
0020
0000
0130
,  // measure 17
1000
0002
0000
0013
,  // measure 18
0100
1000
0110
0001
,  // measure 19
0110
0100
0001
1000
,  // measure 20
0010
0100
1001
0010
,  // measure 21
1001
0001
1000
0100
,  // measure 22
0010
0002
0013
0200
,  // measure 23
1300
0010
1000
0001
,  // measure 24
0000
0020
0031
2000
,  // measure 25
3100
1000
0010
0100
,  // measure 26
0001
1000
0110
0001
,  // measure 27
0110
0000
1000
0000
0000
0100
0000
0000
,  // measure 28
0010
0100
1001
0001
,  // measure 29
0000
1000
0100
0010
,  // measure 30
0001
2000
0000
3002
,  // measure 31
0000
1003
0001
0010
,  // measure 32
0100
0010
0001
1000
,  // measure 33
0000
0100
0010
0001
,  // measure 34
0010
0100
1000
0100
,  // measure 35
1000
0001
0000
1000
,  // measure 36
0002
1003
0000
0010
,  // measure 37
0000
0100
0010
0100
,  // measure 38
0000
0001
1000
0001
,  // measure 39
2000
0001
0010
0100
,  // measure 40
0010
3200
1000
0010
,  // measure 41
1000
0320
0001
0100
,  // measure 42
0001
0032
1000
0100
,  // measure 43
0013
0002
1003
0020
,  // measure 44
0130
2000
3001
0200
,  // measure 45
0310
2000
3010
0200
,  // measure 46
0301
0002
0013
0020
,  // measure 47
1030
0100
1001
0010
,  // measure 48
1001
0010
0001
1000
,  // measure 49
0100
1000
0110
0001
,  // measure 50
0110
1000
0001
0200
,  // measure 51
0310
0000
0000
0000
;
