#TITLE:Gonna Be Mine;
#SUBTITLE:;
#ARTIST:Addictive feat. T2;
#TITLETRANSLIT:;
#SUBTITLETRANSLIT:;
#ARTISTTRANSLIT:;
#GENRE:;
#CREDIT:;
#BANNER:gbmbanner001.png;
#BACKGROUND:gbmbg001.png;
#LYRICSPATH:;
#CDTITLE:;
#MUSIC:Gonna Be Mine (DDR).mp3;
#OFFSET:0.000000;
#SAMPLESTART:45.000000;
#SAMPLELENGTH:12.000000;
#SELECTABLE:YES;
#BPMS:0.000000=140.000000
;
#STOPS:228.000000=4.285713
;
#BGCHANGES:;
#KEYSOUNDS:;
#ATTACKS:;

//---------------dance-single - ----------------
#NOTES:
     dance-single:
     :
     Easy:
     4:
     0.256195,0.387772,0.094841,0.137951,0.000000,208.000000,197.000000,11.000000,16.000000,0.000000,0.000000,0.256195,0.387772,0.094841,0.137951,0.000000,208.000000,197.000000,11.000000,16.000000,0.000000,0.000000:
1000
0000
0000
0000
,
0001
0000
0001
0000
,
1000
0000
0010
0001
,
1000
0000
0100
0000
,
0010
0000
0100
0010
,
0100
0000
0100
0000
,
1000
0000
0010
0001
,
1000
0000
1000
0000
,
0001
0000
0010
0000
,
1000
0100
1000
0010
,
0001
0000
1000
0000
,
0001
0000
1000
0000
,
0010
0100
0010
0000
,
0001
0000
1000
0000
,
0010
0100
0010
0100
,
0001
0000
0010
0000
,
1000
0100
0010
0001
,
1000
0001
1000
0010
,
0001
0000
1000
0000
,
0001
1000
0001
1000
,
0001
0000
0010
0000
,
0100
1000
0100
0010
,
0100
0000
0001
0000
,
1000
0010
1000
0010
,
1000
0000
0000
0000
,
1001
0000
0110
0000
,
0001
0010
0100
1000
,
0100
0000
0010
0000
,
0001
0100
0001
0010
,
1000
0000
0100
1000
,
0100
0010
0001
0110
,
1000
0100
1000
1001
,
0010
1000
0100
0010
,
1000
0000
0100
0010
,
0001
0000
1000
0100
,
1000
0000
0010
0001
,
0001
0010
1000
0100
,
0000
0001
1000
0100
,
0000
1000
0010
1000
,
0100
0000
0001
0000
,
0010
0100
1000
0100
,
1000
0001
1000
0010
,
1000
0100
0100
0100
,
1000
0100
1000
0001
,
0010
0100
1000
0100
,
1000
0002
1003
0002
,
0013
0100
1000
0000
,
1000
0000
0001
0000
,
0010
0100
0010
0100
,
1000
0000
0100
1000
,
0100
0000
0001
0001
,
0001
1000
1000
1000
,
0100
0010
0001
1000
,
0002
0000
0000
0003
,
2000
0000
0000
3000
,
0002
0000
0023
0000
,
0230
0000
2300
0000
,
3001
0110
1000
1001
,
0001
0101
0100
0110
,
0010
0011
0010
1010
,
1000
1100
2000
3100
,
0002
0013
0200
0301
,
2000
3010
1000
0100
,
0020
0032
0023
1030
,
0200
0310
0000
0000
;

//---------------dance-single - ----------------
#NOTES:
     dance-single:
     :
     Medium:
     6:
     0.389220,0.415470,0.034488,0.129329,0.012933,316.000000,312.000000,4.000000,15.000000,0.000000,0.000000,0.389220,0.415470,0.034488,0.129329,0.012933,316.000000,312.000000,4.000000,15.000000,0.000000,0.000000:
0000
0000
0000
0000
,
1000
0000
0010
0001
,
0010
1000
0100
1000
0100
0000
0001
0000
,
1000
0000
0000
0010
1000
0010
1000
0000
,
0001
0100
0001
0100
,
1000
0000
0000
0000
0001
0001
0000
0000
,
1000
0100
1000
0100
,
1000
0100
0011
0001
,
1000
0100
1000
0100
1000
0100
1000
0001
,
1000
0000
0100
1000
0000
0100
0000
0001
,
0000
0020
0000
0000
0000
0000
1030
0000
,
0100
1000
0100
0000
1000
0001
0010
0000
,
0002
0000
0203
0000
0302
0000
1003
0100
,
1000
0000
0001
0010
0000
0100
0000
1000
,
0000
0100
0100
0000
0100
0000
0100
0000
,
1000
0000
0100
1000
0100
0000
0001
0010
,
0001
0010
0001
0010
0001
0000
1000
0000
,
1000
0100
1000
0100
1000
0100
1000
0001
,
0000
0001
0001
0001
0001
1000
1000
1000
,
0000
0100
1000
0100
1000
0000
0001
0010
,
0000
1000
0001
1000
0001
0000
2000
0000
,
3000
0100
1000
0100
1000
0100
1000
0100
,
0000
0010
0001
0010
0001
0010
0001
1000
,
0000
1000
0100
1000
0100
0000
0001
0010
,
0000
0000
0000
1000
0100
1000
0200
0000
,
0302
0023
2030
3100
,
1000
0000
0100
0000
0001
0000
0010
1000
,
0100
1000
0100
1000
,
0001
0010
0100
1000
,
1000
0000
0000
0000
0000
0000
0100
0000
0010
0001
0000
0000
,
0010
0000
0000
1000
0000
0100
1000
0000
0000
0001
0000
0000
,
0010
0001
0100
1000
,
0100
0000
1000
0100
0000
0000
0001
0000
0000
0010
0000
0000
,
1000
0001
1000
0001
,
0010
0000
0100
1000
0100
1000
0100
0000
,
0001
0010
0001
0010
,
1000
0100
1000
0100
1000
0000
0001
0000
,
1000
0001
0010
0100
,
1000
0000
0001
0000
1000
0001
1000
0000
,
0100
0000
1000
0000
0100
0000
0010
0001
,
0000
1000
0000
0001
1000
0000
0100
0000
,
1000
0001
0010
0100
,
1000
0001
0001
0001
,
1000
0000
0100
1000
0100
1000
0000
0001
,
1000
0000
0001
0000
0010
0000
0100
1000
,
0100
0000
1000
0100
0000
0001
0000
1000
,
0000
0001
1000
0000
0100
0000
0010
0000
,
0001
0000
0010
0000
1000
0000
0100
1000
,
0100
0000
0001
0010
0001
0010
0001
1010
,
0000
1000
0010
1000
0000
1000
1000
0001
,
0000
1000
0001
1000
0001
0010
0100
1000
,
0000
1000
0100
1000
0100
0000
0001
0010
,
0000
1000
0001
1000
0001
1000
0100
0000
,
2000
0000
0000
0000
3000
0000
0010
0100
,
2000
0000
3000
0001
,
0020
0000
0030
0000
0100
1000
0100
1000
,
0002
0003
2000
3001
,
1001
0000
0120
0000
1030
0000
0100
1000
,
0100
0001
1000
0001
,
1000
0000
0001
0000
0010
0001
0010
0000
,
1000
0100
1000
0001
,
1000
0000
0001
0000
1000
0000
0100
1000
,
0100
0000
0001
0010
0001
0000
1000
0000
,
0100
0000
1000
0000
0001
0010
0001
0000
,
1000
0001
0000
0000
;

//---------------dance-single - ----------------
#NOTES:
     dance-single:
     :
     Hard:
     8:
     0.528403,0.581658,0.293146,0.913927,0.142262,429.000000,395.000000,34.000000,106.000000,0.000000,0.000000,0.528403,0.581658,0.293146,0.913927,0.142262,429.000000,395.000000,34.000000,106.000000,0.000000,0.000000:
0000
0000
0000
0000
,
2000
3001
0010
0100
0010
0100
0020
0000
,
0030
1000
0100
0010
0002
1003
0200
0000
,
0300
0010
0010
0002
2000
0000
0000
3003
,
0000
0010
0100
0010
0002
0013
0001
0000
,
0001
0000
1001
0001
0110
0100
2000
0000
,
3001
0010
0001
0000
1000
0100
1000
0000
,
1000
0000
0000
0010
0001
1000
0002
0000
,
0000
0103
0010
0100
0010
0100
0001
2000
,
3001
0000
0110
0011
0000
2000
3001
0002
,
0013
0000
0200
0000
0000
0000
0300
0000
0001
0010
0001
0000
1000
0100
1000
0000
,
0001
0010
0200
0300
0001
0010
2000
3000
,
0002
0000
1003
0001
2000
0000
0000
3001
0020
0000
0000
0000
1030
0000
0100
0000
,
0002
0003
1000
0200
0000
0302
0000
0023
,
0000
0000
0230
0000
0301
0100
0001
0000
1000
0100
1000
0000
0001
0000
0010
0000
,
1000
0100
1000
0200
0000
0301
0010
0001
,
0010
0100
1000
0100
0002
0003
1000
0000
,
0001
1000
0001
0000
1000
0100
1000
0000
0001
0000
0010
0000
0100
0000
0002
0000
,
0000
1003
0100
0010
0100
0001
0200
0002
,
0303
1000
0100
0100
0020
0000
0032
2003
,
3000
0100
0000
0010
0001
0010
0002
0000
,
0003
0000
0100
0000
0010
0000
0100
0000
1000
0000
0100
0000
0001
0010
0001
0000
,
1000
0001
1000
0000
0001
0000
0010
0000
0001
0000
0010
0000
0100
0000
2000
0000
,
3001
0010
0001
0200
0310
1000
0002
2003
,
3000
0000
0000
0001
0010
0001
0020
0000
,
2030
3000
1001
0000
0020
0030
0110
0000
,
0011
1010
0101
0110
,
0101
1000
1001
0001
,
1000
0001
0011
0000
1000
0000
0110
0000
,
1000
0100
1000
0001
0010
0001
1000
0000
0000
1001
0000
0000
,
1000
0000
0100
0000
0010
0000
0002
0000
0000
0003
0000
0000
0001
0000
0010
0000
0100
0000
1001
0000
0000
0000
0000
0000
,
2000
0000
0000
3000
0000
0000
0002
0000
0000
0003
0000
0000
0010
0000
0100
0000
0010
0000
0001
0000
0000
0000
0000
0000
,
2000
0001
3002
0100
0203
0010
0320
0000
,
2030
0000
3002
0010
0203
0010
2300
0010
,
3100
0000
1001
0001
0101
0000
0110
0000
,
2200
3300
0001
0010
0002
2003
0002
0000
,
3003
0010
0010
0100
0100
0110
1001
0000
,
2000
3000
0200
0320
0032
2000
3003
0000
,
2000
3100
0020
0031
1000
0001
2002
0000
,
3003
0000
0001
0010
0200
1300
0002
0000
,
0003
0100
0010
0100
0020
0001
0130
2000
,
3001
0010
0001
0002
0000
0203
0000
0302
,
0003
0000
0000
0100
0000
0000
0001
0000
1000
0000
0000
0100
0000
0000
1000
0000
,
0010
0000
0100
0010
0100
0002
1003
0001
,
0002
0003
0011
0000
2000
3000
1100
0001
,
0020
0000
2030
3200
0000
0302
0000
2003
,
0001
0000
3000
0000
0010
0001
0010
0000
1001
0000
0000
0000
0100
1000
0100
0000
,
0002
0000
0103
0010
0200
0000
0301
0010
,
0001
0000
2000
3100
0002
0013
2000
0002
,
3003
0010
0001
0010
0002
1003
2000
3100
,
0001
0010
0001
0010
1000
0100
1000
0002
,
1003
1000
0100
0010
0002
0103
0010
0110
,
0000
0110
0000
1000
0100
1000
0100
0000
,
2002
0000
0000
0000
0000
0000
0000
3003
,
0220
0000
0000
0000
0000
0000
0000
0330
,
2000
0000
0000
0000
3002
0000
0000
0003
,
2002
0000
0000
3003
0220
0000
0000
0000
,
0330
0000
0000
0000
1000
0100
1000
0000
0010
0001
0010
0000
1000
0001
1000
0000
,
0001
0010
0001
0000
0100
1000
0100
0000
0002
0000
0000
0000
1000
0000
0100
0000
,
0013
0000
0100
0000
1000
0000
0100
0000
0001
0010
0002
0000
1003
0000
0000
0000
,
0010
0000
0100
0000
0010
0000
0000
0000
1000
0001
0010
0000
0001
0100
1000
0000
,
1000
0001
1000
0000
0010
0000
0110
0000
2000
0000
0001
0000
3002
0000
0013
0000
,
0100
0010
0100
1000
1000
0100
0001
0010
,
0200
0000
2300
0000
3200
0001
0310
0000
,
1000
1001
0000
0000
;

//---------------dance-single - ----------------
#NOTES:
     dance-single:
     :
     Beginner:
     1:
     0.202000,0.248312,0.000000,0.000000,0.000000,164.000000,164.000000,0.000000,0.000000,0.000000,0.000000,0.202000,0.248312,0.000000,0.000000,0.000000,164.000000,164.000000,0.000000,0.000000,0.000000,0.000000:
// measure 0
1000
0000
0010
0000
,  // measure 1
0000
0000
0010
0001
,  // measure 2
1000
0000
0000
0000
,  // measure 3
1000
0000
0100
0010
,  // measure 4
0100
0000
0000
0000
,  // measure 5
0001
0000
1000
0000
,  // measure 6
0001
0000
0000
0000
,  // measure 7
0010
0000
0010
0010
,  // measure 8
0010
0000
1000
0100
,  // measure 9
1000
0000
0001
0000
,  // measure 10
1000
0001
1000
0000
,  // measure 11
0100
0000
0100
0000
,  // measure 12
0010
0000
0010
0000
,  // measure 13
1000
0100
1000
0000
,  // measure 14
0001
0000
0010
0000
,  // measure 15
0100
0000
0010
0000
,  // measure 16
0001
0010
0001
0000
,  // measure 17
1000
0000
0001
0000
,  // measure 18
1000
1000
0010
0001
,  // measure 19
0100
0000
0100
0000
,  // measure 20
0010
0000
0000
0100
,  // measure 21
1000
0000
0001
0000
,  // measure 22
1000
0000
0010
1000
,  // measure 23
0100
0000
0001
0000
,  // measure 24
0010
0000
1000
0100
,  // measure 25
1000
0000
0001
0000
,  // measure 26
0010
0100
1000
0100
,  // measure 27
1000
0000
0001
0000
,  // measure 28
0010
0100
0010
1000
,  // measure 29
1000
0000
0000
0001
,  // measure 30
0000
0010
0100
1000
,  // measure 31
0000
0001
0000
0010
,  // measure 32
0000
1000
1000
1000
,  // measure 33
0001
0000
0010
0100
,  // measure 34
1000
0000
1000
0001
,  // measure 35
1000
0000
0010
0000
,  // measure 36
0100
0001
0100
1000
,  // measure 37
1000
0000
0001
0000
,  // measure 38
0010
0100
0010
0000
,  // measure 39
0001
0000
1000
0100
,  // measure 40
1000
0000
0001
0000
,  // measure 41
1000
0001
1000
0001
,  // measure 42
0010
0000
0000
0000
,  // measure 43
0100
1000
0100
1000
,  // measure 44
1000
0000
0001
0000
,  // measure 45
0001
0000
1000
0000
,  // measure 46
0010
1000
0000
0000
,  // measure 47
0001
0100
0001
0010
,  // measure 48
0001
0100
1000
0100
,  // measure 49
1000
0010
0001
1000
,  // measure 50
0001
0000
0010
0001
,  // measure 51
1000
0000
0100
1000
,  // measure 52
0100
0000
0010
0001
,  // measure 53
0100
0000
0000
0000
,  // measure 54
1000
0000
0000
0000
,  // measure 55
0100
0000
0000
0000
,  // measure 56
0001
0000
1000
0000
,  // measure 57
0001
1000
0100
0010
,  // measure 58
0001
0010
1000
0000
,  // measure 59
0100
0000
1000
0001
,  // measure 60
1000
0000
0100
0001
,  // measure 61
0010
0100
0010
0000
,  // measure 62
0001
0000
1000
0000
,  // measure 63
0100
1000
0100
0000
,  // measure 64
0001
0000
0000
0000
;
