#TITLE:Garden Of Eden;
#SUBTITLE:;
#ARTIST:Lady Gaga;
#TITLETRANSLIT:;
#SUBTITLETRANSLIT:;
#ARTISTTRANSLIT:;
#GENRE:;
#CREDIT:;
#BANNER:Garden of Eden-bn.png;
#BACKGROUND:Garden of Eden-bg.png;
#LYRICSPATH:;
#CDTITLE:;
#MUSIC:Garden of Eden.ogg;
#OFFSET:0.000000;
#SAMPLESTART:39.368000;
#SAMPLELENGTH:15.360001;
#SELECTABLE:YES;
#DISPLAYBPM:125.000000;
#BPMS:0.000000=124.999992
,200.000000=249.999985
,204.000000=124.999992
,207.500000=249.999985
,208.000000=124.999992
;
#STOPS:200.000000=0.239998,
201.000000=0.240005,
202.000000=0.240005,
203.000000=0.240005,
207.500000=0.120003
;
#BGCHANGES:;
#KEYSOUNDS:;
#ATTACKS:;

//---------------dance-single - ----------------
#NOTES:
     dance-single:
     :
     Beginner:
     2:
     0.159225,0.225084,0.000000,0.073087,0.000000,122.000000,122.000000,0.000000,8.000000,0.000000,0.000000,0.159225,0.225084,0.000000,0.073087,0.000000,122.000000,122.000000,0.000000,8.000000,0.000000,0.000000:
0000
0000
0000
0000
,
0000
0000
0000
0000
,
0000
0000
0000
0000
,
1000
0000
0001
0000
,
0100
0010
0100
0000
,
1000
0001
0010
0000
,
0100
0000
0010
0000
,
0001
1000
0001
0000
,
0100
0000
0010
0000
,
1000
0001
1000
0000
,
0100
0000
0010
0000
,
0100
0001
0100
0000
,
0001
1000
0001
1000
,
2000
0000
3100
0000
,
0020
0000
0031
0000
,
1000
0001
1000
0001
,
1000
0000
0100
0000
,
0200
0000
0301
0000
,
1000
0000
0010
0100
,
0002
0000
1003
0000
,
1000
0000
0010
0010
,
0002
0000
0000
0000
,
1003
0000
1000
0000
,
2000
0000
0000
0000
,
3100
0000
0100
0000
,
0020
0000
0000
0000
,
0031
0000
0001
0000
,
0200
0000
0000
0000
,
0310
0000
0010
0000
,
1000
0000
0001
0001
,
1000
0000
1000
0000
,
1000
0100
0010
0001
,
0010
0000
0100
0000
,
0001
0000
0001
0001
,
0010
0000
0100
0000
,
1000
0100
1000
0000
,
0010
0000
0001
0000
,
1000
0000
0001
0000
,
0001
0000
0001
0000
,
0001
0000
1000
0000
,
1000
0000
1000
0000
,
0100
0000
0010
0000
,
0010
0000
0010
0000
,
0010
0000
0100
0000
,
0100
0000
0100
0000
,
1000
0000
0000
0000
,
0001
0000
1000
0000
,
0010
0000
0000
0000
,
0100
0000
0001
1000
,
1000
0000
0100
0000
,
0001
0100
0001
0100
,
0010
0000
1000
0000
,
0100
0100
0000
0010
,
1000
0100
0100
0010
,
0010
0001
0100
0010
;

//---------------dance-single - ----------------
#NOTES:
     dance-single:
     :
     Easy:
     3:
     0.217955,0.276359,0.045679,0.027408,0.000000,167.000000,162.000000,5.000000,3.000000,0.000000,0.000000,0.217955,0.276359,0.045679,0.027408,0.000000,167.000000,162.000000,5.000000,3.000000,0.000000,0.000000:
0000
0000
0000
0000
,
0000
0000
0000
0000
,
0000
0000
0000
0000
,
1000
0000
0010
0000
,
0100
0001
0100
0001
,
0001
0000
0010
0000
,
0100
0000
0000
1000
0000
0000
0000
0000
,
0010
1000
0010
0000
,
0100
0001
0100
0001
,
0010
0000
0100
0000
,
1000
0000
0000
0010
0000
0000
0000
0000
,
0100
0001
0010
0000
,
1000
1001
0001
0000
,
0010
0000
0100
0000
,
1000
0100
1000
0010
,
0001
0000
0100
0000
,
0001
0010
0001
0100
,
1000
0001
0001
0010
,
0001
0000
0100
1000
,
0010
0100
0010
0100
,
1000
0001
0000
0000
,
1000
0001
1000
0010
,
0100
0000
0001
0000
,
0001
0010
0001
0010
,
0100
0000
1000
1000
,
0001
0001
0010
0001
,
0100
0000
1000
0010
,
1000
0100
0010
0001
,
1000
0000
0100
1000
,
0020
0031
0001
1000
,
2000
0000
3100
0000
,
0010
0001
0010
0100
,
0010
0000
0001
1000
,
0002
0000
0013
0100
,
0010
1000
0100
0000
,
1000
0001
1000
0010
,
0100
0000
0001
1000
,
1000
0000
0000
0001
0000
0000
0010
0000
,
0100
0010
0100
0000
,
1000
0000
0000
0001
0000
0000
0000
0000
,
0010
0100
0010
0000
,
0001
0000
0000
1000
0000
0000
0000
0000
,
0100
0010
0100
0000
,
1000
0000
0100
0000
,
1001
0110
1001
0001
,
0010
0000
0000
0100
0000
0000
1000
0000
,
0100
1000
0010
0000
,
0001
0000
0000
0100
0000
0000
0010
0000
,
1000
0001
0100
0010
,
1000
0000
0001
0000
,
0010
0100
0010
1001
,
1000
0000
0000
0100
0000
0000
0010
0000
,
0001
1000
0010
1000
,
0100
0010
0001
0010
,
1000
1000
0100
0010
,
0001
0000
0000
0000
;

//---------------dance-single - ----------------
#NOTES:
     dance-single:
     :
     Medium:
     5:
     0.362823,0.376853,0.054815,0.045679,0.000000,278.000000,272.000000,6.000000,5.000000,0.000000,0.000000,0.362823,0.376853,0.054815,0.045679,0.000000,278.000000,272.000000,6.000000,5.000000,0.000000,0.000000:
0000
0000
0000
0000
,
0000
0000
0000
0000
,
0000
0000
0000
0000
,
1000
0001
0010
0001
,
0200
0300
1000
0200
0300
0000
1000
0000
,
0010
0001
0100
0001
,
1000
0000
0100
1000
0000
0000
0001
0000
,
1000
0001
0010
0100
,
0001
0000
1000
0100
0000
1000
0010
0000
,
0100
0001
0010
0000
0001
0000
0100
0000
,
1000
0010
1000
0100
0000
0000
0010
0000
,
0001
0100
0001
0000
0010
0000
1000
0000
,
0001
0000
1001
0000
1000
0000
0010
0100
,
1000
0000
0100
0000
1000
0000
0010
0001
,
1000
0000
0100
0000
1000
0010
1000
0001
,
0010
0000
0100
0000
0010
0000
0100
0001
,
1000
0000
0010
0000
0001
0000
1000
0100
,
2000
0000
3010
0000
0100
0000
0001
0010
,
0001
0000
1000
0010
1000
0000
0100
0000
,
0001
0000
0010
0000
0001
0000
0100
0001
,
1000
0010
1000
0100
,
1000
0000
0001
0000
0010
0000
0001
0100
,
0000
0001
1000
0000
0010
1000
0100
1000
,
0010
0000
0100
0000
0010
0000
0001
1000
,
0001
0000
0010
0000
0100
1000
0100
0010
,
0001
0000
0001
0000
1000
0000
0010
1000
,
0000
0100
0000
0010
0001
0000
1000
0000
,
0100
0000
0010
0000
1000
0000
0001
0010
,
0000
0000
0001
0000
1000
0100
1000
0010
,
0010
0000
0001
0010
0001
0000
0100
0000
,
1000
0001
0010
0010
0000
1000
0001
0000
,
0100
0001
0000
0100
0000
0010
0000
0100
,
0010
0000
0010
0000
0001
0010
0001
0000
,
0100
0000
1000
0100
1000
0000
0010
0000
,
0001
0100
0000
0001
0000
1000
0010
0000
,
1000
0000
0100
0000
0001
0000
0010
0001
,
2000
3100
0010
0001
,
1000
0001
1000
0100
1000
0000
0010
0000
,
0100
0000
0000
0100
0010
0000
0001
0000
,
0001
0010
0001
0100
0001
0000
0010
0000
,
0010
0000
0000
0010
0000
0100
1000
0100
,
1000
0001
0010
0001
1000
0100
1000
0000
,
0010
1000
0010
1000
0001
0000
0010
0000
,
0100
1000
0100
1000
0010
0001
0100
0001
,
1000
0001
1000
0000
0010
0000
0110
0000
,
1000
0001
1000
0100
0000
1000
0010
0100
,
0001
0000
1000
0010
0000
1000
0100
0000
,
1000
0001
0010
0001
0000
0100
1000
0010
,
1000
0000
0001
0010
0001
0100
1000
0000
,
0010
0000
1000
1000
0000
0000
0100
0000
,
0101
1010
0011
1100
,
0010
1000
0100
1000
0000
0001
0020
0030
,
1000
0000
1000
0100
0010
1000
1000
0000
,
0010
0100
0000
0100
0000
0001
0010
0000
,
0100
0010
1000
0001
0100
0010
0010
0001
,
1000
0000
0000
0000
;

//---------------dance-single - ----------------
#NOTES:
     dance-single:
     :
     Hard:
     7:
     0.477674,0.526995,0.109630,0.246668,0.059383,366.000000,354.000000,12.000000,27.000000,0.000000,0.000000,0.477674,0.526995,0.109630,0.246668,0.059383,366.000000,354.000000,12.000000,27.000000,0.000000,0.000000:
// measure 0
0000
0000
0000
0000
,  // measure 1
0000
0000
0000
0000
,  // measure 2
0000
0000
0000
0000
,  // measure 3
1000
0001
0010
0001
0100
1000
0100
0000
,  // measure 4
1000
0000
0010
1000
0000
0100
0001
0010
,  // measure 5
0001
1000
0100
1000
0010
1000
0001
0010
,  // measure 6
0002
0000
1003
0200
0300
1000
0010
0000
,  // measure 7
1000
0001
0010
0001
0100
1000
0010
1000
,  // measure 8
0002
0000
0013
0001
0000
1000
0100
1000
,  // measure 9
0010
1000
0001
1000
0001
0010
0010
0100
,  // measure 10
0200
0000
1300
0010
0000
1000
0001
1000
,  // measure 11
1000
0001
0010
0001
1000
0100
1000
0010
,  // measure 12
1001
0000
0110
0000
1001
0000
0001
0010
,  // measure 13
1000
0000
0100
0000
0010
0000
0001
1000
,  // measure 14
0100
0010
0010
1000
0001
1000
0010
0100
,  // measure 15
0002
0013
0100
0000
0001
0000
0100
1000
,  // measure 16
0010
0000
1000
0000
0002
0000
0013
0001
,  // measure 17
1000
0000
0010
1000
0100
0000
1000
0100
,  // measure 18
0010
0001
0001
0010
0001
0100
0010
1000
,  // measure 19
0100
0000
0001
0000
0010
0000
0100
1000
,  // measure 20
0010
0000
1000
0000
0001
0010
0001
0100
,  // measure 21
2000
0000
3010
0000
0001
0000
0100
0001
,  // measure 22
0010
0100
0010
0000
0001
1000
0010
1000
,  // measure 23
0200
0000
1300
0000
0010
0000
0001
0010
,  // measure 24
0001
0100
1000
0000
0010
0001
0100
0001
,  // measure 25
0200
0000
0301
0000
0010
0000
0001
0100
,  // measure 26
0001
0010
0100
0000
0010
1000
0100
1000
,  // measure 27
0020
0000
1030
0000
0100
0000
0010
0001
,  // measure 28
0200
0000
0301
0000
1000
0001
0010
0001
,  // measure 29
0100
0001
0010
0001
0100
1000
0010
1000
,  // measure 30
0100
2000
0000
3020
0000
1030
0001
0010
,  // measure 31
0001
0200
0000
2300
0000
3010
0000
0100
,  // measure 32
2000
0000
3010
0000
0100
0001
0010
0001
,  // measure 33
0100
1000
0010
0001
0100
0001
0010
0001
,  // measure 34
0100
2000
3100
0020
0000
1030
0100
0001
,  // measure 35
0010
0001
1000
0020
0000
1030
0000
0200
,  // measure 36
1300
1000
0001
0010
0001
1000
0100
1000
,  // measure 37
1000
0001
0010
0010
0010
0100
1000
0100
,  // measure 38
1000
0001
1000
0010
1000
0100
0000
0010
,  // measure 39
0001
1000
0100
0100
0100
1000
0100
0010
,  // measure 40
0001
0010
0000
0010
1000
0100
0001
0010
,  // measure 41
0001
1000
0010
0010
0010
0100
1000
0100
,  // measure 42
0010
1000
0001
0010
0100
1000
0100
1000
,  // measure 43
0100
0100
0010
0001
0010
0100
1000
0000
,  // measure 44
1001
0000
0000
0000
0110
0000
0000
0000
1010
0000
0000
0000
0001
0100
0001
0100
,  // measure 45
0001
0010
0100
1000
0001
0010
0001
1000
,  // measure 46
0100
1000
0100
0010
0001
0000
0001
0000
0000
0000
0020
0000
0031
0000
2000
0000
,  // measure 47
3100
0010
0001
0010
0100
1000
0100
1000
,  // measure 48
0001
0010
0001
0010
0001
0000
0010
0000
0001
0000
0100
0000
1000
0000
0001
0000
,  // measure 49
2000
0000
3010
0020
0000
0000
0130
0000
,  // measure 50
1001
0110
0101
1010
,  // measure 51
2000
0000
3001
0000
0100
0000
0020
0000
0130
0000
0001
0000
1000
0001
0000
0000
,  // measure 52
0100
1000
0100
1000
0001
0000
0010
0000
0001
0000
0100
0000
0010
0000
1000
0000
,  // measure 53
0100
0000
0001
0000
0000
0000
1100
0000
0000
0000
0011
0000
1000
0000
0000
0010
,  // measure 54
0000
0000
0100
0000
1000
0000
0010
0000
0200
0000
0301
0010
0001
1000
0100
1000
;
