#TITLE:GECKO;
#SUBTITLE:;
#ARTIST:Coucou Chloe;
#TITLETRANSLIT:;
#SUBTITLETRANSLIT:;
#ARTISTTRANSLIT:;
#GENRE:;
#CREDIT:;
#BANNER:gecko.png;
#BACKGROUND:gecgecgec.png;
#LYRICSPATH:;
#CDTITLE:;
#MUSIC:Gecko.mp3;
#OFFSET:0.000000;
#SAMPLESTART:56.000000;
#SAMPLELENGTH:16.000000;
#SELECTABLE:YES;
#BPMS:0.000000=170.000000
;
#STOPS:
;
#BGCHANGES:;
#KEYSOUNDS:;
#ATTACKS:;

//---------------dance-single - ----------------
#NOTES:
     dance-single:
     :
     Beginner:
     4:
     0.266533,0.332356,0.030214,0.090643,0.000000,247.000000,243.000000,4.000000,12.000000,0.000000,0.000000,0.266533,0.332356,0.030214,0.090643,0.000000,247.000000,243.000000,4.000000,12.000000,0.000000,0.000000:
1000
0000
0001
0000
,
1000
0010
0000
1000
,
0000
0000
0010
0000
,
1000
0001
0000
0001
,
0100
0000
1000
0000
,
0100
1000
0000
1000
,
0010
0000
0100
0000
,
1000
0001
0000
0000
,
1000
0000
0001
0000
,
1000
1000
0000
1000
,
1000
0000
0100
0000
,
0010
0000
0000
0000
,
0001
0000
0010
0000
,
0001
0010
0000
0010
,
0010
0000
0010
0000
,
0100
0000
0100
0000
,
1000
0100
1000
0100
,
0000
0001
0010
0000
,
1000
0000
0001
0000
,
0002
0003
2000
0000
,
3100
0000
0001
0000
,
0010
0100
0110
0000
,
1000
0000
0100
0000
,
0001
1000
0001
1000
,
1000
0010
1010
0000
,
1000
0100
0100
0000
,
0001
0010
0001
0000
,
0100
1000
0100
1000
,
0010
0000
0001
0000
,
1000
0001
0000
1000
,
0100
0000
0010
0000
,
0001
0010
1000
0100
,
2000
0000
3002
0000
,
0003
0100
1000
1000
,
2000
0000
3002
0000
,
0003
0100
1000
1000
,
0002
0000
0023
0000
,
0030
1000
1000
0000
,
0100
0000
0010
0000
,
1000
0100
0001
1000
,
1000
0000
0100
0000
,
0010
0001
0000
0010
,
0001
0000
0010
0000
,
0100
0010
0000
0100
,
1000
0000
0100
0000
,
1000
0001
1000
0001
,
0001
0000
0010
0000
,
0001
0010
0001
0010
,
1000
0100
1000
0100
,
0000
0002
0003
0210
,
0300
1000
1010
0001
,
1000
0001
1000
0100
,
1000
0000
0100
0000
,
1000
0100
0010
0001
,
1000
0000
0001
0000
,
1000
1000
1000
1000
,
0100
0000
0001
0000
,
0100
0001
0100
1000
,
0100
0000
1000
0000
,
0001
1000
0001
1000
,
1000
0000
0001
0000
,
0000
0000
1000
0010
,
1000
0000
0100
0000
,
0001
0010
1000
0000
,
0100
0000
0010
0000
,
1000
0000
0010
0001
,
1000
0000
0100
0000
,
1000
1000
0001
1000
,
1000
0001
1000
0001
,
0010
0010
0000
0100
,
1000
0000
1000
0100
,
1000
0000
0001
0010
,
0001
0010
0001
0010
,
0010
0010
0000
0100
,
1000
1000
0000
1000
,
0001
0001
0001
0001
,
1000
0100
1000
0100
,
0010
0001
1000
0000
,
1000
0100
1000
0100
,
0001
0010
0001
0010
,
1000
0000
0001
1000
,
1000
0000
0001
0000
,
0010
0010
1000
0100
,
1000
0001
0010
0100
,
2000
0000
3002
0000
,
0103
0000
1000
0000
,
1000
0000
0100
0000
,
0001
0000
0010
0000
,
1000
0000
0000
0000
;

//---------------dance-single - ----------------
#NOTES:
     dance-single:
     :
     Easy:
     5:
     0.377678,0.451703,0.135964,0.135964,0.000000,350.000000,332.000000,18.000000,18.000000,0.000000,0.000000,0.377678,0.451703,0.135964,0.135964,0.000000,350.000000,332.000000,18.000000,18.000000,0.000000,0.000000:
1000
0010
1000
0001
,
1000
1000
0000
0001
,
1000
0100
1000
0100
,
0010
0000
0000
0000
,
0001
0010
1000
0100
,
1000
0001
0000
0001
,
1000
0100
1000
0100
,
0010
1000
0000
0000
,
2000
0001
0010
0100
,
0001
0100
3000
0001
,
0010
1000
0100
1000
,
0001
0010
0100
1000
,
0002
1000
0100
1000
,
0100
1003
0010
1000
,
0100
1000
0100
0010
,
1000
0001
1000
0001
,
1010
0100
1000
0100
,
1000
0100
0010
0000
,
1000
0001
1000
0100
,
1000
1000
1000
1000
,
0001
0010
0001
0010
,
0000
0100
1000
0100
,
0001
0010
1000
0100
,
2000
0001
3010
0100
,
1000
0100
0001
0010
,
0100
1000
0000
1000
,
0001
0010
0100
1000
,
0002
0003
2000
0000
,
3100
0010
0001
0010
,
2000
3200
0301
0010
,
1000
0100
1000
0100
,
1000
0001
0001
0001
,
1000
0000
0001
0000
,
1000
0100
0010
0001
,
0002
0003
2000
3000
,
0100
0010
0001
0010
,
0001
0100
0001
0100
,
2000
3100
0000
0010
,
0001
0000
0010
0000
,
1000
0100
0001
1000
,
1001
0010
0100
0010
,
0100
0001
0000
0010
,
0001
0000
0100
0000
,
1000
0000
0100
0000
,
1000
0100
0010
0001
,
2000
3001
0001
0010
,
1000
0100
1000
0100
,
0010
0010
0010
0010
,
0002
0003
0010
1000
,
0100
1000
0100
0001
,
1000
0001
1000
0010
,
1000
1000
1000
1000
,
1001
0010
0100
0010
,
0002
0013
0100
1000
,
0100
1000
0100
0010
,
0100
0100
0100
0100
,
2000
3100
0010
0001
,
0100
0100
1000
0010
,
1000
0001
1000
0001
,
1000
1000
1000
1000
,
1000
0100
0010
0100
,
0010
0100
0001
1000
,
1001
0010
0101
0100
,
0010
1000
1100
0010
,
1001
0010
0100
0010
,
0100
0001
1001
0010
,
1100
0010
0011
1000
,
0100
1000
1001
0010
,
1010
0100
1000
0100
,
0001
1000
0001
1000
,
1000
0010
0100
0100
,
0010
1000
0001
1000
,
2000
3001
0001
0001
,
0100
0100
0010
0100
,
1000
0100
0010
0001
,
0020
1030
0100
0001
,
2000
3001
1000
0001
,
0002
1003
0100
1000
,
0010
0100
0010
0100
,
1000
0100
1000
1000
,
0001
0001
0010
0010
,
0100
0100
0001
0010
,
0001
1000
0100
1000
,
0010
1000
0001
1000
,
1001
0000
1001
0000
,
1001
1001
0010
0100
,
1000
0000
0100
0000
,
1001
1001
0010
0100
,
1000
0000
0100
0000
,
0001
0010
0000
1000
,
0000
0100
0000
0001
,
0100
1000
0000
0000
,
1000
0000
0000
0000
;

//---------------dance-single - ----------------
#NOTES:
     dance-single:
     :
     Medium:
     7:
     0.471558,0.521195,0.188839,0.030214,0.000000,437.000000,412.000000,25.000000,4.000000,0.000000,0.000000,0.471558,0.521195,0.188839,0.030214,0.000000,437.000000,412.000000,25.000000,4.000000,0.000000,0.000000:
1000
0000
0010
1000
0000
0010
1000
0000
,
0001
0001
0000
1000
,
0100
0100
1000
0100
0000
0001
1000
0001
,
1000
0001
0000
0001
,
1000
0000
0100
1000
0000
0010
0000
0000
,
0001
0001
0000
1000
,
1000
0000
1000
1000
0000
0100
0000
0001
,
1000
0001
0000
0000
,
2000
0000
0001
0010
0000
0000
0010
0000
,
0001
0100
0000
0100
,
0001
0000
0010
0001
0000
0000
0100
3000
,
0001
1000
0100
1000
,
0020
0000
1000
0000
0001
0000
1000
0001
,
1000
1000
0000
0001
,
1030
0100
1000
0100
,
0001
1000
0010
1000
,
1000
0100
0001
0000
1000
0000
0002
0000
,
0003
0010
0100
0000
,
1000
0100
0000
0010
,
0001
1000
0100
1000
,
0001
0010
1000
0100
,
0000
1000
0100
0001
,
0100
1000
1000
0100
1000
0000
0001
0000
,
1000
0001
1000
0001
0001
0000
0001
0000
,
0010
0000
1000
0100
0000
1000
0100
0000
,
0001
1000
0000
1000
,
0001
0000
0001
0001
0000
0010
1000
0010
,
1000
1000
1000
1000
,
0001
0000
0100
0001
0000
0100
0001
0000
,
1001
0110
0001
0010
,
1000
0000
0100
1000
0000
0100
0000
0000
,
0001
1000
0001
1000
0001
1000
0001
0000
,
1000
0000
1000
1000
0000
1000
1000
0000
,
0001
0001
0010
0100
,
1000
0000
0100
1000
0000
0100
1000
0000
,
0001
0010
0010
0100
,
1001
0000
0001
0010
0000
0001
0010
0000
,
0100
0110
0010
0010
,
0001
0000
0100
1000
0000
0100
1000
0100
,
0010
0010
0010
0000
0011
0000
0010
0000
,
1001
0000
0001
0001
0000
0010
0010
0010
,
0100
1000
0000
1000
,
0100
0000
1000
0100
0000
0010
0010
0000
,
0100
1000
0000
0001
,
1000
0100
1000
0010
,
0000
0001
1000
0100
,
0000
1000
0100
1000
0001
0000
1000
0000
,
0001
1000
0001
1000
0001
0000
0010
0000
,
0100
1000
0100
0000
1000
0000
0001
0000
,
0000
1000
0100
0001
,
0010
0000
0001
1000
0001
0000
1000
0000
,
1000
0100
1000
0100
1000
0000
0100
0000
,
1000
0000
0001
0010
0000
0001
0010
0000
,
2000
3100
0000
0001
,
0010
0000
0001
0010
0000
1000
0100
1000
,
0001
1000
1000
1000
,
0001
0000
0010
0001
0000
0010
0001
0000
,
1000
1000
1000
0100
,
1000
0000
0100
1000
0000
0100
0001
0010
,
0001
1000
0000
1000
1000
0000
1000
0000
,
1001
0010
0011
0101
,
1010
0010
0010
0110
,
1001
0010
1001
0011
,
0010
0100
0110
1000
,
1100
1000
0010
0010
,
0001
1000
1001
0110
,
1000
1010
0101
0011
,
0110
0000
0100
0000
1000
0000
1000
0100
,
1000
0001
0000
0001
1000
0000
1000
0001
,
1000
1000
0000
0010
,
0100
0000
1000
0100
0000
0001
1000
0001
,
1000
1000
1000
1000
,
0010
0000
0010
0010
0000
0010
0010
0010
,
0001
0001
1000
0100
,
1000
0000
0100
1000
0000
0100
0001
0010
,
0001
1000
0001
1000
,
1000
0001
0000
0010
0000
0100
1000
0000
,
1000
0001
1000
0001
,
0010
1000
0100
0000
0000
0001
1000
0001
,
1000
1000
1000
1000
,
0001
0000
1000
0001
0000
0100
1000
0100
,
1001
1000
0001
0000
1000
0000
1000
0000
,
0001
0000
0001
0001
0000
0001
0001
0001
,
1000
0000
1001
0001
1000
0000
0100
0000
,
0100
0000
1000
0100
0000
1000
0100
1000
,
0001
1000
1000
0000
0000
0000
1000
0000
,
0001
0000
0010
0001
0000
0010
0001
0010
,
0000
0100
0100
0000
0000
0000
1000
0000
,
1001
0000
0001
0001
0000
0001
0001
0000
,
0010
0000
0000
0010
0000
0000
0100
0000
,
0000
0000
1000
1000
0000
1000
0000
0001
,
1000
0001
0000
1000
0000
0000
0000
0000
,
0001
0000
0000
0000
;

//---------------dance-single - ----------------
#NOTES:
     dance-single:
     :
     Hard:
     9:
     0.630182,0.660181,0.422999,0.007554,0.000000,584.000000,528.000000,56.000000,1.000000,0.000000,0.000000,0.630182,0.660181,0.422999,0.007554,0.000000,584.000000,528.000000,56.000000,1.000000,0.000000,0.000000:
// measure 0
1000
0000
0001
0010
0000
1000
0010
1000
,  // measure 1
0001
1000
0000
0000
0000
1000
0001
0000
,  // measure 2
1000
0000
1000
1000
0000
0010
1000
0100
,  // measure 3
0001
1000
0001
0000
0000
1000
0001
0000
,  // measure 4
1000
0000
0100
1000
0000
0100
1000
0010
,  // measure 5
1000
0000
0001
1000
0000
1000
0001
0000
,  // measure 6
1000
0000
1000
0001
0000
0010
1000
0010
,  // measure 7
1001
0001
0000
0100
,  // measure 8
1001
0000
0101
0101
0000
0010
1000
0010
,  // measure 9
1100
0100
0000
0100
,  // measure 10
1000
0000
0100
0010
0000
0010
0110
0100
,  // measure 11
0001
1000
0001
1000
,  // measure 12
0100
0000
0010
0000
0100
0001
0000
1000
,  // measure 13
0100
1000
0001
1000
,  // measure 14
0001
0010
0001
1000
0100
0000
1000
0000
,  // measure 15
0100
1000
0001
1000
0001
0001
1000
0000
,  // measure 16
1000
1000
0001
0000
0001
0000
0010
0000
,  // measure 17
0100
0000
1000
0100
1000
0000
0001
0000
,  // measure 18
1000
0000
0001
0010
0001
0000
0100
0000
,  // measure 19
1001
0010
0100
1000
,  // measure 20
1010
0100
0100
0000
0001
0000
0010
0000
,  // measure 21
0001
0100
1000
0000
0100
0000
0010
0000
,  // measure 22
1000
0100
1000
0001
1000
0000
0000
0001
,  // measure 23
0001
0001
0010
1000
0100
0000
1000
0000
,  // measure 24
0001
0000
1000
0100
1000
0100
0001
0010
,  // measure 25
2000
3100
0001
0010
,  // measure 26
0001
0000
0100
0001
0100
1000
0100
1000
,  // measure 27
0001
1000
1000
0000
1000
0000
1000
0000
,  // measure 28
0001
0000
1000
0001
0010
1000
0100
1000
,  // measure 29
0000
1001
0001
0000
0001
1000
0001
0001
,  // measure 30
1000
0000
1000
1000
0000
0100
1000
0100
,  // measure 31
0001
1000
0001
1000
0001
1000
0001
1001
,  // measure 32
1000
0000
0000
1000
0000
0001
0001
0110
,  // measure 33
1000
0100
1000
0100
0001
0000
1000
0000
,  // measure 34
1000
0000
0001
1000
0100
1000
0100
0011
,  // measure 35
1000
1000
0001
0001
,  // measure 36
1000
0000
0100
1000
0100
0001
0010
1001
,  // measure 37
0001
0001
1000
0000
,  // measure 38
1000
0000
0100
1000
0001
1000
0010
1100
,  // measure 39
1000
0000
1000
0000
1000
0001
1000
0001
,  // measure 40
1000
1000
1000
0001
1000
1000
0010
0100
,  // measure 41
1000
0100
0100
0000
0000
0000
0001
1000
,  // measure 42
0001
0000
0100
1000
0100
1000
0100
0001
,  // measure 43
1000
1000
1000
0000
0000
0001
0001
0000
,  // measure 44
1000
0000
1000
0100
1000
0100
0000
0100
,  // measure 45
0000
0011
1000
0010
1000
0001
1000
0100
,  // measure 46
0100
1000
0100
1000
0100
0001
1000
1000
,  // measure 47
0001
1000
0001
1000
0001
0010
1000
1100
,  // measure 48
0000
0100
0100
0000
0001
0000
1000
0000
,  // measure 49
1000
0100
1000
0001
1000
0001
0001
0000
,  // measure 50
1000
0000
0100
1000
0100
0001
0001
0000
,  // measure 51
0001
1000
0100
1000
0100
0010
0000
0010
,  // measure 52
0100
0000
1000
0100
1000
0101
0010
1000
,  // measure 53
0100
0000
0100
0000
0100
0001
0010
0001
,  // measure 54
0011
0000
1000
0100
0000
1000
0100
1000
,  // measure 55
0001
1000
0001
0000
1000
0000
1000
0000
,  // measure 56
0001
0000
0010
0001
0000
0010
0100
1000
,  // measure 57
0110
0100
0010
0001
,  // measure 58
0010
0000
0010
0010
0000
0100
1000
0100
,  // measure 59
0001
0010
0010
1000
0010
0000
1000
0000
,  // measure 60
1000
0001
0110
0000
0011
0000
1100
0000
,  // measure 61
0011
1001
0010
1100
,  // measure 62
1001
0011
0101
0011
,  // measure 63
1001
1001
1010
1100
,  // measure 64
0110
0011
0100
1000
,  // measure 65
1010
0101
0011
1001
,  // measure 66
0101
0011
1010
1100
,  // measure 67
1010
0000
1100
0000
1001
0000
0010
0001
,  // measure 68
0010
1000
0100
1000
0000
0001
1000
0100
,  // measure 69
1000
1000
1000
0000
0001
1000
0010
1000
,  // measure 70
0100
0001
1000
1000
0000
0001
1000
1001
,  // measure 71
0010
1000
0100
1000
0100
0001
1010
1000
,  // measure 72
1000
0000
0001
1000
0000
0001
1000
0100
,  // measure 73
1000
1000
1000
0000
0001
1000
0001
0010
,  // measure 74
1000
0100
1000
0100
0000
1000
0001
1000
,  // measure 75
0001
1000
1000
0000
1000
0000
0001
0000
,  // measure 76
1000
0001
0000
0100
1000
1100
0001
1000
,  // measure 77
1000
0000
1000
0000
0001
1000
0100
1000
,  // measure 78
0100
0000
0100
0110
0000
0001
1000
0000
,  // measure 79
1000
1100
1000
1000
0001
1000
1000
1000
,  // measure 80
0001
0000
1001
0001
0000
0010
1000
0100
,  // measure 81
0101
1000
0100
1000
0100
1001
1000
0001
,  // measure 82
0001
1000
1000
0001
0000
0001
0001
1000
,  // measure 83
0100
0100
0100
0000
0010
0000
0001
0000
,  // measure 84
1000
0001
0000
0010
1000
0100
1000
0100
,  // measure 85
0001
0001
0001
0000
1000
0100
0001
0000
,  // measure 86
0000
0010
0010
0010
1000
0100
0001
0100
,  // measure 87
1000
0100
0100
0000
0100
0000
0100
0000
,  // measure 88
1001
0000
0001
0001
0000
0001
0001
0010
,  // measure 89
1000
0100
0100
0000
0000
0000
0100
0000
,  // measure 90
0000
0000
0001
0000
0000
1000
0000
0100
,  // measure 91
1100
0001
0000
1000
0001
1000
0001
1000
,  // measure 92
0100
0000
0000
0000
;
