#TITLE:Lipstick Gel;
#SUBTITLE:;
#ARTIST:SOPHIE;
#TITLETRANSLIT:;
#SUBTITLETRANSLIT:;
#ARTISTTRANSLIT:;
#GENRE:;
#CREDIT:;
#BANNER:Lipstick Gel-bn.png;
#BACKGROUND:Lipstick Gel-bg.png;
#LYRICSPATH:;
#CDTITLE:;
#MUSIC:Lipstick Gel.ogg;
#OFFSET:0.000000;
#SAMPLESTART:35.555557;
#SAMPLELENGTH:14.222221;
#SELECTABLE:YES;
#BPMS:0.000000=270.000000
,48.000000=135.000000
,56.000000=270.000000
;
#STOPS:
;
#BGCHANGES:;
#KEYSOUNDS:;
#ATTACKS:;

//---------------dance-single - ----------------
#NOTES:
     dance-single:
     :
     Beginner:
     2:
     0.219940,0.326392,0.071847,0.359236,0.000000,150.000000,143.000000,7.000000,35.000000,0.000000,0.000000,0.219940,0.326392,0.071847,0.359236,0.000000,150.000000,143.000000,7.000000,35.000000,0.000000,0.000000:
0000
0000
0000
0000
,
0000
0000
0000
0000
,
0000
0000
0000
0000
,
0000
0000
0000
0000
,
1000
0000
0000
0000
,
0000
0000
0000
0000
,
0001
0000
0000
0000
,
0000
0000
0000
0000
,
1000
0000
0100
0000
,
0000
0000
0100
0000
,
0010
0000
0001
0000
,
0010
0000
0000
0000
,
0100
0000
1000
0000
,
0001
0000
0000
0000
,
1000
0000
1001
0000
,
0001
0000
0000
0000
,
0010
0000
0010
0000
,
0010
0000
0000
0000
,
0100
0000
0100
0000
,
0100
0000
0000
0000
,
1000
0000
1000
0000
,
1000
0000
0000
0000
,
0001
0000
0001
0000
,
1000
0000
0000
0000
,
0010
0000
0010
0000
,
0200
0000
0000
0000
,
1300
0000
1000
0000
,
0001
0000
0000
0000
,
0010
0000
0010
0000
,
0100
0000
0000
0000
,
0001
0000
0001
0000
,
1000
0000
0000
0000
,
0010
0000
0100
0000
,
0002
0000
0000
0000
,
1003
0000
1000
0000
,
1000
0000
0000
0000
,
0010
0000
0100
0000
,
0010
0000
0000
0000
,
0001
0000
1000
0000
,
0002
0000
0000
0000
,
1003
0000
1000
0000
,
1000
0000
0000
0000
,
0001
0000
0000
0000
,
0020
0000
0000
0000
,
0130
0000
0000
0000
,
1000
0000
0000
0000
,
0201
0000
0000
0000
,
2300
0000
0001
0000
,
3020
0000
0000
0000
,
0000
0000
0000
0000
,
0230
0000
0000
0000
,
2300
0000
0000
0000
,
3002
0000
0000
0000
,
0000
0000
0000
0003
,
0220
0000
0000
0300
,
2030
0000
0000
0000
,
3200
0000
0000
0000
,
0000
0000
0000
0300
,
2020
0000
0000
0030
,
3002
0000
0000
0000
,
0023
0000
0000
0000
,
0000
0000
1000
0030
,
1001
0000
1000
0000
,
0010
0000
0100
0000
,
0010
0000
0010
0000
,
0010
0000
0000
0000
,
0001
0000
1000
0000
,
0001
0000
1000
0000
,
0100
0000
0100
0000
,
0100
0000
0000
0000
,
0200
0000
0010
0000
,
0001
0000
0010
0300
,
1000
0000
0010
0000
,
1000
0000
0000
0000
,
1000
0000
0001
0000
,
1000
0000
0001
0000
,
0010
0000
0100
0000
,
0010
0000
0000
0000
,
0020
0000
0000
0000
,
2030
0000
0002
3000
,
0203
0000
0000
0000
,
0000
0000
0000
0000
,
0310
0100
0010
0000
,
1000
0000
0100
0000
,
1000
0000
0010
0000
,
1000
0000
0000
0001
,
2000
0000
0100
0000
,
3002
0000
0010
0000
,
2003
0000
0100
0000
,
3002
0000
0010
0000
,
1003
0000
0100
0000
,
0000
0010
1000
0000
,
0002
0000
1003
0000
,
0010
0000
0100
0000
,
0002
0000
1003
0000
,
1000
0000
0010
0000
,
1001
0000
0000
0000
,
0001
0000
2000
0000
,
3001
0000
0000
0000
,
0000
0000
1001
0000
,
0002
0000
0000
0000
,
0023
0000
0000
0000
,
0230
0000
0000
0000
,
0000
0000
1000
0000
,
2300
0000
0000
0000
,
0002
0000
0000
0000
,
3003
0000
0000
0000
;

//---------------dance-single - ----------------
#NOTES:
     dance-single:
     :
     Easy:
     5:
     0.335776,0.435189,0.061583,0.246333,0.000000,229.000000,223.000000,6.000000,24.000000,0.000000,0.000000,0.335776,0.435189,0.061583,0.246333,0.000000,229.000000,223.000000,6.000000,24.000000,0.000000,0.000000:
0000
0000
0000
0000
,
0000
0000
0000
0000
,
0000
0000
0000
0000
,
0000
0000
0000
0000
,
1000
0000
0001
0000
,
1000
0001
0000
0000
,
0001
1000
0001
0000
,
1000
0001
1000
0000
,
0010
0000
0100
0000
,
0010
0100
0000
0000
,
0100
0010
0100
0000
,
0010
0000
0100
0000
,
2001
0000
3001
0000
,
0010
0100
0000
0000
,
1000
0000
0001
0000
,
1000
0010
0000
0000
,
1000
0000
0100
1000
,
0100
1000
0000
0000
,
0001
0000
1000
0000
,
0010
0100
0000
0000
,
0010
0000
0100
0010
,
0100
0010
0000
0000
,
0001
0000
1000
0000
,
0100
1000
0000
0000
,
0010
0000
0100
0001
,
0010
0100
0000
0000
,
1000
0000
1000
0100
,
1000
0010
0000
0000
,
0001
0000
1000
0001
,
1000
0010
0000
0000
,
0020
0000
0031
0100
,
1000
0100
0000
0000
,
1000
0000
0010
1000
,
0100
0010
0001
0010
,
0100
0000
1000
0001
,
0100
0010
0000
0000
,
0100
0000
0001
0100
,
0001
0010
0001
1000
,
0100
0000
0010
1000
,
0010
0100
0001
0010
,
0001
0000
0010
0001
,
0010
0001
0000
0000
,
0200
0000
1000
1300
,
1000
0001
1000
0010
,
0100
0000
0010
0100
,
0010
0001
0000
0000
,
2000
0000
0000
0000
,
0001
0000
0020
3000
,
0230
0000
0000
0000
,
0000
0000
0000
0000
0000
0000
0000
0300
0200
0000
0000
0000
0000
0000
0000
0000
,
2300
0000
0010
0000
,
3002
0000
0000
0000
,
2003
0000
0100
0000
,
0000
0000
0000
3000
,
0120
0000
0000
0000
,
2030
0000
0100
0000
,
3002
0000
0000
0000
,
0000
0000
0010
0000
,
0203
0000
0000
0000
,
0001
0000
0000
0000
,
0010
0000
0000
0000
,
0000
0000
1000
0300
,
1001
0000
1000
0010
,
1000
0100
0000
0000
,
0001
0000
0010
0001
,
0100
0001
0000
0000
,
1000
0000
0010
1000
,
0100
0010
0000
0000
,
0001
0000
0010
0000
,
0100
0010
0000
0000
,
2001
0000
0010
0100
,
0001
0010
0000
3000
,
1000
0000
0100
0001
,
0100
1000
0000
0000
,
0100
0000
0001
0010
,
0001
1000
0000
0000
,
0100
0000
1000
0010
,
1000
0100
0000
0000
,
2000
0000
0000
0000
,
3200
0000
0001
0000
,
0320
0000
0000
0000
,
0000
0000
0000
0000
,
1030
0100
1000
0000
,
0001
0010
0001
0000
,
1000
0000
0100
0000
,
1000
0010
0000
0200
,
1300
0001
1000
0000
,
0000
0100
0010
0000
,
0010
0000
1000
0000
,
0001
1000
0000
0000
,
0010
1000
0100
0000
,
0001
0010
0001
0000
,
2000
0000
3010
0000
,
0000
0010
0000
0100
,
0010
0002
0013
0000
,
0100
0010
0100
0000
,
1001
0000
0000
0000
,
0100
0000
0110
0000
,
0002
0000
0000
0000
,
0000
0000
0010
0000
,
0103
0000
0100
0000
,
0010
0100
0000
0010
,
0001
0010
0001
0000
,
1000
0000
0100
0000
,
2000
0000
0000
0000
,
0002
0000
0000
0000
,
3003
0000
0000
0000
;

//---------------dance-single - ----------------
#NOTES:
     dance-single:
     :
     Medium:
     7:
     0.409089,0.489587,0.092375,0.359236,0.000000,279.000000,270.000000,9.000000,35.000000,0.000000,0.000000,0.409089,0.489587,0.092375,0.359236,0.000000,279.000000,270.000000,9.000000,35.000000,0.000000,0.000000:
0000
0000
0000
0000
,
0000
0000
0000
0000
,
0000
0000
0000
0000
,
0000
0000
0000
0000
,
1000
0000
0000
0000
0010
0000
0000
1000
,
0000
0100
0000
0001
,
0010
0000
0001
0000
1000
0000
0000
0100
,
0000
1000
0010
0000
,
1000
0000
0000
0000
0001
0000
0000
0010
,
0000
0100
0000
0100
,
0001
0000
0010
0000
0001
0000
0000
1000
,
0000
0010
1000
0000
,
0200
0000
0000
0000
0301
0010
0000
0000
,
1000
0001
0000
0000
,
1000
0100
0000
0000
1001
0000
0001
0000
,
0110
0100
0000
0000
,
1000
0000
0010
1000
,
0100
0000
0100
1000
0000
0000
0000
0000
,
0001
0000
1000
0010
,
1000
0000
0010
1000
0100
0000
0010
0000
,
0001
0000
1000
0100
,
1000
0000
0100
1000
0000
0000
0000
0000
,
0010
0000
0100
0010
,
0100
0000
0010
0001
0000
0000
0000
0000
,
1000
0000
0010
1000
,
0100
0000
1000
0100
0001
0000
0100
0000
,
1000
0000
0001
0010
,
0100
0000
0010
0100
0000
0000
0000
0000
,
0010
0000
1000
0010
,
1000
0000
0100
1000
0000
0000
0000
0000
,
0010
0000
1000
0001
,
0010
0000
0001
0010
0000
0000
0000
0000
,
0100
0000
0010
2000
,
3002
2003
3020
0230
,
0301
0000
0100
0001
,
0100
0000
0010
0100
0000
0000
0000
0000
,
0010
0000
1000
0010
,
1000
0000
0100
0010
0001
0000
0100
0000
,
0001
0000
1000
0001
,
0010
0000
0001
0100
0000
0000
0000
0000
,
0010
0000
0100
0010
,
0100
0000
0010
1000
0000
0000
0000
0000
,
1000
0000
0010
0001
,
0010
0000
1000
0100
0000
0000
0010
0000
,
0010
0000
1000
0001
,
1000
0000
0001
1000
0000
0000
0000
0000
,
2001
0000
0000
0000
,
0010
0000
0200
0300
,
3002
0000
0000
0000
,
0000
0000
0020
0030
,
2003
0000
0100
0000
,
3020
0000
0000
0000
,
0230
0000
1000
0000
,
0000
0000
0000
0300
,
2002
0000
0000
0003
,
3020
0000
1000
0000
,
0230
0000
0000
0000
,
0000
0000
0010
0000
,
2300
0000
0100
0000
,
3002
0000
0000
0000
,
0203
0000
0010
0000
,
0000
0000
0000
0300
,
0002
1003
2000
3010
,
1000
0000
0100
0010
0000
0000
0000
0000
,
0010
0000
0100
0010
,
1000
0000
0001
0010
0000
0000
0000
0000
,
0001
1000
0010
0100
,
0010
0000
0100
0001
0000
0000
0000
0000
,
0001
0000
0001
0010
,
0100
0000
0100
0001
0000
0000
0000
0000
,
0110
0100
0010
1000
,
0010
0000
2000
0100
0000
0000
0000
0000
,
3001
1000
0010
1000
,
0010
0000
0100
0001
0000
0000
0000
0000
,
0010
0001
0100
0001
,
0010
0000
0001
0010
0000
0000
0000
0000
,
0100
0000
0010
0100
,
0010
0000
0100
0010
0000
0000
0000
0000
,
1001
0001
1000
0000
,
0010
0000
0110
0000
,
0001
0010
0002
0000
,
0000
0000
0000
0000
,
1003
0000
0001
0000
1000
0000
0000
0001
,
0000
0010
0100
0000
,
1000
0000
0000
0000
0010
0000
0000
1000
,
0000
0001
0000
0200
,
0310
0000
1000
0000
0100
0000
0000
0010
,
0000
0001
1000
0000
,
0010
0000
0000
0000
0100
0000
0000
0010
,
0000
0100
0000
0002
,
0103
0000
1000
0000
0100
0000
0000
0010
,
0000
0010
0001
0000
,
1001
0000
0000
0000
0001
0000
0000
0010
,
0000
0001
0000
0200
,
1300
0000
0001
0000
0010
0000
0000
0100
,
0000
0010
0001
0000
,
1002
0000
0000
0000
,
0023
0000
0200
0300
,
0032
0000
0000
0000
,
0000
0000
2000
3000
,
0013
0000
0001
0000
,
0100
0010
0000
0100
,
1000
0000
0001
0000
0010
0000
0000
0001
,
0010
0100
0020
0000
,
2030
0000
0000
0000
,
0002
0000
0000
0000
,
3003
0000
0000
0000
;

//---------------dance-single - ----------------
#NOTES:
     dance-single:
     :
     Hard:
     10:
     0.585041,0.870377,0.225805,0.492666,0.015396,399.000000,377.000000,22.000000,48.000000,0.000000,0.000000,0.585041,0.870377,0.225805,0.492666,0.015396,399.000000,377.000000,22.000000,48.000000,0.000000,0.000000:
// measure 0
0000
0000
0000
0000
,  // measure 1
0000
0000
0000
0000
,  // measure 2
0000
0000
0000
0000
,  // measure 3
0000
0000
0000
0000
,  // measure 4
1000
0000
0000
0000
0001
0000
0000
1000
,  // measure 5
0000
0000
0010
0000
0000
0000
0100
1000
,  // measure 6
0100
0000
0001
0000
0010
0000
0000
0001
,  // measure 7
0000
1000
0010
0000
,  // measure 8
1000
0100
1000
0000
0001
0000
0000
0010
,  // measure 9
0000
0000
0100
0000
0000
0000
1000
0100
,  // measure 10
1000
0000
1000
0000
0001
0000
0000
0010
,  // measure 11
0000
0010
0100
0000
,  // measure 12
0200
0000
0000
0000
0000
0000
0300
0000
0001
0000
0010
0001
0000
0000
0000
0000
,  // measure 13
1000
0001
0000
0000
,  // measure 14
1000
0010
1000
0010
0100
0001
0100
0001
,  // measure 15
1000
0000
0100
0010
0000
0000
0000
0000
,  // measure 16
0001
1000
0001
1000
0010
0000
0100
0000
,  // measure 17
0010
0000
0100
0001
0000
0000
0000
0000
,  // measure 18
1000
0100
0001
0100
1000
0100
0010
0001
,  // measure 19
0020
0032
2003
3010
,  // measure 20
0100
0001
0100
0000
0010
0000
1000
0000
,  // measure 21
0010
0000
1000
0002
0000
0003
0000
0000
,  // measure 22
0001
0100
0001
0010
0001
0100
1000
0100
,  // measure 23
0010
1000
0010
1000
0000
0000
0000
0000
,  // measure 24
0001
0000
0010
0001
,  // measure 25
1000
0000
0010
0100
2000
0000
3100
0000
,  // measure 26
1000
0100
1000
0100
0010
0001
0010
0001
,  // measure 27
0010
0001
1000
0100
0000
0000
0000
0000
,  // measure 28
0100
0001
0100
0000
0001
0000
1000
0000
,  // measure 29
0010
0000
1000
0010
0000
0000
0000
0000
,  // measure 30
1000
0100
1000
0001
0010
1000
0010
0001
,  // measure 31
0100
0010
0100
0001
0000
0000
0000
0000
,  // measure 32
0001
0000
0000
0000
1000
0000
0010
1000
,  // measure 33
0010
1000
0001
0100
0001
0000
0100
0000
,  // measure 34
0010
0100
0010
0100
0001
1000
0001
1000
,  // measure 35
0001
0000
0010
0100
0000
0000
0000
0000
,  // measure 36
1000
0000
1010
0010
,  // measure 37
0100
0002
0203
0301
,  // measure 38
1000
0100
1000
0100
1000
0100
2000
0000
,  // measure 39
3200
0320
0032
0013
,  // measure 40
0001
0010
0001
0000
0100
0000
1000
0000
,  // measure 41
0100
0000
1000
0010
0000
0000
0000
0000
,  // measure 42
1000
0001
1000
0001
1000
0010
1000
0100
,  // measure 43
1000
0001
0010
0001
0100
0000
0001
0000
,  // measure 44
0110
0000
1001
0010
,  // measure 45
0100
0000
0100
0010
0000
0000
0000
0000
,  // measure 46
2001
0000
0000
0000
,  // measure 47
0010
0000
0000
0000
0002
0000
0000
0003
,  // measure 48
3020
0000
0000
0000
1000
0000
0000
0100
,  // measure 49
0000
1000
0200
0300
,  // measure 50
0130
0000
0000
0000
0000
0000
0000
1000
0001
0000
0000
0000
0000
0000
0010
0000
,  // measure 51
0000
0100
0000
1000
,  // measure 52
1000
0100
1000
0000
0001
0000
0000
0010
,  // measure 53
0000
1000
0000
0100
,  // measure 54
0210
0000
0000
0000
0301
0000
0000
1000
,  // measure 55
0000
0010
0200
0300
,  // measure 56
0001
0000
0010
0000
0001
0000
0000
1000
,  // measure 57
0000
0010
0000
1000
,  // measure 58
1002
0000
0100
0000
,  // measure 59
0023
0001
0000
0100
,  // measure 60
1030
0000
0000
0000
0000
0000
0000
1000
0001
0000
0000
0000
0000
0000
0010
0000
,  // measure 61
0000
0100
0020
0130
,  // measure 62
1001
0110
1001
0110
,  // measure 63
0100
0010
1000
0001
0000
0000
0000
0000
,  // measure 64
2020
3030
0101
0100
,  // measure 65
0001
0000
1000
0010
0000
0000
0000
0000
,  // measure 66
1000
0001
1000
0010
0100
0010
0100
0001
,  // measure 67
1000
0001
0010
0100
0000
0000
0000
0000
,  // measure 68
2200
3300
0011
0001
,  // measure 69
0010
0000
0100
1000
0000
0000
0000
0000
,  // measure 70
2000
0000
3001
1000
0010
0100
0010
0000
,  // measure 71
0100
0001
2000
0020
0000
0000
0000
3030
,  // measure 72
0101
0000
0001
0010
,  // measure 73
1000
0000
0010
0200
0000
0300
0000
0000
,  // measure 74
1000
0100
0001
0100
1000
0001
0010
0001
,  // measure 75
0010
0100
1000
0010
0000
0000
0000
0000
,  // measure 76
1000
0100
1000
0100
1000
0000
0001
0000
,  // measure 77
0010
0000
0001
0010
0000
0000
0000
0000
,  // measure 78
2001
0000
0000
0000
,  // measure 79
3002
0003
0220
0030
,  // measure 80
0302
0000
0000
0000
,  // measure 81
0000
0000
0000
0000
,  // measure 82
0103
0000
0010
0000
0100
0000
0000
0010
,  // measure 83
0000
1000
0010
0000
,  // measure 84
1000
0000
0000
0000
0001
0000
0000
1000
,  // measure 85
0000
0000
0100
0000
0000
0000
1000
0010
,  // measure 86
1000
0000
0001
0000
0110
0000
0000
2000
,  // measure 87
0000
3100
0200
0000
,  // measure 88
0301
0000
0010
0000
0001
0000
0000
0100
,  // measure 89
0000
0000
0100
0000
0000
0000
1000
0010
,  // measure 90
1000
0000
0001
0000
0100
0000
0000
0010
,  // measure 91
0000
0010
0001
0000
,  // measure 92
0100
0000
0000
0100
0010
0000
0000
1000
,  // measure 93
0000
0000
0001
0000
0000
0000
0100
1000
,  // measure 94
0100
0000
0010
0001
0010
0000
0000
0100
,  // measure 95
0000
1000
1002
0003
,  // measure 96
0220
0030
0000
0000
,  // measure 97
2300
0000
0002
0003
,  // measure 98
3020
1000
0000
0000
0000
0000
0000
0000
,  // measure 99
0000
0000
0000
0030
2002
0000
0000
3003
,  // measure 100
0010
1000
0010
0000
0100
0000
0000
0001
,  // measure 101
0010
0001
0000
1000
,  // measure 102
0100
0001
0100
0000
0010
0000
0000
0001
,  // measure 103
1000
0010
0220
0330
,  // measure 104
0002
0000
0000
0000
,  // measure 105
2000
0000
0000
0000
,  // measure 106
3003
0000
0000
0000
;
