#VERSION:0.83;
#TITLE:Entertnmnt;
#SUBTITLE:;
#ARTIST:Oklou;
#TITLETRANSLIT:;
#SUBTITLETRANSLIT:;
#ARTISTTRANSLIT:;
#GENRE:;
#ORIGIN:;
#CREDIT:;
#BANNER:enterbanner.png;
#BACKGROUND:oklou.png;
#PREVIEWVID:;
#JACKET:;
#CDIMAGE:;
#DISCIMAGE:;
#LYRICSPATH:;
#CDTITLE:;
#MUSIC:Entertnmnt SM.mp3;
#OFFSET:0.000000;
#SAMPLESTART:42.105263;
#SAMPLELENGTH:16.842106;
#SELECTABLE:YES;
#BPMS:0.000=114.000;
#STOPS:;
#DELAYS:;
#WARPS:;
#TIMESIGNATURES:0.000=4=4;
#TICKCOUNTS:0.000=4;
#COMBOS:0.000=1;
#SPEEDS:0.000=1.000=0.000=0;
#SCROLLS:0.000=1.000;
#FAKES:;
#LABELS:0.000=Song Start;
#BGCHANGES:;
#KEYSOUNDS:;
#ATTACKS:
;

//---------------dance-single - ----------------
#NOTEDATA:;
#CHARTNAME:;
#STEPSTYPE:dance-single;
#DESCRIPTION:;
#CHARTSTYLE:;
#DIFFICULTY:Medium;
#METER:5;
#RADARVALUES:0.300915,0.326345,0.000000,0.178006,0.000000,213.000000,213.000000,0.000000,18.000000,0.000000,0.000000,0.000000,0.000000,0.000000,0.300915,0.326345,0.000000,0.178006,0.000000,213.000000,213.000000,0.000000,18.000000,0.000000,0.000000,0.000000,0.000000,0.000000;
#CREDIT:;
#NOTES:
0000
0000
0000
0000
,
0000
0000
0000
0000
,
0000
0000
0000
0000
,
0000
0000
0000
0000
,
1000
0000
0001
1000
0000
0000
0010
0100
,
1000
0000
0100
1000
0001
0000
0010
0000
,
1000
0000
0010
1000
0000
0100
0001
0000
,
0010
0000
0100
1000
0100
0000
0001
0000
,
0010
0000
0001
0010
0000
1000
0100
1000
,
0001
0000
0010
0001
1000
0100
0100
0000
,
1000
0000
0010
0001
0000
1000
0100
0000
,
0001
0000
0010
0001
1000
0100
0002
0000
,
1003
0000
0010
1000
0000
0001
0010
0000
,
0001
0000
0100
0001
1000
0010
1000
0000
,
0001
0000
0100
0100
0000
1000
0100
1000
,
1000
0100
0010
0001
,
1000
0000
0010
1000
0000
0100
0001
0010
,
1000
0000
0100
1000
0000
0100
0010
0000
,
0010
0000
0100
0010
0000
0000
0001
0001
,
1000
0000
0100
1000
0000
0010
1000
0000
,
0002
0000
1003
0100
0000
0000
0010
0000
,
1000
0000
0010
1000
0100
0010
0001
0100
,
1000
0100
1000
0002
0000
0003
0010
0000
,
1000
0010
1000
0100
0010
0100
1000
0010
,
2000
0000
3010
2000
3000
0100
0001
1000
,
0010
0000
0001
0100
0001
0010
0001
0000
,
2000
0000
3010
1000
0000
0100
0001
0000
,
0002
0003
0010
1000
0000
0100
0010
0000
,
0002
0003
1000
0100
0000
1000
0010
0000
,
0001
0000
1000
0010
2000
0000
3100
0001
,
0020
0030
0001
1000
0000
0100
1000
0000
,
0020
0030
0100
0010
0000
0100
0010
0010
,
0002
0003
0010
0001
0000
0010
1000
0000
,
1000
0100
1000
0100
0001
0010
0001
0100
,
1000
0010
1000
0001
0000
0010
0001
0000
,
0100
0000
1000
0010
1000
0100
0001
0010
,
0200
0000
0310
1000
0000
0001
0000
0000
,
2000
0000
3001
0010
0000
0100
0000
0000
,
0200
0000
0301
0010
0000
0001
0000
0000
,
2000
0000
3010
0100
0000
0010
0000
0000
,
0002
0003
0100
1000
0000
0010
0000
0000
,
0200
0300
0010
0100
0000
0010
0000
0000
,
1000
0000
0001
1000
0000
0010
0000
0000
,
0100
0000
1000
0100
0000
0001
1000
0000
,
0010
0000
0000
0000
;

//---------------dance-single - ----------------
#NOTEDATA:;
#CHARTNAME:;
#STEPSTYPE:dance-single;
#DESCRIPTION:;
#CHARTSTYLE:;
#DIFFICULTY:Easy;
#METER:3;
#RADARVALUES:0.183657,0.194694,0.000000,0.178006,0.000000,130.000000,130.000000,0.000000,18.000000,0.000000,0.000000,0.000000,0.000000,0.000000,0.183657,0.194694,0.000000,0.178006,0.000000,130.000000,130.000000,0.000000,18.000000,0.000000,0.000000,0.000000,0.000000,0.000000;
#CREDIT:;
#NOTES:
0000
0000
0000
0000
,
0000
0000
0000
0000
,
0000
0000
0000
0000
,
0000
0000
0000
0000
,
1000
0100
0000
0010
,
0001
0010
2000
3200
,
0301
0000
0000
1000
,
0010
0100
1000
0100
,
0001
0010
0000
1000
,
0100
1000
0010
0001
,
0100
0010
0000
0100
,
1000
0100
1000
0002
,
1003
0100
0000
0010
,
0100
0010
0200
0302
,
1003
0100
0000
1000
,
0010
0100
1000
1000
,
0001
0010
0100
1000
,
0010
1000
0100
0001
,
0001
0010
0100
0100
,
0010
0000
0100
0010
,
0002
0000
1003
0000
,
0100
0010
0100
0010
,
0020
0000
0130
0000
,
1000
0001
1000
0001
,
0010
0002
0003
1000
,
1000
0200
0300
0010
,
1000
0010
0000
0001
,
1000
0100
0001
0001
,
1000
1000
1000
0010
,
0001
0010
0001
0010
,
0100
0100
0100
0000
,
1000
0010
0001
0100
,
1000
0100
0000
0010
,
1000
0010
0100
0010
,
0002
1003
0000
0100
,
1000
0010
1000
0100
,
2000
0000
0000
3001
,
0002
0000
0000
0013
,
0200
0000
0000
1300
,
0020
0000
0000
0031
,
2000
0100
0000
3001
,
0200
0001
0000
0310
,
0200
0010
0000
1300
,
0002
0010
0000
1003
;

//---------------dance-single - ----------------
#NOTEDATA:;
#CHARTNAME:;
#STEPSTYPE:dance-single;
#DESCRIPTION:;
#CHARTSTYLE:;
#DIFFICULTY:Beginner;
#METER:2;
#RADARVALUES:0.121496,0.174051,0.009889,0.098892,0.000000,86.000000,85.000000,1.000000,10.000000,0.000000,0.000000,0.000000,0.000000,0.000000,0.121496,0.174051,0.009889,0.098892,0.000000,86.000000,85.000000,1.000000,10.000000,0.000000,0.000000,0.000000,0.000000,0.000000;
#CREDIT:;
#NOTES:
0000
0000
0000
0000
,
0000
0000
0000
0000
,
0000
0000
0000
0000
,
0000
0000
0000
0000
,
0000
0000
0000
0100
,
0100
0000
0010
0001
,
1000
0000
0000
1000
,
1000
0000
0010
0001
,
0100
0000
0000
0100
,
0110
0100
0010
0100
,
0000
0000
0000
0001
,
0010
0001
2000
0000
,
3100
0000
0001
0000
,
0010
0001
0010
0000
,
1000
0000
0100
0000
,
1000
1000
0001
0001
,
0010
0000
0100
0000
,
1000
0000
0100
0010
,
1000
0000
0001
0100
,
0010
0010
0001
0001
,
2000
0000
3000
0000
,
0001
0010
0001
0100
,
2000
0000
3010
0000
,
0000
0100
0010
0100
,
0020
0030
0000
0000
,
1000
0100
1000
0000
,
0002
0003
0010
0000
,
0000
1000
0000
0001
,
0010
0000
0100
0000
,
1000
0001
1000
0000
,
1000
0000
0010
0000
,
0100
0100
0100
0100
,
0010
0000
0000
0001
,
1000
0000
0010
0001
,
0200
0000
0300
1000
,
0010
0000
0001
1000
,
0020
0000
0000
0000
,
0000
0000
0000
0000
,
2030
0000
0000
0000
,
0000
0000
0000
0000
,
3200
0000
0000
0000
,
0000
0000
0000
0000
,
0302
0000
0000
0000
,
0000
0000
0000
0000
,
0003
0000
0000
0000
;

//---------------dance-single - ----------------
#NOTEDATA:;
#CHARTNAME:;
#STEPSTYPE:dance-single;
#DESCRIPTION:;
#CHARTSTYLE:;
#DIFFICULTY:Hard;
#METER:6;
#RADARVALUES:0.367315,0.347112,0.009889,0.197785,0.000000,260.000000,259.000000,1.000000,20.000000,0.000000,0.000000,0.000000,0.000000,0.000000,0.367315,0.347112,0.009889,0.197785,0.000000,260.000000,259.000000,1.000000,20.000000,0.000000,0.000000,0.000000,0.000000,0.000000;
#CREDIT:;
#NOTES:
0000
0000
0000
0000
,
0000
0000
0000
0000
,
0000
0000
0000
0000
,
0000
0000
0000
0000
,
1000
1000
0001
1000
0000
0100
1000
0100
,
0002
0000
0013
1000
0100
0001
0010
0000
,
1000
0100
0001
1000
0000
0010
1000
0100
,
0001
0000
0010
0001
0010
1000
0100
0001
,
1000
0000
0010
1000
0000
0100
1000
0100
,
0001
0010
0001
0100
1000
0001
1001
0000
,
1000
0000
0100
1000
0000
0010
0100
0010
,
0001
0010
0001
0100
0100
0001
2000
0100
,
3001
1000
0010
0001
0000
0100
1000
0100
,
1000
0010
0001
0100
0001
1000
0010
1000
,
0100
0000
0001
1000
0000
0010
0100
0001
,
0001
1000
0010
1000
0100
1000
0001
0000
,
0001
0000
0010
0001
0000
0100
0001
1000
,
0100
1000
0001
0010
0001
1000
0200
0000
,
1300
0000
0001
0010
0000
1000
0010
1000
,
0100
1000
0100
0001
0010
0001
0100
1000
,
0002
0000
1003
0200
0000
0000
1300
0000
,
0010
1000
0100
0001
0010
0001
0100
1000
,
0020
0000
1030
0200
0300
1000
0001
0000
,
1000
0010
1000
0100
0001
0010
0001
1000
,
0010
1000
1000
0001
0000
0100
1000
0100
,
1000
0001
0010
0001
1000
0010
1000
0100
,
1000
0001
0001
1000
0000
0010
0100
0000
,
1000
0100
0001
1000
0001
0010
0010
0001
,
0200
0000
1300
0200
0300
0001
0010
0000
,
1000
0010
1000
0100
0001
0100
0001
0010
,
0002
0000
0103
0002
0000
1003
0010
0000
,
1000
0100
1000
0100
0010
0001
0010
0001
,
0100
1000
0001
1000
0000
0100
0001
0010
,
1000
0001
1000
0010
0100
0010
0100
0010
,
0001
0010
0001
2000
3000
0100
0001
0000
,
1000
0010
1000
0100
0001
0010
0001
1000
,
2000
0000
0100
0001
0000
0010
0100
3000
,
0002
0000
0010
0100
0000
1000
0010
0003
,
0020
0000
0100
1000
0000
0001
1000
0030
,
0002
0000
0100
1000
0000
0010
1003
0000
,
0020
0000
0100
0001
0000
1000
0100
0030
,
0002
0000
0100
1000
0000
0010
0100
0003
,
0000
0000
1000
0100
0020
0001
1030
0000
,
2000
0000
3100
0001
0000
0010
0001
1000
;
