#TITLE:Cluck;
#SUBTITLE:;
#ARTIST:Felicita & Kero Kero Bonito;
#TITLETRANSLIT:;
#SUBTITLETRANSLIT:;
#ARTISTTRANSLIT:;
#GENRE:;
#CREDIT:;
#BANNER:Cluck-bn.png;
#BACKGROUND:Cluck-bg.png;
#LYRICSPATH:;
#CDTITLE:;
#MUSIC:Cluck.ogg;
#OFFSET:0.000000;
#SAMPLESTART:36.924015;
#SAMPLELENGTH:14.769093;
#SELECTABLE:YES;
#BPMS:0.000000=130.000000
;
#STOPS:127.750000=0.230770,
142.000000=0.461533,
184.000000=0.461533
;
#BGCHANGES:;
#KEYSOUNDS:;
#ATTACKS:;

//---------------dance-single - ----------------
#NOTES:
     dance-single:
     :
     Beginner:
     2:
     0.235164,0.263455,0.019031,0.237882,0.000000,173.000000,171.000000,2.000000,25.000000,0.000000,0.000000,0.235164,0.263455,0.019031,0.237882,0.000000,173.000000,171.000000,2.000000,25.000000,0.000000,0.000000:
0000
0000
0000
0000
,
0000
0000
0000
0000
,
0000
0000
0000
0000
,
0000
0000
0000
0000
,
1000
0001
2000
3001
,
0000
0020
0031
0100
,
2000
3001
0010
0100
,
0000
0002
0013
1000
,
1000
0001
0000
0010
,
0000
0100
0100
0100
,
0000
1000
0000
0001
,
0000
0010
0010
0000
,
2000
3001
0000
0010
,
0000
0100
0100
0000
,
0001
2000
3000
0010
,
0000
0000
1000
0002
,
1003
0100
0010
0001
,
0010
0100
1000
1000
,
0010
0100
0010
0100
,
0001
1000
0002
0000
,
0013
0100
1000
0001
,
0010
0100
2000
3001
,
1000
0010
0001
0100
,
2000
3100
0100
0001
,
0020
0130
1000
0001
,
0010
0100
0010
0100
,
0001
1000
0020
1030
,
0001
0010
0002
0103
,
1001
0010
1000
0100
,
1000
0010
0100
0100
,
0002
0013
0010
0010
,
2000
3100
0100
0010
,
0000
0100
0000
1000
0000
0010
0000
0100
,
0000
0010
0000
0001
0000
0100
0000
1000
,
0000
0010
0000
0200
0000
0301
0000
1000
,
0000
0010
0000
0100
0000
0001
0000
0001
,
0000
1000
0000
1000
0000
0010
0000
0100
,
0000
0010
0000
0100
0000
2000
0000
3010
,
0000
0002
0000
0103
0000
1000
0000
0010
,
0000
2000
0000
0000
0000
3001
0000
0000
,
0000
0010
0000
0000
0000
0000
0000
0100
,
0000
0000
0000
0001
0000
1000
0000
0000
,
0000
0010
0000
0000
0000
0000
0000
0001
,
0000
0200
0000
0320
0000
2030
0000
0000
,
0000
3020
0000
0000
0000
0030
0000
0100
,
0000
0001
0000
0010
0000
0001
0000
0000
,
0000
0000
0000
0000
0000
0100
0000
0002
,
0000
0000
0000
1003
0000
0010
0000
0100
,
0000
0001
0000
0000
0000
0010
0000
1000
,
0000
0100
0000
1000
0000
0010
0000
0100
,
0000
0001
0000
0000
0000
0010
0000
1000
,
0000
0020
0000
0031
0000
1000
0000
0010
,
0000
0100
0000
0000
0000
1000
0000
0000
,
0000
0100
0000
0010
0000
0001
0000
1000
,
0000
0010
0000
0000
0000
0100
0000
1000
,
0000
0001
0000
1001
0000
0000
0000
0000
;

//---------------dance-single - ----------------
#NOTES:
     dance-single:
     :
     Easy:
     4:
     0.318083,0.474218,0.409158,0.352066,0.000000,234.000000,191.000000,43.000000,37.000000,0.000000,0.000000,0.318083,0.474218,0.409158,0.352066,0.000000,234.000000,191.000000,43.000000,37.000000,0.000000,0.000000:
0000
0000
0000
0000
,
0000
0000
0000
0000
,
0000
0000
0000
0000
,
0000
0000
0000
0000
,
2000
0000
3000
0020
0000
0030
0001
0000
,
0000
0200
0000
0300
2000
0000
3002
0000
,
0103
0000
0000
0020
0000
0030
0100
0000
,
1000
2000
3010
0100
,
1001
0010
0000
1000
,
0000
0010
0010
0100
,
2000
3001
0010
0100
,
0000
1000
0001
2000
,
3010
0000
0100
0000
0000
0020
0000
0000
,
0031
1000
0010
0100
,
2000
3010
0000
0001
,
0000
0100
1000
0010
,
1001
0110
1001
0110
,
0110
1001
0110
1001
,
0011
1100
0011
1100
,
0101
1010
0200
0000
,
0310
0100
1000
0001
,
0010
0100
2000
3010
,
0001
0010
0100
1000
,
2000
3100
0010
0002
,
0013
0100
1000
0001
,
0010
0100
2000
3002
,
1003
0010
0100
0001
,
0100
0200
0310
0010
,
2001
3001
0010
0100
,
0020
0031
1000
0010
,
0100
0010
0010
0010
,
0010
0100
0100
0100
,
0000
0001
0000
0001
0000
1000
0000
0010
,
0000
0100
0000
0100
0000
2000
0000
3001
,
0000
0010
0200
0000
0300
0010
0000
0100
,
0000
0001
0000
0010
0000
1001
0000
1001
,
0000
0011
0000
0110
0000
1100
0000
0101
,
0000
0110
0000
1100
0000
1010
0000
1001
,
0000
0101
0000
0011
0000
2000
0000
0002
,
3000
0023
0000
0230
0000
2300
0000
0000
,
3020
0000
0000
0031
0000
0000
0100
0000
,
0000
1000
0000
0020
0030
1000
0000
0001
,
0000
0010
0000
0100
0000
0000
2000
0000
,
3000
0020
0000
0230
0000
1300
0000
0000
,
0001
0000
0000
1000
0000
0000
0100
0000
,
0000
1000
0000
0010
0000
2000
0000
3001
,
0020
0130
0000
0000
1000
0000
0000
0020
,
0000
0230
0000
0301
0000
1001
0000
1000
,
0000
1010
0000
0100
0000
0101
0000
0010
,
0000
0110
0000
0100
0000
1100
0000
0100
,
0000
1001
0000
0010
0000
0110
0000
0100
,
0000
0101
0000
0010
0000
0011
0000
1010
,
0000
0100
0000
1000
0000
1010
0000
1000
,
0000
1100
0000
0100
0000
0110
0000
0001
,
0000
1001
0000
1000
0000
1010
0000
0100
,
0000
0020
0000
0031
0000
0000
0000
0000
;

//---------------dance-single - ----------------
#NOTES:
     dance-single:
     :
     Medium:
     6:
     0.440422,0.500564,0.390127,0.285459,0.009515,324.000000,283.000000,41.000000,30.000000,0.000000,0.000000,0.440422,0.500564,0.390127,0.285459,0.009515,324.000000,283.000000,41.000000,30.000000,0.000000,0.000000:
0000
0000
0000
0000
,
0000
0000
0000
0000
,
0000
0000
0000
0000
,
0000
0000
0000
0000
,
1000
0002
0003
1000
0010
0000
0100
0000
,
0000
1000
0020
0030
1000
0000
0200
0000
,
1300
0001
0000
0010
0100
0000
1000
0000
,
0000
0010
0100
0000
0001
0000
1000
0000
,
1001
0010
0100
1000
,
0100
0000
0011
0000
0001
1000
1010
0000
,
1000
1100
0100
0010
,
0001
0000
0011
0000
0001
1000
1001
0000
,
0020
0000
0130
0000
1000
0200
0010
0300
,
0001
0000
1001
0000
1000
0001
0110
0000
,
2000
3001
0010
0011
,
1000
0000
0020
0130
0001
1000
0120
0030
,
1001
0000
0120
0000
1030
1000
1100
0000
,
0011
0000
0101
1000
1010
0010
0001
0200
,
0010
0301
1000
0000
0010
0000
1000
0100
,
0010
1000
0010
0002
0100
0000
0000
0000
,
0013
0000
0100
0000
1000
1000
0001
0000
,
0010
0000
0100
0000
0010
0001
1000
0100
,
2000
0000
3010
0000
0001
0100
0100
0000
,
0020
0000
0130
0000
0010
0100
0002
1003
,
0010
0000
0100
0000
1000
0010
0001
0000
,
0010
0000
0100
0000
0001
0100
0020
0000
,
1030
0000
1010
0000
0100
0010
0110
0000
,
2000
0000
0000
0000
3200
0000
0000
0000
0301
0000
0010
0000
0200
0000
0000
0300
,
1001
0000
0110
0000
1100
0010
0001
0000
,
0020
0000
0230
0000
1300
0001
0001
2000
,
3010
0000
0010
0000
0010
0100
0010
0000
,
0100
0000
0100
0000
0100
0010
0100
0000
,
0000
0110
0000
1000
1000
0001
0001
2000
,
0000
3200
0000
0310
0001
0001
0000
0010
,
0000
1000
0020
2030
3001
0100
0000
1000
,
0000
1001
0000
0100
0010
0002
0000
2003
,
0000
3100
0100
0020
0000
0031
0000
1000
,
0010
1000
0001
0100
0020
0000
0031
1001
,
0000
0110
0000
0100
0010
1000
0100
0010
,
0002
1000
1000
1000
1003
1000
0100
0001
,
1000
0010
1000
1100
0000
0000
1000
0001
,
0000
0000
0010
0000
0000
0010
0000
0000
1000
0000
0100
0000
0000
0000
0011
0000
,
1000
0100
0000
1010
0000
0000
1000
0100
,
0000
0010
0001
0010
0001
1000
0010
1000
,
0100
0010
0001
0101
0000
0000
1000
1010
,
0000
0000
1000
0000
0000
0100
0000
0000
0010
0000
0001
0000
0000
0000
1010
0000
,
0100
0010
0000
0000
0001
0010
0000
0001
,
0001
0001
0001
1000
0010
1000
0100
1000
,
0010
1001
0000
0000
0010
0101
0000
1000
,
0010
1000
0100
1000
0010
0011
1000
0100
,
0000
0110
0000
0000
1000
0001
0000
0010
,
0010
0100
0100
1000
0010
1001
0010
1000
,
0100
0101
0000
0000
1000
0010
0000
0100
,
0001
0010
0001
0101
0000
1010
1000
0100
,
0000
0010
0000
0100
1000
0010
0000
1001
,
0001
0010
0100
1001
0000
0000
0000
0000
;

//---------------dance-single - ----------------
#NOTES:
     dance-single:
     :
     Hard:
     8:
     0.528778,0.579600,0.237882,0.171275,0.361581,389.000000,364.000000,25.000000,18.000000,0.000000,0.000000,0.528778,0.579600,0.237882,0.171275,0.361581,389.000000,364.000000,25.000000,18.000000,0.000000,0.000000:
// measure 0
0000
0000
0000
0000
,  // measure 1
0000
0000
0000
0000
,  // measure 2
0000
0000
0000
0000
,  // measure 3
0000
0000
0000
0000
,  // measure 4
1000
0000
0001
0010
0000
0000
1000
0000
0100
0000
1000
0000
1010
0000
0000
0000
,  // measure 5
1000
0000
0001
0000
0010
0000
0000
0000
0100
0000
0000
0000
1000
0010
1000
0010
,  // measure 6
1000
0000
0001
0100
0000
0000
1000
0000
0010
0000
0000
0000
0100
0000
0000
0000
,  // measure 7
0000
0000
1000
0000
0001
0000
0000
0000
0020
0000
0000
0030
1000
0000
0000
0000
,  // measure 8
1001
0000
0000
0000
0001
0000
0000
0010
1000
0000
0000
0000
1100
0000
0000
1000
,  // measure 9
0010
0000
0000
0000
1001
0000
0000
0100
0001
0000
0010
0000
0011
0000
0000
1000
,  // measure 10
0100
0000
0000
0000
1001
0000
0000
1000
0100
0000
0000
0010
0200
0000
0000
0000
,  // measure 11
1300
0000
0000
0000
0011
0000
0000
0001
1000
0000
0100
0000
0010
0000
0000
0100
,  // measure 12
0020
0000
0000
0000
1030
0000
0000
0001
0010
0000
0020
0000
0100
0000
0000
0000
,  // measure 13
1030
0000
0000
0000
0000
0000
0000
0000
0000
0000
0000
0000
0010
0000
0000
0000
0000
0000
0000
0000
0000
1000
0000
0000
0100
0000
0000
0000
0000
0000
1000
0000
0000
0000
0000
0000
0001
0000
0000
0000
0000
0000
0000
0000
0100
0000
0000
0000
,  // measure 14
1000
0000
0000
0000
0010
0000
0000
0100
0001
0000
0000
0000
0010
0000
0000
0001
,  // measure 15
1000
0000
0000
0000
0010
0000
1000
0000
0100
0000
0001
0000
1000
0001
1000
0000
,  // measure 16
1001
0000
1001
0000
0110
0001
0010
0000
,  // measure 17
1100
0000
1010
1000
0100
0001
0010
0001
,  // measure 18
1001
0010
1000
0000
1100
0000
0010
0100
,  // measure 19
0001
0001
0010
1000
0200
0000
0000
0000
,  // measure 20
0310
0000
0000
0000
0100
0000
0000
0100
1000
0000
1000
0000
0001
0000
0000
0000
,  // measure 21
0010
0000
0000
0000
0100
0000
0000
0010
1000
0000
0100
0000
0010
0000
0001
0000
,  // measure 22
1000
0000
0000
0000
0010
0000
0000
1000
0100
0000
0001
0000
0010
0000
0000
0000
,  // measure 23
0001
0000
0000
0000
0100
0000
0000
0100
1000
0000
0010
0000
1000
0100
1000
0001
,  // measure 24
0010
0000
0000
0000
0100
0000
0000
0001
1000
0000
1000
0000
0001
0000
0000
0000
,  // measure 25
0010
0000
0000
0000
0100
0000
0000
0001
1000
0000
0010
0000
0100
0000
0000
0000
,  // measure 26
0010
0000
0100
0000
0010
0001
0100
0000
,  // measure 27
1000
0000
0000
0000
0020
0000
0000
0100
1030
0000
0100
0000
1000
0001
0020
0030
,  // measure 28
1001
0000
0000
0000
0011
0000
0000
0100
1000
0000
0100
0000
1000
0000
0000
0000
,  // measure 29
0010
0000
0000
0000
0100
0000
0000
1000
0001
0000
0010
0000
0001
0000
0010
1000
,  // measure 30
0100
0000
0000
0000
0010
0000
0000
0010
1000
0000
0100
0000
0001
0000
0000
0000
,  // measure 31
0010
0000
0000
0000
0100
0000
0000
0100
1000
0000
0010
0000
1000
0000
0000
0000
,  // measure 32
0000
0000
0001
0000
0000
0010
1000
0000
0100
0000
0010
0000
0000
0000
0100
0000
,  // measure 33
0000
0000
0001
0000
0000
0010
0001
0000
0100
0000
2000
0000
0000
0000
3010
0000
,  // measure 34
0000
0000
1000
0000
0010
0001
0010
1000
0100
0000
0020
0000
0000
0000
1030
0000
,  // measure 35
0000
0000
0100
0000
0000
1000
0001
0000
1010
0000
1000
0000
0000
0000
0100
0000
,  // measure 36
0000
1000
0010
0100
0000
0001
0000
0010
,  // measure 37
0100
0000
0001
0000
1000
0000
0010
0000
2000
0000
0100
3000
0001
0000
0010
0000
,  // measure 38
0000
0100
0000
1000
0010
1000
0100
0001
,  // measure 39
0010
0000
1000
0100
1000
0100
1000
0100
1000
0100
0010
0000
0001
1000
0000
0000
,  // measure 40
0010
0000
1000
0100
1000
0000
0001
0000
0000
0000
0000
0000
0010
1000
0020
0000
,  // measure 41
0030
0000
0100
0000
1000
0001
0000
1000
0010
0000
0100
0000
1000
0000
1000
0001
,  // measure 42
0010
0100
1000
0000
0000
0000
0101
0000
0000
0000
0000
0000
0010
0000
0001
1000
,  // measure 43
0002
0000
0023
0000
0230
0000
2300
0000
3200
0000
1300
0000
0001
0000
1000
0010
,  // measure 44
1000
0000
0100
0000
0000
0000
0011
0000
0000
0000
0000
0000
0010
0000
1000
0010
,  // measure 45
1000
0010
1000
0000
0001
0100
0001
0000
0010
0000
1000
0000
0100
1000
0000
0000
,  // measure 46
0010
1000
0000
0000
0001
1000
0000
0020
,  // measure 47
2030
0000
3010
1000
0010
1000
0001
0000
0001
0100
0000
0000
0001
0100
1000
0010
,  // measure 48
0000
0000
0101
0000
0000
0000
0010
0000
0001
0000
0010
0001
0000
0000
1000
0000
,  // measure 49
0100
1000
0000
0000
0100
0000
1000
0000
0010
1000
0000
0000
0001
0000
0100
0001
,  // measure 50
0000
0000
0110
0000
0000
0000
1000
0000
0001
0000
0100
0001
0000
0001
1000
0000
,  // measure 51
0010
0000
1001
0000
0110
0000
0001
0000
0010
0001
0000
0000
1000
0010
1000
0000
,  // measure 52
0000
0000
1100
0000
0000
0000
0011
0000
1000
0000
0010
1000
0000
0001
0100
0000
,  // measure 53
0010
0001
0010
0000
0100
0000
1000
0000
0010
1000
0001
0000
0100
0000
1000
0000
,  // measure 54
0100
0000
0010
0000
0000
0000
0001
0000
0001
0000
1000
0010
1000
0010
0100
0000
,  // measure 55
0000
1000
0000
0000
0100
1000
0001
0000
0000
0000
0000
0000
0000
0000
0000
0000
;
