#VERSION:0.83;
#TITLE:Bronze;
#SUBTITLE:;
#ARTIST:Thy Slaughter;
#TITLETRANSLIT:Bronze;
#SUBTITLETRANSLIT:;
#ARTISTTRANSLIT:;
#GENRE:;
#ORIGIN:;
#CREDIT:;
#BANNER:thy slaughter.png;
#BACKGROUND:Screen Shot 2017-07-20 at 7.38.10 PM.png;
#PREVIEWVID:;
#JACKET:;
#CDIMAGE:;
#DISCIMAGE:;
#LYRICSPATH:;
#CDTITLE:;
#MUSIC:Bronze (Short).mp3;
#OFFSET:0.000000;
#SAMPLESTART:28.545000;
#SAMPLELENGTH:14.513000;
#SELECTABLE:YES;
#BPMS:0.000=132.433;
#STOPS:;
#DELAYS:96.000=0.453;
#WARPS:;
#TIMESIGNATURES:0.000=4=4;
#TICKCOUNTS:0.000=4;
#COMBOS:0.000=1;
#SPEEDS:0.000=1.000=0.000=0;
#SCROLLS:0.000=1.000;
#FAKES:;
#LABELS:0.000=Song Start;
#BGCHANGES:;
#KEYSOUNDS:;
#ATTACKS:
;

//---------------dance-single - ----------------
#NOTEDATA:;
#CHARTNAME:;
#STEPSTYPE:dance-single;
#DESCRIPTION:;
#CHARTSTYLE:;
#DIFFICULTY:Beginner;
#METER:2;
#RADARVALUES:0.153630,0.166246,0.022561,0.135366,0.000000,143.000000,140.000000,3.000000,18.000000,0.000000,0.000000,0.000000,0.000000,0.000000,0.153630,0.166246,0.022561,0.135366,0.000000,143.000000,140.000000,3.000000,18.000000,0.000000,0.000000,0.000000,0.000000,0.000000;
#CREDIT:;
#NOTES:
1000
0000
0010
0000
,
1000
0001
1000
0000
,
0010
0000
0100
1000
,
0010
0000
0001
0000
,
1000
0000
0010
0010
,
0010
0000
1000
0000
,
0100
0000
0001
0000
,
1000
0001
0010
1000
,
0001
0000
0100
0000
,
1000
0100
1000
0000
,
0010
0000
0001
0000
,
1000
0100
0010
0000
,
1000
0000
0001
0000
,
1000
0001
1000
0000
,
0010
0100
1000
0100
,
0010
0000
0001
0000
,
1000
0000
0010
0001
,
0100
0000
1000
0010
,
1000
0001
0010
0000
,
1000
0100
0010
0001
,
1000
0001
0010
0000
,
1000
0100
1000
0000
,
0001
0001
0001
0000
,
1000
1000
1000
0000
,
1000
1000
1000
0001
,
0001
0100
0010
1000
,
0100
0010
0001
0010
,
0100
0010
0100
1000
,
1000
1000
1000
0001
,
0001
0001
0001
1000
,
0100
1000
0100
0010
,
0001
0010
0001
1000
,
0000
0001
0000
0100
,
0000
0010
0000
1000
,
0100
1000
0000
0001
,
0010
0001
1000
1000
,
1000
1000
0000
0010
,
0010
0010
0000
0001
,
0100
0001
0000
0010
,
1000
0010
0000
2000
,
0000
3200
0000
0302
,
0000
0023
0000
2030
,
0000
3200
0000
0320
,
0000
0032
0000
2003
,
0000
3002
0000
2003
,
0000
3002
0000
0203
,
0000
0320
0000
2030
,
0000
0000
3002
0000
0000
0003
1001
0000
,
0000
1001
0000
0000
2002
0000
0000
0000
,
0000
3003
0000
0000
0000
0000
0000
0000
;

//---------------dance-single - ----------------
#NOTEDATA:;
#CHARTNAME:;
#STEPSTYPE:dance-single;
#DESCRIPTION:;
#CHARTSTYLE:;
#DIFFICULTY:Easy;
#METER:3;
#RADARVALUES:0.208421,0.331647,0.195529,0.090244,0.000000,194.000000,168.000000,26.000000,12.000000,0.000000,0.000000,0.000000,0.000000,0.000000,0.208421,0.331647,0.195529,0.090244,0.000000,194.000000,168.000000,26.000000,12.000000,0.000000,0.000000,0.000000,0.000000,0.000000;
#CREDIT:;
#NOTES:
1000
0000
0100
1000
,
0100
0010
1000
0001
,
1000
0000
0001
0010
,
1000
0100
1000
0100
,
0010
0000
0001
0010
,
0001
0010
1000
0100
,
1000
0000
0010
0100
,
0010
0100
0010
0100
,
1000
0000
0001
0000
,
0010
0100
1000
0100
,
1000
0020
0032
2003
,
3100
0010
0001
1000
,
0001
0010
0100
0000
,
1000
0100
0010
0001
,
1000
0002
0023
0230
,
1300
0100
0010
0001
,
1001
0110
0001
0010
,
1000
0100
0010
0001
,
0011
1100
0010
0100
,
1010
0101
1000
0010
,
0100
1000
0100
0010
,
0001
0010
0100
0001
,
0100
0001
0010
0001
,
1000
0100
0010
0100
,
1001
0010
0100
1000
,
0100
0010
0100
1000
,
0010
0001
1000
0010
,
0100
1000
0100
1001
,
1001
1001
1001
0110
,
0110
0110
0110
1001
,
1001
0011
0011
1100
,
1100
1010
0101
1000
,
0010
0000
0100
1000
,
0000
0100
0010
0001
,
0000
1000
0000
0010
,
1000
0010
0001
0100
,
0000
1000
0000
0100
,
0010
0001
0000
1000
,
0000
0100
0000
0010
,
0000
0001
0000
0100
,
0000
1000
0000
0010
,
0000
0001
0000
1000
,
0100
0010
0000
1000
,
0001
0010
0000
1000
,
0100
0010
0000
0001
,
0010
1000
0000
0100
,
0010
0001
1000
0100
,
0010
0100
1000
2002
,
3003
0220
0000
0330
2002
0000
0000
0000
,
3003
0000
0000
0000
;

//---------------dance-single - ----------------
#NOTEDATA:;
#CHARTNAME:;
#STEPSTYPE:dance-single;
#DESCRIPTION:;
#CHARTSTYLE:;
#DIFFICULTY:Medium;
#METER:7;
#RADARVALUES:0.298665,0.424852,0.082724,0.097764,0.000000,278.000000,267.000000,11.000000,13.000000,0.000000,0.000000,0.000000,0.000000,0.000000,0.298665,0.424852,0.082724,0.097764,0.000000,278.000000,267.000000,11.000000,13.000000,0.000000,0.000000,0.000000,0.000000,0.000000;
#CREDIT:;
#NOTES:
1000
0000
0100
1000
0000
0010
0000
0001
,
0000
1000
0000
0001
1000
0000
0100
0000
,
0010
0000
0001
1000
0000
0001
0000
1000
,
0000
0100
0010
0100
0010
1000
0000
0001
,
1000
0000
0010
0100
0000
1000
0000
0100
,
0000
0001
0000
1000
0010
0000
0100
0000
,
1000
0000
0100
0010
0000
0001
0000
1000
,
0000
0100
1000
0100
1000
0100
0010
0001
,
1000
0000
0001
1000
0000
0000
0000
0010
,
0100
1000
0100
0000
1000
0000
0100
0000
,
0010
0001
1000
0000
0001
0000
0010
0000
,
0100
1000
0100
1000
0000
0001
1000
0001
,
1000
0010
0000
1000
0000
0100
0000
0001
,
0010
1000
0100
0000
0001
1000
0000
0010
,
0001
1000
0010
0000
0100
0000
1000
0000
,
0100
1000
0100
1000
0000
0000
0001
0010
,
0000
0000
1000
0100
0000
0000
0001
0010
,
1000
0000
0100
0000
0001
0000
0010
1000
,
0010
1000
0001
0100
0000
1000
0000
0100
,
0001
0000
0010
1000
0100
0001
0010
1000
,
0100
1000
0100
1000
0000
0001
0010
0100
,
1000
0100
1000
0010
0000
0001
1000
0100
,
1000
0100
0001
0010
1000
0100
0001
0010
,
1000
0100
1000
0100
0001
0010
1000
0100
,
0001
1000
0100
1000
0010
0001
1000
0001
,
0010
1000
0100
0001
0010
1000
0010
1000
,
0001
0100
0001
0100
0001
0010
0001
1000
,
0010
1000
0100
0001
1000
0001
1001
0010
,
0100
1000
0100
0010
0001
0100
1001
0010
,
0100
1000
0100
0001
0010
1000
1001
0010
,
0100
1000
1001
0010
0100
1000
1001
0010
,
1001
0010
1001
0010
1001
0000
0001
0000
,
0100
1000
0100
0001
,
0010
0100
1000
0100
,
0001
0010
0000
0000
0000
0000
1000
0000
,
0100
0001
0010
0100
,
1000
0000
0000
0100
0000
0100
0001
0000
,
0010
0100
0000
1000
0000
0100
0000
0000
,
1000
0001
0000
0100
0000
0100
1000
0000
,
0100
0010
0000
0000
0001
1000
2000
0000
,
0010
0100
0000
0000
0001
0100
3002
0000
,
0000
1000
0010
0203
,
1000
0001
0000
0000
0001
0010
0302
0000
,
0100
0000
0010
0000
0100
0003
0020
0000
,
0100
0001
0000
0000
1000
0100
2030
0000
,
0010
0100
0010
3002
,
0100
1000
0000
0000
0000
0000
0100
0000
,
1000
0100
0000
0000
0100
0013
2002
0000
,
3003
0220
0000
0330
2020
0000
0000
0000
,
0000
3030
0000
0000
0000
0000
0000
0000
;

//---------------dance-single - ----------------
#NOTEDATA:;
#CHARTNAME:;
#STEPSTYPE:dance-single;
#DESCRIPTION:;
#CHARTSTYLE:;
#DIFFICULTY:Hard;
#METER:8;
#RADARVALUES:0.351307,0.405346,0.278252,0.391057,0.180488,327.000000,290.000000,37.000000,52.000000,0.000000,0.000000,6.000000,0.000000,0.000000,0.351307,0.405346,0.278252,0.391057,0.180488,327.000000,290.000000,37.000000,52.000000,0.000000,0.000000,6.000000,0.000000,0.000000;
#CREDIT:;
#NOTES:
// measure 0
1000
0000
1000
0010
0000
0001
0000
1000
,  // measure 1
0000
0000
0001
0000
0000
0000
1000
0000
0010
0000
0000
0100
0000
0000
1000
0000
,  // measure 2
0100
0000
0001
0010
0000
1000
0000
0100
,  // measure 3
0000
0000
1000
0001
0010
0000
1000
0100
0010
0000
0000
0001
0000
0000
1000
0000
,  // measure 4
0100
0000
1000
0010
0000
0001
0000
1000
,  // measure 5
0000
0000
0001
0000
0000
0000
1000
0000
0010
0000
0000
0100
0000
0000
1000
0000
,  // measure 6
0100
0000
0000
0000
0001
0000
0010
0100
0000
0000
1000
0000
0000
0001
0100
0000
,  // measure 7
0000
0000
0001
0010
1000
0000
0010
0000
1000
0000
0000
0100
0000
0000
0001
0000
,  // measure 8
1000
0000
0000
1000
0001
0000
0010
0000
0000
0000
1000
0000
0000
0000
0100
0000
,  // measure 9
0001
0000
0010
1000
0100
0000
0000
0000
0001
0000
0000
1000
0000
0000
0001
0000
,  // measure 10
1000
0000
0000
0010
0100
0000
1000
0000
0000
0000
0100
0000
0001
0000
1000
0000
,  // measure 11
0010
0000
0000
0100
0000
0000
1000
0000
0000
0000
0001
0000
0010
0000
0100
1000
,  // measure 12
0100
0000
0000
1000
0100
0000
0001
0000
0000
0000
0001
0000
0000
0000
0001
0000
,  // measure 13
0010
0000
0100
0001
0010
0000
0000
0000
1000
0000
0000
1000
0000
0000
0010
0000
,  // measure 14
1000
0000
0000
0100
0000
0000
0010
0000
0001
0000
0010
0000
0100
0000
0000
0000
,  // measure 15
1001
0000
0000
0101
0000
0000
0011
0000
0000
0000
1000
0000
0010
0000
0001
0000
,  // measure 16
1001
0000
0000
0002
1003
0000
0100
0000
0110
0000
0010
0000
0011
0000
0001
0000
,  // measure 17
0101
0000
0000
1001
0000
0000
1010
0000
0000
0000
0010
0000
0001
0000
0010
0000
,  // measure 18
1000
0000
0000
0100
0010
0000
0001
0000
1001
0000
0001
0000
0101
0000
0100
0000
,  // measure 19
0101
0000
0000
1010
0000
0000
0110
0000
0000
0000
1000
0000
0200
0000
0310
0000
,  // measure 20
1001
0000
0000
0010
0100
0000
0001
0000
2000
0000
3100
0000
0020
0000
0130
0000
,  // measure 21
0002
0000
0003
1000
0001
0000
1001
0000
0100
0000
2000
0000
0100
0000
3010
0000
,  // measure 22
0000
0000
0000
0010
0100
0000
1000
0000
0000
0000
0001
0000
0000
0000
0001
0000
,  // measure 23
1000
0000
0000
0100
0010
0000
0001
0000
0000
0000
1000
0000
0100
0000
0000
0000
,  // measure 24
1001
0000
0001
0000
0010
0000
1000
0000
0001
0000
1000
0000
0110
0000
0000
0100
,  // measure 25
1000
0000
0001
0000
1000
0000
0010
0000
1000
0000
0100
0000
0001
0000
0000
1000
,  // measure 26
0100
0000
0010
0000
0001
0000
0010
0000
0001
0000
0100
0000
1000
0000
0000
0100
,  // measure 27
0010
0000
0001
0000
1000
0000
0001
0000
1000
0000
0010
0000
1001
0000
0000
1001
,  // measure 28
0000
0000
0110
0000
0000
0000
0110
0000
0000
0000
0020
0000
0031
0000
0000
0011
,  // measure 29
0000
0000
1010
0000
0000
0000
1010
0000
0000
0000
2000
0000
3100
0000
0000
1100
,  // measure 30
0000
0000
1100
0000
0000
0000
0101
0000
0000
0000
0202
0303
0101
0000
0000
0001
,  // measure 31
0100
0000
0100
0000
0001
0000
0001
0000
0100
0000
0100
0000
1000
0000
0000
0200
,  // measure 32
0000
0000
0301
0000
0000
0000
0000
0000
2000
0000
3100
0000
0002
0000
0000
0203
,  // measure 33
0000
0000
2300
0000
0000
0000
0000
0000
0100
0000
3010
0000
0002
0000
0000
0203
,  // measure 34
1000
0000
1300
0000
0000
0000
0010
0000
0000
0000
1000
0000
0200
0000
0300
0020
,  // measure 35
0000
0000
0032
0000
0000
0000
0010
0000
1000
0000
0013
0000
2001
0000
0000
0100
,  // measure 36
0000
0000
0010
0000
0000
0000
0001
0000
0000
0000
3010
0000
0201
0000
0000
1000
,  // measure 37
0000
1000
0000
0001
0010
0302
0000
0000
,  // measure 38
1003
0000
0100
0000
0000
0000
0001
0000
0000
0000
0010
0000
0200
0000
0000
0320
,  // measure 39
0000
0230
0000
0301
0020
0130
2001
0000
,  // measure 40
0100
0000
0010
0000
0000
0000
0000
0000
0001
0000
3010
0000
0022
0000
0030
0200
,  // measure 41
0000
0300
2000
0000
0000
0000
3000
0000
0000
0000
1000
0000
0203
0000
0000
0010
,  // measure 42
0000
0000
0002
0000
0000
0003
0020
0000
0000
0030
0001
0000
0320
0000
0030
2000
,  // measure 43
0000
3002
0000
0000
2003
3100
0020
0000
,  // measure 44
0032
0003
0020
0000
0000
0000
0000
0000
1000
0000
0130
0000
0002
0000
0000
1000
,  // measure 45
0000
0000
0023
0000
0000
0000
0000
0000
0000
0000
1030
0000
0002
0000
0000
0023
,  // measure 46
0000
0000
0230
0000
0000
0000
0320
0000
0000
0000
2030
0000
3002
0000
0003
0020
,  // measure 47
0000
0230
0000
0000
0000
1300
4004
0000
,  // measure 48
0000
3003
0440
0000
0000
0330
0000
0000
4004
0000
0000
0000
0000
0000
0000
0000
,  // measure 49
3003
0000
0000
0000
;
