#TITLE:Boing Beat;
#SUBTITLE:;
#ARTIST:MC Boing;
#TITLETRANSLIT:;
#SUBTITLETRANSLIT:;
#ARTISTTRANSLIT:;
#GENRE:;
#CREDIT:;
#BANNER:Boing Beat-bn.png;
#BACKGROUND:Boing Beat-bg.png;
#LYRICSPATH:;
#CDTITLE:;
#MUSIC:Boing Beat.ogg;
#OFFSET:0.000000;
#SAMPLESTART:50.138248;
#SAMPLELENGTH:11.797234;
#SELECTABLE:YES;
#BPMS:0.000000=162.750000
;
#STOPS:
;
#BGCHANGES:;
#KEYSOUNDS:;
#ATTACKS:;

//---------------dance-single - ----------------
#NOTES:
     dance-single:
     :
     Beginner:
     2:
     0.206219,0.264829,0.021707,0.032561,0.000000,133.000000,131.000000,2.000000,3.000000,0.000000,0.000000,0.206219,0.264829,0.021707,0.032561,0.000000,133.000000,131.000000,2.000000,3.000000,0.000000,0.000000:
0000
0000
0000
0000
,
0000
0000
0000
0000
,
0000
0000
0000
0000
,
0000
0000
0000
0000
,
1000
0000
0001
0000
,
0010
0000
0010
0100
,
1000
0000
0010
0000
,
1000
0000
0100
0000
,
0001
0000
0010
0000
,
0100
0000
1000
0100
,
1000
0000
0000
0000
,
0000
0000
0000
0000
,
0010
0000
0000
0000
,
0001
0000
0010
0100
,
2000
0000
0000
0000
,
3001
0000
0010
0001
,
0000
0000
0000
0000
,
0100
0100
0000
1000
,
1000
0000
0001
0000
,
1000
0000
0001
0000
,
0010
0000
0000
0000
,
0100
0000
0010
0100
,
1000
0000
1000
0000
,
0001
0000
0001
0000
,
0010
0000
0000
0100
,
0000
0000
1000
0001
,
1001
0000
1000
0010
,
0100
0000
0001
0010
,
0100
0000
0100
0010
,
0100
0000
1000
1000
,
0001
0000
1000
0000
,
0001
1000
0001
0000
,
1000
0000
0001
0000
,
1000
0001
1000
0000
,
0010
0000
0100
0000
,
0010
0100
0010
0100
,
0001
0000
0010
0000
,
0100
0010
0100
0001
,
1000
0000
1000
0010
,
0100
0000
0001
0100
,
0001
0000
1000
0000
,
1000
0000
0000
0001
,
1001
0000
0010
0000
,
0100
0010
0100
0000
,
0001
0000
1000
0000
,
0100
1000
0100
0100
,
0001
0000
0010
0001
,
1000
0000
0100
1000
,
0010
0000
0100
0000
,
0001
1000
1000
0001
,
0010
0000
0100
0000
,
1000
0001
0001
1000
,
0010
0000
0100
0000
,
0100
0010
0010
0100
,
1000
0000
0100
0000
,
1000
0000
0001
0000
,
0020
0000
0000
0000
,
2030
0000
0000
0000
,
3001
0000
0000
0000
,
0010
0000
0000
0000
,
0100
0000
0000
0000
,
1000
0000
0000
0000
;

//---------------dance-single - ----------------
#NOTES:
     dance-single:
     :
     Easy:
     4:
     0.327160,0.435638,0.108536,0.206219,0.000000,211.000000,201.000000,10.000000,19.000000,0.000000,0.000000,0.327160,0.435638,0.108536,0.206219,0.000000,211.000000,201.000000,10.000000,19.000000,0.000000,0.000000:
0000
0000
0000
0000
,
0000
0000
0000
0000
,
0000
0000
0000
0000
,
0000
0000
0000
0000
,
1000
0100
1000
0000
,
0001
0010
0001
1000
,
1000
0000
0010
0100
,
0100
0000
0010
0001
,
1000
0000
0100
1000
,
1000
0001
1000
0001
,
1001
0000
0000
0000
,
0010
0000
0100
0000
,
1000
0000
0000
0000
,
0100
0000
0010
0001
,
2000
0000
0000
0000
,
3001
0000
0010
0100
,
0001
0000
0000
0000
,
1000
0010
1000
0100
,
1000
0001
1000
0000
,
0001
1000
0001
0000
,
0010
0100
0010
0000
,
0100
0010
0100
1000
,
1000
0001
1000
0001
,
0010
0100
0010
0100
,
1001
0000
0000
1000
0000
0000
0010
0000
,
0000
0100
0000
0000
0001
0000
1000
0000
,
1001
0010
1000
0100
,
0001
0010
0001
1000
,
0010
0100
0010
0001
,
1000
0100
1000
0010
,
1000
1001
0001
1001
,
1000
1000
0001
1001
,
1000
1100
0100
0110
,
0010
0100
0010
0011
,
2000
3001
0001
0010
,
0200
0301
0010
0100
,
2000
3001
0010
0001
,
2000
3001
0020
0130
,
0010
1000
0001
1000
,
0010
0001
0020
1030
,
0100
1000
0100
0020
,
0000
0230
0000
0301
,
1001
0010
0100
1000
,
0010
0100
0010
0001
,
1000
0001
0010
0100
,
1000
0001
2000
3001
,
0001
0010
0100
1000
,
0010
1000
0100
0010
,
0001
1000
0001
1000
,
0010
0100
0100
0010
,
0002
1000
1003
1000
,
0010
0100
0020
0230
,
0302
0013
0010
0100
,
0100
0010
0100
0010
,
2000
3010
1000
0001
,
0002
0013
0100
1000
,
2000
0000
0010
3001
,
0002
0010
0100
1003
,
1000
0010
0010
0000
,
0100
0010
0100
0010
,
0002
0000
1003
0000
,
1000
0010
1000
0001
;

//---------------dance-single - ----------------
#NOTES:
     dance-single:
     :
     Medium:
     7:
     0.472909,0.536170,0.130244,0.141097,0.021707,305.000000,293.000000,12.000000,13.000000,0.000000,0.000000,0.472909,0.536170,0.130244,0.141097,0.021707,305.000000,293.000000,12.000000,13.000000,0.000000,0.000000:
0000
0000
0000
0000
,
0000
0000
0000
0000
,
0000
0000
0000
0000
,
0000
0000
0000
0000
,
1000
0000
0001
0000
1000
0001
1000
0000
,
1000
0000
0010
0000
0100
0010
0100
0000
,
0001
0000
0010
0000
0001
0010
0001
0000
,
1000
0000
0100
0000
1000
0100
1000
0000
,
0001
0000
1000
0000
0001
0010
0001
0000
,
1000
0100
1000
0010
,
2000
0000
0000
0000
,
0001
0000
0001
0000
,
3020
0000
0000
0000
,
0032
0000
0103
2000
,
3020
0000
0000
0032
0000
0000
0000
0000
,
2003
0000
3020
0130
,
0002
0000
0000
0000
,
1003
0000
1000
0000
0010
1000
0100
0000
,
0001
0000
0000
0000
1000
0000
0000
0000
0001
0000
0000
1000
0000
0000
0001
0000
,
0010
0000
0000
0000
0100
0000
0000
0000
0010
0000
0000
0100
0000
0000
0010
0000
,
0100
0000
0000
0000
0001
0000
0000
0000
0010
0000
0000
0001
0000
0000
0100
0000
,
0001
0000
0000
0000
1000
0000
0000
0000
0010
0000
0000
1000
0000
0000
0001
0000
,
1000
0010
0100
0010
,
0001
0000
1000
0000
0100
1000
0100
0000
,
1001
0000
0000
0101
0000
0000
1100
0000
,
0000
1010
0000
0000
0011
0000
0110
0000
,
1001
0000
1000
0000
0010
0100
0010
0000
,
1000
0100
1000
0100
1000
0100
0010
0000
,
0010
0001
0010
0001
1000
0100
1000
0000
,
1000
0100
1000
0010
1000
0001
1000
0000
,
0010
1001
0100
1001
,
0100
0001
0100
0001
0010
0001
1001
0000
,
1000
0100
2000
0000
3001
0010
0002
0000
,
0103
0010
0100
0010
0100
0010
1000
0000
,
0001
0000
1001
0000
1000
0010
1000
0000
,
0100
0000
0101
0000
0100
0001
0010
0000
,
0010
0100
0010
0000
0001
0010
0001
0000
,
1000
0000
0100
0000
1000
0010
1000
0000
,
0001
1000
0001
0000
0010
0001
0010
0000
,
0100
1000
0100
1000
0100
1000
0001
0000
,
1000
0000
0001
1000
0010
0000
0100
0000
,
0001
0000
0000
0000
1000
0001
1000
0001
,
1000
0000
1000
0100
0001
0100
0010
0000
,
0010
0001
0100
0000
0010
0100
0010
0000
,
0001
1000
0010
1000
0010
0000
0001
0000
,
0010
1000
0010
0000
1000
0100
1000
0000
,
0001
0010
0100
1000
0100
0001
0100
0000
,
0010
0001
0100
0001
0010
0100
0010
0000
,
1000
0000
0001
0000
0100
0010
1000
0000
,
0001
1000
0001
0000
0010
0001
0010
0000
,
1000
0000
0010
0100
0000
0001
1000
0000
,
0001
1000
0001
0000
0020
0000
0230
0000
,
1300
0000
0010
1000
0100
0000
0001
0000
,
0010
0001
0100
0000
0100
0010
1000
0000
,
0100
0000
0001
0010
0000
0100
1000
0000
,
0010
1000
0001
0000
1000
0010
1000
0000
,
0001
0000
1000
0100
0010
0001
0100
0000
,
0010
0100
1000
0001
,
1000
0001
1000
0000
0010
1000
0010
0000
,
0100
0001
0100
1000
0100
0010
0100
0000
,
0001
1000
0001
0000
0010
1000
0100
0000
,
1000
0001
1000
0001
0100
0010
0100
0000
;

//---------------dance-single - ----------------
#NOTES:
     dance-single:
     :
     Hard:
     9:
     0.727194,0.770744,0.162805,0.238780,0.504694,469.000000,454.000000,15.000000,22.000000,0.000000,0.000000,0.727194,0.770744,0.162805,0.238780,0.504694,469.000000,454.000000,15.000000,22.000000,0.000000,0.000000:
// measure 0
0000
0000
0000
0000
,  // measure 1
0000
0000
0000
0000
,  // measure 2
0000
0000
0000
0000
,  // measure 3
0000
0000
0000
0000
,  // measure 4
1000
0000
0001
0010
0000
0000
0010
0000
0100
0001
0000
1000
0000
0000
0000
0000
,  // measure 5
0100
0000
0010
0000
0100
0000
0010
1000
0001
0000
1000
0000
0001
0000
0000
0000
,  // measure 6
1000
0000
0100
0000
0010
0000
0001
0010
0001
0000
0100
0000
0001
0000
0000
0000
,  // measure 7
1000
0000
1000
0000
0010
0000
0100
0000
0010
0001
0100
0000
0001
0000
0000
0000
,  // measure 8
1000
0100
1000
0100
0010
0000
0001
0010
0001
0000
1000
0000
0010
0000
0100
0000
,  // measure 9
1000
0100
0001
0100
1000
0010
0001
0010
,  // measure 10
2000
0000
0000
0010
3000
0000
1000
0000
0100
0000
0000
0010
0000
0000
0100
0000
,  // measure 11
0010
0000
0000
0001
0000
0000
0100
0000
0001
0000
0000
1000
0000
0000
0001
0000
,  // measure 12
0200
0000
0000
0010
0300
0000
0100
0000
0001
0000
0000
1000
0000
0000
0001
0000
,  // measure 13
2000
0000
0000
0100
3000
0000
0010
0000
0002
0000
0000
0000
2003
0000
0000
0000
,  // measure 14
3002
0000
0000
0000
0000
0000
0023
0000
0000
0000
0000
0100
0030
0000
1000
0000
,  // measure 15
0002
0000
0000
1000
0003
0000
0100
0000
0020
0000
0000
0000
0230
0000
0000
0000
,  // measure 16
1300
0000
0000
0001
0000
0000
0010
0000
0100
0000
0000
0010
0000
0000
0001
0000
,  // measure 17
1000
0000
0100
0000
1000
0000
0100
1000
0010
0000
0100
0000
0001
0000
0000
0000
,  // measure 18
1000
0000
0000
0000
0010
0000
0000
0000
0100
0000
0001
0100
0000
0001
0010
0000
,  // measure 19
0001
0000
0000
0000
1000
0000
0000
0000
0001
0000
0100
1000
0000
0100
0010
0000
,  // measure 20
1000
0000
0000
0000
0010
0000
0000
0000
0010
0000
1000
0010
0000
1000
0100
0000
,  // measure 21
1000
0000
0000
0000
0001
0000
0000
0000
1000
0000
0010
0001
0000
0010
0100
0000
,  // measure 22
1001
0110
1001
0110
,  // measure 23
0011
0101
1010
1100
,  // measure 24
1000
0000
0010
0000
1000
0000
0001
0100
0001
0000
1000
0000
0010
0000
1000
0100
,  // measure 25
1000
0000
0001
0000
0010
0000
1000
0010
0001
0000
1000
0000
1001
0000
0000
0000
,  // measure 26
0110
0000
0100
0000
0010
0000
0100
0000
0001
0100
0001
0100
0001
0000
0000
0000
,  // measure 27
1000
0000
0010
1000
0010
0000
1000
0000
0010
1000
0010
1000
0010
0000
0000
0000
,  // measure 28
1000
0001
1000
0001
1000
0000
0010
0000
0100
0010
0100
0010
0100
0000
0000
0000
,  // measure 29
1000
0100
1000
0000
0100
0010
0100
0000
0010
0001
1000
0001
0010
0000
0000
0000
,  // measure 30
0001
1000
0020
0130
0010
0001
0101
0000
,  // measure 31
1000
0100
0010
0001
0010
0100
1001
0000
,  // measure 32
1000
0001
0200
0310
1000
0100
0110
0000
,  // measure 33
0001
0010
0100
1000
0100
0010
1001
0000
,  // measure 34
1000
0000
0010
0000
0001
0000
0010
0100
0000
0001
0100
0000
0001
0000
0000
0000
,  // measure 35
2000
0000
3010
0100
0020
0000
0130
0000
0001
0000
0010
0000
0100
0000
0000
0000
,  // measure 36
0100
0000
1000
0000
0010
0000
1000
0001
0000
0001
0100
0000
0001
0000
0000
0000
,  // measure 37
0100
0000
1000
0000
0100
0000
1000
0000
0001
1000
0010
0000
1000
0000
0000
0000
,  // measure 38
0100
0000
0001
0000
1000
0000
0010
0000
1000
0100
0100
0001
0010
0000
0000
0000
,  // measure 39
1000
0000
0001
1000
0001
0000
1000
0001
1000
0010
1000
0100
0010
0000
0000
0000
,  // measure 40
0001
0000
1000
0000
0100
0000
1000
0000
0010
0100
0001
0000
1000
0000
0100
0000
,  // measure 41
0010
0000
0001
0000
0100
0000
0010
0000
1000
0000
0100
0000
1000
0001
1000
0001
,  // measure 42
1000
0000
0000
0000
0100
0000
1000
0000
0100
0001
0100
1000
0100
0000
0000
0000
,  // measure 43
1000
0010
0010
0001
0020
0130
0100
0000
,  // measure 44
0001
0000
1000
0000
0100
0000
1000
0010
0000
0100
0001
0000
1000
0000
0000
0000
,  // measure 45
1000
0000
0001
0000
0010
0001
0000
0100
0000
0010
0000
1000
0001
0000
0000
0000
,  // measure 46
1001
0000
0000
0000
1000
0000
0100
0000
0010
0000
0001
0010
0001
0000
0000
0000
,  // measure 47
1000
0010
1000
0000
0010
0000
0001
0000
0010
0000
1000
0100
0010
0000
0000
0000
,  // measure 48
0100
0000
0001
0000
0100
0000
1000
0100
0000
0010
1000
0000
0100
0000
0000
0000
,  // measure 49
1000
0000
0001
0000
0100
0010
0000
0000
0010
0000
0100
0000
0001
1000
0000
0000
,  // measure 50
1000
0000
0001
0000
0100
0000
0010
0000
1000
0000
0100
1000
0001
0000
0010
0000
,  // measure 51
0010
0000
1000
0000
0100
1000
0100
0000
0001
0000
0010
0000
0001
0010
0001
0000
,  // measure 52
0010
0100
0000
1000
0100
0000
1000
0000
0010
0100
0000
0001
0010
0000
0001
0000
,  // measure 53
1000
0000
0010
0000
1000
0010
0100
0000
0001
0000
0100
0000
0001
1000
0000
0000
,  // measure 54
0020
0000
0000
0130
0010
0000
2000
0000
3001
0000
0000
0010
1000
0000
0010
0000
,  // measure 55
0001
0000
0100
0000
0001
1000
0000
0000
0100
0000
0010
0100
1000
0000
0000
0000
,  // measure 56
1000
0001
0010
1000
0020
0031
0200
1300
,  // measure 57
0100
0010
0200
1300
0002
1003
2000
3001
,  // measure 58
1000
0000
0001
0000
1000
0000
0001
1000
0000
0010
1000
0000
0100
0000
0000
0000
,  // measure 59
0001
0100
0001
0000
1000
0000
0010
0000
1000
0000
0100
0000
0001
0000
0000
0000
,  // measure 60
0010
0000
1000
0000
0010
0000
1000
0100
0000
0001
0010
0000
0010
0000
0000
0000
,  // measure 61
0100
0010
0010
0100
0001
1000
0010
0000
;
