#VERSION:0.83;
#TITLE:Blink;
#SUBTITLE:;
#ARTIST:easyFun;
#TITLETRANSLIT:Blink;
#SUBTITLETRANSLIT:;
#ARTISTTRANSLIT:;
#GENRE:;
#ORIGIN:;
#CREDIT:;
#BANNER:bn.png;
#BACKGROUND:bg.png;
#PREVIEWVID:;
#JACKET:;
#CDIMAGE:;
#DISCIMAGE:;
#LYRICSPATH:;
#CDTITLE:;
#MUSIC:Blink 2.mp3;
#OFFSET:0.000000;
#SAMPLESTART:88.327003;
#SAMPLELENGTH:14.717000;
#SELECTABLE:YES;
#DISPLAYBPM:130.000000;
#BPMS:0.000=65.250,
16.000=130.500;
#STOPS:;
#DELAYS:;
#WARPS:;
#TIMESIGNATURES:0.000=4=4;
#TICKCOUNTS:0.000=4;
#COMBOS:0.000=1;
#SPEEDS:0.000=1.000=0.000=0;
#SCROLLS:0.000=1.000;
#FAKES:;
#LABELS:0.000=Song Start;
#BGCHANGES:;
#KEYSOUNDS:;
#ATTACKS:
;

//---------------dance-single - ----------------
#NOTEDATA:;
#CHARTNAME:;
#STEPSTYPE:dance-single;
#DESCRIPTION:;
#CHARTSTYLE:;
#DIFFICULTY:Easy;
#METER:4;
#RADARVALUES:0.305904,0.406260,0.279304,0.236985,0.000000,253.000000,220.000000,33.000000,28.000000,0.000000,0.000000,0.000000,0.000000,0.000000,0.305904,0.406260,0.279304,0.236985,0.000000,253.000000,220.000000,33.000000,28.000000,0.000000,0.000000,0.000000,0.000000,0.000000;
#CREDIT:;
#DISPLAYBPM:130.000000;
#NOTES:
1000
0000
0010
0000
,
0100
0000
0001
0000
,
1000
0000
0010
1000
,
0001
0000
0010
0100
,
1000
0001
1000
0001
,
1000
0100
0010
0001
,
1000
0001
1000
0001
,
1000
0001
0010
0100
,
1000
0100
1000
0100
,
1000
0010
0100
1000
,
1000
0001
1000
0001
,
0010
0100
2000
3010
,
1001
0010
0100
1000
,
0100
1000
0200
0310
,
1000
0002
2003
3001
,
0010
0200
0310
1000
,
1001
0010
0100
0010
,
0001
0001
0002
1003
,
1000
0100
1000
0100
,
0010
0020
0230
0301
,
1000
0000
0000
0001
,
1000
0000
0000
0010
,
1000
0000
0000
0001
,
0100
0000
0000
0010
,
1000
0000
0001
0000
,
1000
0000
0001
0000
,
0010
0100
0010
0100
,
0020
0230
0320
0031
,
1001
0110
1100
0101
,
0110
0011
0100
1000
,
1001
0010
0100
0010
,
1000
0100
0010
0000
0001
0000
0100
0000
,
1001
0010
0100
0010
,
0010
0100
0010
0100
,
1001
0001
1001
1000
,
1100
0000
0110
0000
0011
0000
0010
0100
,
2000
3200
0310
0001
,
0020
0230
1300
0001
,
0020
0032
1003
0100
,
1000
0010
0100
0001
,
0002
0100
1000
0100
,
0010
0100
0010
1000
,
0010
1000
0100
0010
,
1000
0100
1000
1003
,
0110
1001
0010
0100
,
1001
0010
0100
0001
,
1010
0100
0010
1001
,
0011
1010
1100
0101
,
0110
2000
3200
0302
,
1003
0010
0100
0010
,
1001
0001
0010
1000
,
0100
0001
0100
0010
,
1000
1000
1000
0000
,
0001
0001
0001
0000
,
1001
0110
1001
0000
,
0101
1010
0101
0000
,
2000
3100
0002
0013
,
0200
0301
0020
1030
,
1000
0100
0010
0001
,
2000
0000
0002
0000
0000
3000
0200
0303
,
1001
0000
0000
0000
;

//---------------dance-single - ----------------
#NOTEDATA:;
#CHARTNAME:;
#STEPSTYPE:dance-single;
#DESCRIPTION:;
#CHARTSTYLE:;
#DIFFICULTY:Beginner;
#METER:2;
#RADARVALUES:0.215221,0.330086,0.050782,0.008464,0.000000,178.000000,172.000000,6.000000,1.000000,0.000000,0.000000,0.000000,0.000000,0.000000,0.215221,0.330086,0.050782,0.008464,0.000000,178.000000,172.000000,6.000000,1.000000,0.000000,0.000000,0.000000,0.000000,0.000000;
#CREDIT:;
#DISPLAYBPM:130.000000;
#NOTES:
1000
0000
0010
0000
,
0001
0000
0010
0100
,
1000
0000
0010
0000
,
1000
0000
0010
0001
,
1000
0000
0010
0000
,
1000
0001
1000
0000
,
0010
0000
0100
0000
,
0010
0010
0010
0000
,
1000
0000
0001
0000
,
0010
0100
0100
0000
,
1000
0000
0100
0000
,
1000
0100
0010
0001
,
1000
0000
0001
0000
,
0010
0100
0010
0000
,
1000
0000
0001
0000
,
1000
0010
1000
0000
,
0100
0000
0001
0000
,
0000
0000
0010
0000
,
0100
0000
1000
0000
,
0001
0000
0010
0000
,
0100
0000
1000
0000
,
0100
1000
0000
0010
,
0001
0000
0000
1000
,
0010
0000
0000
0010
,
0100
0000
0100
0000
,
0001
0000
1000
0000
,
0001
1000
0001
1000
,
1001
1001
1001
1001
,
0010
0100
1000
0100
,
1000
0001
0000
0001
,
0010
0100
0010
0100
,
1000
0100
0000
0010
,
0001
0010
0001
0010
,
0100
1000
0000
0001
,
1000
0010
0100
1000
,
0100
0010
0001
0010
,
1000
0001
0000
0010
,
0100
1000
0000
0100
,
0001
1000
0010
0100
,
1000
0000
0001
0010
,
1000
0000
0001
0000
,
1000
0000
0001
0000
,
2000
0000
0010
0000
,
0001
0000
3000
1001
,
0010
0100
1000
0000
,
1000
0100
1000
0100
,
0010
0001
0010
0100
,
1000
0000
0001
0000
,
1000
0001
1000
0001
,
0010
0100
1000
0000
,
1000
0100
1000
0000
,
0010
0001
0010
0000
,
0100
1000
0001
0010
,
0100
1000
0100
0000
,
0010
0001
0010
1000
,
0100
0001
0010
0100
,
1000
0000
0100
0010
,
0001
0000
1000
0000
,
0100
0000
0001
0000
,
0010
0100
1000
0100
,
1001
0000
0000
0000
;

//---------------dance-single - ----------------
#NOTEDATA:;
#CHARTNAME:;
#STEPSTYPE:dance-single;
#DESCRIPTION:;
#CHARTSTYLE:;
#DIFFICULTY:Medium;
#METER:6;
#RADARVALUES:0.437697,0.431651,0.084637,0.025391,0.000000,362.000000,352.000000,10.000000,3.000000,0.000000,0.000000,0.000000,0.000000,0.000000,0.437697,0.431651,0.084637,0.025391,0.000000,362.000000,352.000000,10.000000,3.000000,0.000000,0.000000,0.000000,0.000000,0.000000;
#CREDIT:;
#DISPLAYBPM:130.000000;
#NOTES:
1000
0100
0000
0010
0001
0000
0000
1000
,
0100
0000
0000
0010
0001
1000
0000
0010
,
0100
1000
0000
0100
0001
0010
0000
0100
,
1000
0100
0000
0010
0001
0010
0000
0100
,
1000
0000
0100
0010
0110
0000
0001
0000
,
1000
0000
0001
0000
0010
0001
0010
0001
,
1000
0000
0100
0000
0010
0001
0010
0000
,
0100
1000
0100
0000
0010
0001
0010
0000
,
1000
0100
0010
0001
0010
0100
1000
0000
,
0001
0000
0010
0000
0100
1000
0100
0000
,
0001
1000
0001
0000
0010
1000
0010
1000
,
0001
0100
1000
0000
0100
0001
0010
0000
,
1001
0000
0010
0000
0100
1000
0100
0000
,
0001
0000
0010
1000
0010
1000
0001
0000
,
0010
0100
1000
0100
,
0010
0000
0001
0010
0001
0010
0100
1000
,
1000
0001
1000
0001
,
1000
0010
0001
0010
1000
0000
1001
0000
,
0110
0000
1000
0000
0100
0010
0001
0010
,
1000
0001
1000
0100
0010
1000
0001
1000
,
1000
0000
0010
0001
0010
0000
1000
0000
,
0100
0001
0000
0010
0100
1000
0010
0000
,
0001
0000
0100
1000
0010
0001
0010
0000
,
1000
0000
0010
1000
0100
0100
0001
0000
,
0010
0000
0100
0010
0100
0010
0001
0000
,
0100
0000
0010
0100
1000
0100
0001
0000
,
0010
0000
0001
1000
0010
0001
0010
1000
,
0100
0000
0000
1001
,
0110
0000
1000
0100
0010
0001
1000
0001
,
1000
0001
0010
0000
1000
0100
0001
0000
,
0010
0000
0100
0000
1000
0100
1000
0010
,
0001
1000
0001
0000
0000
0001
0010
0000
,
1000
0000
1000
0100
0011
0000
0000
0000
,
1000
0100
0001
0000
0000
0010
0100
0000
,
1000
0000
0100
0000
0010
0001
0010
0000
,
1000
0100
0001
0010
,
2000
3100
0001
0010
,
0200
0301
0010
0100
,
2000
0000
3100
0000
0001
0010
0001
0000
,
0100
0000
0010
0000
0010
0100
0010
0000
,
1000
0000
1000
0100
1000
0001
0010
0000
,
1000
0000
0001
0000
1000
0001
0010
0001
,
1000
0000
0100
0000
0001
0010
0001
0000
,
1000
0000
0100
0010
0001
0100
1001
0000
,
0010
0000
0100
1000
0100
0010
0001
0000
,
1000
0001
1000
0000
0010
0100
1000
0100
,
1000
0001
0010
0000
0100
1000
0100
0010
,
0001
0000
1000
0000
0001
0010
0100
1000
,
0100
1000
0001
0010
1000
0010
1000
0100
,
0001
0010
0100
1000
,
0100
1000
0100
0000
0001
0010
0001
0000
,
1000
0100
0010
0001
,
1000
0100
0010
0001
1000
0001
0010
1000
,
0100
0001
0010
1000
0100
1000
0100
0000
,
0010
0001
0010
0001
0100
0010
0100
0010
,
1100
0100
0000
0010
0011
0000
1000
0100
,
0001
1000
0001
1000
0010
0100
1000
0100
,
0001
1000
0010
0001
1000
0010
1000
0010
,
1000
0001
1000
0001
0100
0001
0010
0001
,
0100
0001
0010
0100
0001
0010
0100
0001
,
1000
0000
0000
0000
;

//---------------dance-single - ----------------
#NOTEDATA:;
#CHARTNAME:;
#STEPSTYPE:dance-single;
#DESCRIPTION:;
#CHARTSTYLE:;
#DIFFICULTY:Challenge;
#METER:10;
#RADARVALUES:0.571907,0.583998,0.177739,0.143884,0.236985,473.000000,452.000000,21.000000,17.000000,0.000000,0.000000,0.000000,0.000000,0.000000,0.571907,0.583998,0.177739,0.143884,0.236985,473.000000,452.000000,21.000000,17.000000,0.000000,0.000000,0.000000,0.000000,0.000000;
#CREDIT:;
#DISPLAYBPM:130.000000;
#NOTES:
// measure 0
1000
0000
0000
0000
0000
0000
0000
0000
0000
0000
0000
0000
0000
0000
0000
0000
0000
0000
0000
0000
0000
0000
0000
0000
0010
0000
0000
0000
0000
0000
0000
0000
0000
0000
0000
0000
0100
0000
0000
0000
0000
0000
0000
0000
0000
0000
0000
0000
0001
0000
0000
0000
0000
0000
0000
0000
0100
0000
0000
0000
1000
0000
0000
0000
0000
0000
0000
0000
0000
0000
0000
0000
0000
0000
0000
0000
0000
0000
0001
0000
0000
0000
0000
0000
0000
0000
0000
0000
0000
0000
0000
0000
0000
0000
0000
0000
0000
0000
0000
0000
0000
0000
0000
0000
0000
0000
0000
0000
0100
0000
0000
0000
0000
0000
0000
0000
0000
0000
0000
0000
0010
0000
0000
0000
0000
0000
0000
0000
0000
0000
0000
0000
0000
0000
0000
0000
0000
0000
0000
0000
0000
0000
0000
0000
0000
0000
0000
0000
0000
0000
0000
0000
0000
0000
0000
0000
0100
0000
0000
0000
0000
0000
0000
0000
0000
0000
0000
0000
1000
0000
0000
0000
0000
0000
0000
0000
0000
0000
0000
0000
0000
0000
0000
0000
0000
0000
0000
0000
0000
0000
0000
0000
,  // measure 1
0010
0000
0001
0000
0000
0000
1000
0000
0010
0000
0100
0000
0000
0000
0001
0000
0010
0000
0000
0010
0000
0000
0000
0000
0000
0000
0100
0000
0000
0100
0000
0000
,  // measure 2
1000
0000
0000
0010
0000
0000
0000
0000
0000
0000
0001
0000
0000
0001
0000
0000
0010
0000
0000
0100
0000
0000
0000
0000
0000
0000
1000
0000
0000
1000
0000
0000
,  // measure 3
0100
0000
0010
0000
0000
0001
0000
0000
0010
0000
0100
0000
0000
0000
1000
0000
,  // measure 4
1000
0000
0000
0000
0000
0000
0000
0000
0000
0100
0000
0000
0001
0000
0000
0000
0000
0000
0010
0000
0000
0000
0000
0000
1000
0000
0000
0000
0010
0000
1000
0000
0000
0000
0000
0000
0100
0000
0000
0000
0000
0000
0000
0000
0010
0000
0000
0000
,  // measure 5
1000
0000
0000
0200
0000
0000
0310
0000
0000
1000
0000
0000
0100
0000
0001
0010
0000
0000
1000
0000
0000
1000
0000
0000
,  // measure 6
0100
0000
0000
0010
0000
0000
1000
0000
0000
0001
0000
0000
1000
0000
0010
0001
0000
0000
0100
0000
0000
0010
0000
0000
,  // measure 7
0100
0000
0000
2000
0000
0000
3100
0000
0000
0010
0000
0000
0001
0000
0010
0000
0100
0000
2000
0000
0000
0100
3000
0000
,  // measure 8
1000
0000
0000
0010
0000
0000
0001
0000
0000
0010
0000
0000
0010
0000
0010
1000
0000
0000
1000
0000
0000
0100
0000
0000
,  // measure 9
0100
0002
0023
0130
2000
3100
2000
3100
,  // measure 10
0010
0000
0000
0010
0000
0000
0001
0000
0000
0010
0000
0000
0100
0000
1000
0010
0000
0000
0100
0000
0000
1000
0000
0000
,  // measure 11
0001
0000
0001
0100
0010
0000
0000
0000
0100
0000
1000
0000
0100
0000
0000
0000
,  // measure 12
0001
0000
0010
0000
1000
0000
0100
0000
0010
1000
0001
0000
0010
0000
0100
0000
,  // measure 13
1000
0100
0001
0010
0100
0000
1000
0000
,  // measure 14
0001
0000
0000
0010
0000
0000
0100
0000
0000
1000
0000
0000
0100
0000
1000
0001
0000
0000
0010
0000
0000
0100
0000
0000
,  // measure 15
0001
0000
1000
0001
0010
0100
0100
0000
,  // measure 16
0010
0000
0001
0000
0010
0000
0100
0000
1000
0000
0100
0000
0000
0010
0000
0000
,  // measure 17
0001
0010
1000
0010
0001
0100
1000
0100
,  // measure 18
0001
0010
1000
0000
0000
0100
0010
1000
,  // measure 19
0010
0010
0100
0000
0000
0000
0100
0001
,  // measure 20
1000
0000
0000
1000
0001
0100
0001
0100
0000
0000
0100
0000
1000
0010
0001
0000
,  // measure 21
0010
0000
1000
0100
0000
0000
0000
0000
0000
0000
0001
0000
0010
0000
1000
0000
,  // measure 22
0100
0000
0001
0000
0000
0010
0100
1000
,  // measure 23
0100
0001
0010
0000
0000
0100
1000
0100
,  // measure 24
0010
0010
0000
0000
0000
0001
0010
0001
,  // measure 25
0010
0000
0000
0000
0000
0100
0010
0100
,  // measure 26
0010
0100
0000
0000
0000
0001
0100
0001
,  // measure 27
1000
0010
0000
0000
0000
0000
1001
0000
,  // measure 28
0010
0000
0000
0000
0000
0000
0100
0000
0000
1000
0000
0000
0100
0000
0001
1000
0010
0000
0001
0000
0000
0010
0000
0000
,  // measure 29
1000
0000
0000
0001
0000
0000
0010
0000
0000
1000
0000
0000
1000
0000
1000
0100
0000
0000
0001
0000
0010
0100
1000
0000
,  // measure 30
1000
0000
0000
0010
0000
0000
0001
0000
0000
0000
0000
0000
0010
0000
0000
0000
0000
0000
0100
0000
0000
0000
0000
0000
1000
0000
0000
0000
0100
0000
1000
0000
0000
0100
0000
0000
0010
0000
0000
0000
0000
0000
0100
0000
0000
0000
0000
0000
,  // measure 31
2000
0001
3020
0000
1030
0010
0002
0000
,  // measure 32
1003
0000
0000
0010
0000
0000
1000
0000
0000
0010
0000
0000
0001
0000
0010
0100
0000
0000
0001
0000
0000
0010
0000
0000
,  // measure 33
2000
3002
1003
0100
0002
0203
0310
1000
,  // measure 34
1000
0000
0000
0000
0000
0000
0001
0000
0000
0000
0000
0000
0010
0000
0000
0000
0001
0000
1000
0000
0000
0000
0000
0000
0100
0000
0000
0010
0000
0000
0001
0000
0000
0001
0000
0000
0010
0000
0000
0000
0000
0000
1000
0000
0000
0000
0000
0000
,  // measure 35
1001
0010
1010
0000
0010
0001
0101
0000
,  // measure 36
1100
0000
0000
0000
0000
0000
0001
0000
0010
0100
1000
0100
1000
0000
0000
1000
0000
0000
0100
0000
0000
0001
0000
0000
,  // measure 37
1000
0000
0000
0000
1001
0010
0100
0010
0010
0000
0010
0000
0100
0000
0020
0000
,  // measure 38
1030
0000
1100
0000
0011
1000
0100
0001
,  // measure 39
1000
0000
0010
0000
0100
1000
0001
1000
,  // measure 40
1001
0000
0010
0000
0100
1000
0100
1000
,  // measure 41
0100
0001
0010
0000
0100
1000
0100
0000
,  // measure 42
1000
0001
0010
0100
1000
0100
1000
0000
,  // measure 43
0001
0010
0100
1000
0100
1000
1001
1001
,  // measure 44
0001
0000
0000
0000
1000
0000
0100
0000
0010
0002
0013
0000
0100
0000
2000
0000
,  // measure 45
0000
3010
0100
0010
0001
1000
0001
1000
,  // measure 46
1001
0010
0000
0100
1000
0100
1000
0001
,  // measure 47
1000
0001
0010
0000
0100
1000
0100
0001
,  // measure 48
1000
0001
1000
0001
0010
1000
0100
0001
,  // measure 49
0010
1000
1001
0000
0000
0001
0010
0100
,  // measure 50
1000
0100
0001
1000
0001
0010
0100
1000
,  // measure 51
0001
1000
0010
0000
0001
0100
1000
0100
,  // measure 52
1001
0000
0010
0100
1000
0100
0001
1000
,  // measure 53
1010
1000
0001
0100
1000
0010
0100
0001
,  // measure 54
1010
1000
0001
0100
1000
0010
0001
0100
,  // measure 55
0000
0001
1000
0001
0010
1100
0001
0000
,  // measure 56
1100
0010
1000
0001
1000
0010
1000
0100
,  // measure 57
0001
1100
0010
0000
1001
1000
0010
1000
,  // measure 58
0100
0001
0100
1000
0010
0001
1000
0001
,  // measure 59
0010
1000
0100
0001
0010
1000
0100
0001
,  // measure 60
1001
0000
0000
0000
;

//---------------dance-single - ----------------
#NOTEDATA:;
#CHARTNAME:;
#STEPSTYPE:dance-single;
#DESCRIPTION:;
#CHARTSTYLE:;
#DIFFICULTY:Hard;
#METER:8;
#RADARVALUES:0.552562,0.634781,0.194666,0.414724,0.296231,457.000000,434.000000,23.000000,49.000000,0.000000,0.000000,0.000000,0.000000,0.000000,0.552562,0.634781,0.194666,0.414724,0.296231,457.000000,434.000000,23.000000,49.000000,0.000000,0.000000,0.000000,0.000000,0.000000;
#CREDIT:;
#DISPLAYBPM:130.000000;
#NOTES:
1000
0000
0100
0010
0010
0010
0000
0000
0000
1000
0100
0000
0000
0010
0001
0000
,
1000
0001
0000
0000
0000
0010
0000
0100
1000
0100
1000
0000
0000
0010
0001
0000
,
1000
0000
0001
0010
1000
0010
0000
0000
1000
0100
1000
0000
0001
0010
0001
0000
,
1000
0100
0000
0010
0001
0010
1000
0100
1000
0100
0001
0000
1000
0001
0010
0000
,
1000
0000
0000
0010
0000
0000
0001
0000
0000
0000
1000
0000
0000
0100
0000
0000
,
0010
1000
0010
0000
0001
1000
0001
0000
,
1000
0000
0100
0000
0000
0000
0010
0000
0001
0010
0001
0000
1000
0000
0100
0000
,
1000
0001
1000
0000
0000
0001
0010
0000
,
1000
0000
0000
0100
0000
0000
0010
0000
0001
0000
1000
0000
0001
0000
1000
0000
,
0100
0000
0000
0100
0000
0000
0010
0000
0001
0000
0010
0000
1000
0000
0000
0000
,
1000
0000
0000
0100
0000
0000
0010
0000
0001
0000
1000
0000
0001
0000
1000
0000
,
1000
0000
0100
1000
0001
0000
0000
0000
0000
0000
1000
0000
0001
0000
0000
0000
,
0010
0000
0000
0000
0100
0000
0000
0000
1000
0000
0100
0000
0001
0100
0000
0000
,
1000
0000
0000
0010
1000
0000
0001
0000
1000
0000
0001
0000
0100
0000
0000
0000
,
1000
0000
0000
0100
1000
0000
0100
0000
0001
0000
0000
0010
1000
0000
0010
0000
,
1000
0000
0000
0001
1000
0000
0100
0000
1000
0000
0100
0000
0001
0000
1000
0000
,
1000
0000
0000
0001
1000
0000
0001
0000
0010
0000
1000
0000
0100
0000
0001
0000
,
0010
0000
0000
0001
1000
0000
0001
0000
1000
0000
0100
0000
0010
0000
0001
0000
,
0010
0000
1000
0000
0100
1000
0001
0000
0010
0000
1000
0000
0100
0000
0001
0000
,
0010
0000
0000
0100
1000
0000
0001
0000
0010
0000
0100
0000
1000
0000
0100
0000
,
1001
0000
0000
0010
0000
0000
0100
0000
0000
0000
0200
0000
0000
0302
0000
0000
,
2003
0000
0000
3100
0000
0000
0001
0000
0000
0000
0200
0000
0000
2300
0000
0000
,
3020
0000
0000
0230
0000
0000
1300
0000
0000
0000
0020
0000
0000
0130
0000
0000
,
2000
0000
0000
3100
0000
0000
0010
0000
0000
0000
0200
0000
0000
0302
0000
0000
,
1003
0000
0000
1000
0000
0000
0010
0000
0000
0000
0100
1000
0000
0001
0010
0000
,
1000
0000
0000
0001
0000
0000
0000
0100
0000
0000
0101
0000
0000
1100
0000
0000
,
0012
0003
0000
0100
0010
0000
0000
0100
0000
0000
0001
0000
0000
0010
0000
0000
,
0100
0000
0000
0000
0000
0000
0000
0000
0000
0010
0000
0000
0000
0000
0000
0000
0000
0000
0000
0000
0000
0000
0000
0000
0000
0000
0000
0000
0000
0000
0100
0000
0000
0000
0000
0000
0010
0000
0000
0000
0100
0000
0010
0000
0100
0000
0000
0000
,
0110
0000
1001
0001
0010
2000
0000
3010
,
1000
0002
0013
0000
0001
2000
3100
0000
,
1001
0000
0000
0000
0110
0000
0001
0000
0010
0100
1000
0000
0000
0000
0100
0000
,
0020
2030
3001
0000
0200
0302
0013
0000
,
1000
0000
0000
0010
0100
0000
0001
0000
1000
0100
1000
0000
0002
0000
0013
0000
,
1000
0002
1003
0000
0100
0000
0020
0130
,
1000
0000
0001
0000
1000
0000
0001
0000
1000
0010
1000
0000
0001
0000
0100
0000
,
1000
0000
0000
0000
0000
0000
0100
0000
0000
0010
0000
0000
0001
0000
0000
0000
0000
0000
1000
0000
0000
0000
0000
0000
0100
0000
0000
0000
0001
0000
0100
0000
0001
0000
0000
0000
1000
0000
0000
0000
0000
0000
0000
0000
0000
0000
0000
0000
,
1000
0000
0100
1000
0100
0010
0001
0000
,
2000
0000
3001
0010
0100
1000
0100
0000
,
2000
3000
0001
0010
1000
0100
0001
0000
,
2000
0000
3100
0001
0010
1000
0010
1000
,
1001
0000
0010
0100
1000
0100
1000
0001
,
1000
0100
0001
0000
1000
0001
0010
0000
,
2000
3001
0020
1030
0200
1300
0001
0010
,
1000
0000
0000
0001
0000
0000
0010
0000
0000
1000
0000
0000
0001
0000
0000
0100
0000
0000
0010
0000
0001
0010
0001
0000
,
1001
0000
0000
0000
1000
0000
0010
0000
0001
0100
1000
0000
0001
0000
1000
0000
,
0010
0000
2000
0000
3100
0000
0001
0000
2000
3000
0020
0000
2030
3000
0100
0000
,
0001
0000
1000
0000
0001
0000
1000
0000
0100
1000
0100
1000
0010
0000
0001
0000
,
1000
0001
1000
0010
0100
1000
0100
0001
,
1000
0000
0100
0000
0010
1000
0010
0000
2000
0000
3100
0000
0002
0000
0013
0000
,
1000
0000
0001
0000
1000
0000
0001
0010
1000
0000
0100
0000
0010
0000
0010
1000
,
0010
0001
0010
0100
0010
0001
0010
0001
,
2000
3001
0020
0130
2000
3001
0020
0130
,
1001
0001
0100
0000
0101
0000
1000
0000
,
1100
0000
0110
1001
0002
0013
2000
3100
,
1010
1100
1001
0011
,
0101
0000
1001
0110
0002
1003
0020
0130
,
2000
3020
0230
0302
,
1003
0100
0010
0100
0002
0103
0010
0000
,
1000
0100
1000
0010
0100
0010
0001
0010
,
1000
0001
1000
0001
0020
0130
2000
3100
,
1001
0000
0000
0000
;
