#TITLE:Bites On My Neck;
#SUBTITLE:;
#ARTIST:yeule;
#TITLETRANSLIT:;
#SUBTITLETRANSLIT:;
#ARTISTTRANSLIT:;
#GENRE:;
#CREDIT:;
#BANNER:Bites On My Neck-bn.png;
#BACKGROUND:Bites On My Neck-bg.png;
#LYRICSPATH:;
#CDTITLE:;
#MUSIC:Bites On My Neck.ogg;
#OFFSET:0.000000;
#SAMPLESTART:51.200001;
#SAMPLELENGTH:14.600002;
#SELECTABLE:YES;
#BPMS:0.000000=75.000000
,48.000000=150.000000
,173.000000=75.000000
,174.000000=150.000000
,238.000000=75.000000
;
#STOPS:111.000000=0.200000,
142.500000=0.200000
;
#BGCHANGES:;
#KEYSOUNDS:;
#ATTACKS:;

//---------------dance-single - ----------------
#NOTES:
     dance-single:
     :
     Beginner:
     2:
     0.216743,0.236133,0.007437,0.148745,0.000000,204.000000,203.000000,1.000000,20.000000,0.000000,0.000000,0.216743,0.236133,0.007437,0.148745,0.000000,204.000000,203.000000,1.000000,20.000000,0.000000,0.000000:
0000
0000
0000
0000
,
0000
0000
0000
0000
,
0000
0000
0000
0000
,
0000
0000
0000
0000
,
1000
0001
0020
1030
,
0100
0010
0200
0301
,
1000
0010
0000
0100
,
0002
0003
1000
0000
0000
0000
0010
0000
,
0100
0000
0001
0000
1000
0000
0010
0100
,
0002
0000
1003
0000
0000
1000
0010
0000
,
0100
0001
0000
1000
,
0010
0100
0001
0000
,
1000
0000
0010
0000
,
0000
0000
0002
0203
,
2300
0000
3010
0000
,
0000
0000
1000
0001
,
0001
0000
0010
0000
,
0100
0000
1000
0100
,
1000
0010
0001
0100
,
0000
1000
0010
0000
,
0001
1000
0000
1000
,
0100
1000
0000
0010
,
0001
0010
0000
0100
,
0100
0001
0000
1000
,
0010
1000
0000
0100
,
0001
0100
0000
1000
,
0001
0010
0000
1000
,
0001
0000
1000
0000
0002
0000
0003
1000
,
0000
1000
0000
0010
0000
0010
0000
0100
,
0000
0001
0000
0010
0000
0001
0000
1000
,
0000
1000
0000
0010
0000
0010
0000
0100
,
0000
0001
0000
0100
0000
0001
0000
0010
,
0000
0001
0000
1000
0000
1000
0000
0001
,
0000
0100
0000
0001
0000
0010
0000
0001
,
0000
0001
0000
0100
0000
0100
0000
0010
,
0000
0100
0000
0010
0000
1000
1000
0000
,
0001
1000
0010
0100
,
0001
0010
0001
1000
,
0100
1000
0010
0100
,
0010
0001
0010
0001
,
0001
1000
1000
0100
,
1000
0001
0010
0010
,
0100
0100
1000
0001
,
1000
0001
1000
0010
,
0100
0010
1000
0001
,
0020
0031
0000
1000
,
0100
1000
0020
1030
,
2000
3100
0000
0002
,
0003
1000
0010
0100
,
0010
0001
0000
1000
,
0100
0000
0020
0000
0000
0030
1000
0000
,
0100
2000
3000
0001
,
0010
0001
0100
0001
,
0020
1030
0000
1000
,
0100
1000
0010
0200
,
0301
1000
0010
0100
,
0010
0200
0300
0001
,
0010
0002
0003
1000
,
0100
2000
3000
0010
,
0001
1000
1000
0010
,
0000
0010
1000
0100
,
0000
0001
0010
0010
,
1000
0100
1000
0002
,
0003
1000
1001
0000
;

//---------------dance-single - ----------------
#NOTES:
     dance-single:
     :
     Easy:
     4:
     0.275179,0.330587,0.171057,0.200806,0.000000,259.000000,236.000000,23.000000,27.000000,0.000000,0.000000,0.275179,0.330587,0.171057,0.200806,0.000000,259.000000,236.000000,23.000000,27.000000,0.000000,0.000000:
0000
0000
0000
0000
,
0000
0000
0000
0000
,
0000
0000
0000
0000
,
0000
0000
0000
0000
,
1000
0000
0001
0010
0001
0000
1000
0100
,
1000
0000
0010
0000
0100
0010
0100
0100
,
0000
0010
1000
0000
0002
0000
1003
0010
,
0200
0000
0310
0000
1000
0100
0001
0100
,
2000
0000
3001
0010
0001
0000
0100
0010
,
2000
3000
0100
1000
0000
0010
0100
0001
,
1000
0000
0010
0000
0100
1000
0001
0000
,
0010
0000
0100
0000
1000
0002
0000
0003
,
1000
0000
0000
1000
0000
0000
0010
0000
,
0000
0100
0000
0000
0001
0000
0010
0000
,
1000
0000
0000
0100
0000
0000
1000
0000
,
0000
0010
0000
0000
0100
0000
0010
0000
,
0001
0000
0000
0001
0000
0000
1000
0000
,
0000
0010
0000
0000
1000
0000
0100
0000
,
1000
0000
0000
0100
0000
0000
1000
0000
,
0000
0001
0000
0000
0001
0000
1000
0000
,
0010
0100
0000
0100
,
1000
0100
0001
0110
,
0001
0100
0000
1000
,
0100
1000
0010
0100
,
0001
1000
0000
1000
,
0010
0100
0000
0001
,
1000
0010
0000
0100
,
0001
0000
1000
0000
0001
0000
1000
1000
,
0000
1001
0000
0010
0000
1010
0000
0100
,
0000
0110
0000
0001
0000
0101
0000
0010
,
0000
0011
0000
0100
0000
1100
0000
0010
,
0000
1010
0000
0100
0000
1100
0000
2000
,
0000
3010
0000
0001
0000
0010
0000
0100
,
0000
0010
0000
0001
0000
0100
0000
0002
,
0000
0013
0000
0100
0000
1000
0000
0010
,
0000
1000
0000
0001
0000
1001
1001
0000
,
0110
1001
0110
0001
,
1000
0020
0230
0301
,
1010
1000
1100
0100
,
0110
0010
0011
1001
,
0100
1000
0010
0001
,
0100
1000
0010
0100
,
0010
0100
0001
0010
,
0001
0000
1000
0100
0110
0000
1001
0000
,
0001
0100
2000
3100
,
0010
0001
0000
0200
,
0302
0013
1000
0200
,
1300
0010
0000
0200
,
0010
0301
1000
0010
,
0002
1003
1000
0020
,
0230
0000
2300
0000
0000
3000
0010
0000
,
0001
0020
1030
0100
,
1000
0001
0010
0001
,
2000
3001
2000
0010
,
3200
1300
1000
0010
,
0200
0301
1000
0020
,
1030
0200
1300
0001
,
0010
0002
0000
0103
,
1000
0000
0020
0000
0000
0030
1000
0000
,
0100
0000
0100
0000
1001
0000
1000
0010
,
0000
0100
0010
0000
0001
0000
0010
0000
,
0000
0010
0100
0000
0000
1000
0100
0000
,
0000
0010
0001
0000
0000
0100
0010
0000
,
0000
0100
1000
0000
1001
0000
0000
0000
;

//---------------dance-single - ----------------
#NOTES:
     dance-single:
     :
     Medium:
     7:
     0.389925,0.495880,0.379301,0.290053,0.078091,367.000000,316.000000,51.000000,39.000000,0.000000,0.000000,0.389925,0.495880,0.379301,0.290053,0.078091,367.000000,316.000000,51.000000,39.000000,0.000000,0.000000:
0000
0000
0000
0000
,
0000
0000
0000
0000
,
0000
0000
0000
0000
,
0000
0000
0000
0000
,
1000
0000
0010
0000
1000
0000
0100
0000
0000
0000
0000
0000
0001
0000
0000
1000
0000
0000
0100
0000
0000
0000
0000
0000
,
0010
0000
1000
0000
0010
0000
0100
0000
0000
0000
0000
0000
0100
0000
0000
0001
0000
0000
1000
0000
0000
2000
0000
0000
,
3010
0000
0000
0002
0000
0000
0003
0000
0000
0000
0000
0000
1000
0000
0100
0000
0000
0000
1000
0000
0010
0000
0000
0000
,
0001
0000
0000
0000
0010
0000
0000
0000
0001
0000
0000
0000
0100
0000
0000
0000
0000
0000
0000
0000
1000
0000
0000
0000
0100
0000
0000
0000
1000
0000
0000
0000
0100
0000
0000
0000
1000
0000
0000
0100
0000
0000
0010
0000
0000
0000
0000
0000
,
0001
0000
2000
0000
3020
0000
0230
0000
0301
0000
1000
0000
0001
0100
0010
0000
,
2000
3001
0010
0100
0000
0001
0010
0002
,
1003
0000
1000
0010
0100
1000
0100
2000
,
3001
0000
0010
0001
0100
0000
0000
0000
,
2000
0000
0000
0100
0000
0000
0001
0000
,
0000
0100
0000
0000
0010
0000
0100
0000
,
3002
0000
0000
0010
0000
0000
0100
0000
,
0003
0010
0000
0000
1000
0000
0100
0000
,
0101
0000
0000
1001
0000
0000
0110
0000
,
0000
0011
0000
0000
1000
0000
0100
0000
,
1100
0000
0000
1010
0000
0000
0011
0000
,
0000
0101
0000
0000
0010
0000
0100
0000
,
1000
0001
1000
0000
0010
0000
0100
0010
,
0001
0010
0100
0000
1000
0000
0001
1000
,
0001
0000
0010
0000
0100
0000
1000
0100
,
1000
0010
1000
0000
0001
0000
0010
0000
,
0100
0001
0100
0000
0010
0000
0001
1000
,
0100
1000
0010
0000
1000
0000
0001
0010
,
0001
0100
0010
0000
0000
0000
0010
1000
,
0010
0100
0001
0000
2000
0000
3001
1000
,
0000
0010
1000
0100
0000
0100
0000
0010
,
0100
1000
0000
2000
0000
3200
0000
1300
,
0000
0001
1000
0010
0000
0001
0000
0100
,
0010
0100
0000
1000
0000
0010
0000
1001
,
0000
1000
0100
2000
0000
3010
0000
1000
,
0000
0100
0000
1010
0000
0010
0000
0021
,
0000
0130
1000
0001
0000
0110
0000
0001
,
1000
0001
0000
0010
0000
0110
1001
0000
,
0010
0001
0100
0000
1010
0000
0010
1000
,
0100
0101
1010
0011
,
1000
0001
0010
0000
1100
0000
0100
1000
,
0010
0000
0110
0000
1001
0000
2100
3000
,
0010
0001
0200
0000
0301
0000
0010
0100
,
0001
0110
1010
1002
,
0013
0100
0020
0000
0031
0000
1000
0001
,
0010
0000
1000
0100
0012
0000
2003
0000
,
3020
0000
0230
0000
2300
0001
3200
0000
,
0320
0000
0031
0000
1000
0000
0200
0010
,
0302
2003
3200
0320
,
0031
0012
1003
1200
,
0310
0000
0101
0000
2000
0001
0001
0000
,
3010
0000
1010
0000
0210
0000
0301
0010
,
0001
0000
0210
0000
1000
0301
0010
0000
,
0110
0000
1100
0000
0011
0000
1000
0100
,
0010
0000
1100
0000
0010
0100
0001
0000
,
1001
0000
1100
0000
1001
0000
0010
1000
,
0010
0000
0110
0000
1000
0100
0010
0000
,
0101
0000
0011
0000
2010
0000
3001
0100
,
0010
0000
0101
0000
0100
0010
0100
0000
,
1001
0000
0011
0000
2100
0000
3001
0100
,
0010
0000
1100
0000
0010
0100
0001
0000
,
1010
0000
0000
0000
0011
0000
0000
0000
1000
0000
0000
0000
0001
0010
0001
0000
,
1000
0000
0000
0000
0100
1000
0100
0000
0010
0000
0000
0000
0100
0010
0100
0000
,
0000
0000
0001
0000
1000
0010
1000
0000
0000
0000
0100
0000
0001
0010
0001
0000
,
0000
0000
0010
0000
0100
1000
0100
0000
0000
1000
0100
0000
0010
0000
0001
0000
,
0000
1000
0010
0000
0200
0000
0301
0000
1001
0000
0000
0000
0000
0000
0000
0000
;

//---------------dance-single - ----------------
#NOTES:
     dance-single:
     :
     Hard:
     8:
     0.487672,0.661173,0.438799,0.252867,0.237993,459.000000,400.000000,59.000000,34.000000,0.000000,0.000000,0.487672,0.661173,0.438799,0.252867,0.237993,459.000000,400.000000,59.000000,34.000000,0.000000,0.000000:
// measure 0
0000
0000
0000
0000
,  // measure 1
0000
0000
0000
0000
,  // measure 2
0000
0000
0000
0000
,  // measure 3
0000
0000
0000
0000
,  // measure 4
1000
0000
0100
0000
1000
0000
0010
0000
1000
0000
0001
0000
0100
0000
0001
0000
0010
0000
0002
0000
0000
0103
0000
0000
,  // measure 5
1000
0000
0010
1000
0000
0000
0100
0000
1000
0000
0010
0000
1000
0000
0001
0000
1000
0000
0001
0000
0000
0010
0001
0000
,  // measure 6
0100
0000
0000
0100
0000
0000
0010
0000
0100
0000
0010
0000
0100
0000
0000
1000
0000
0000
1000
0000
0100
0000
0010
0000
,  // measure 7
0001
0000
0000
0000
0010
0000
0000
0000
0001
0000
0000
0000
0010
0000
0000
0000
0000
0000
0001
0000
0000
0000
0000
0000
0010
0000
0000
0000
0100
0000
0000
0000
0010
0000
0000
0000
0100
0000
0000
0010
0000
0000
0001
0000
0000
0000
0000
0000
,  // measure 8
0100
0000
0000
0000
0000
0000
1000
0000
0000
0000
0000
0000
0100
0000
0000
0000
0000
0000
1000
0000
0000
0000
0000
0000
1000
0000
0000
0000
0001
0000
0000
0000
0010
0000
0000
0000
0001
0000
0000
0100
0000
0000
1000
0000
0000
0000
0000
0000
,  // measure 9
0010
0000
0000
0000
0000
0000
0001
0000
0000
0000
0000
0000
0010
0000
0000
0000
0000
0000
0001
0000
0000
0000
0000
0000
0001
0000
0000
0000
1000
0000
0100
0000
0000
0000
0000
0000
1000
0000
0000
0100
0000
0000
0010
0000
0000
0000
0000
0000
,  // measure 10
0001
0000
0000
0000
0000
0000
0100
0000
0001
0000
0000
0000
0010
0000
0000
0000
0100
0000
1000
0000
0000
0000
0000
0000
0001
0000
0000
0000
0000
0000
0100
0000
0000
0000
0000
0000
1000
0000
0000
0010
0000
0000
1000
0000
0000
0000
0000
0000
,  // measure 11
0001
0000
1000
0001
1000
0000
0001
0000
1000
0001
1000
0000
0002
0000
0000
0000
0000
0000
0000
0000
0000
0003
0000
0000
,  // measure 12
0210
0000
0000
2300
0000
0000
0001
0000
,  // measure 13
3000
0101
0000
0000
1020
0000
1000
0000
,  // measure 14
0230
0000
0000
0302
0000
0000
1000
0000
,  // measure 15
0003
0011
0000
0000
0120
0000
1030
0000
,  // measure 16
1000
0000
2000
0001
3010
0000
0110
0000
,  // measure 17
0002
0100
0013
0000
1000
0000
0101
0000
,  // measure 18
2001
0000
3020
1030
0100
0000
0110
0000
,  // measure 19
0000
0000
1001
0000
0020
0000
0000
0000
0130
0001
0000
1000
0100
0000
0000
0000
,  // measure 20
1000
0000
0100
1000
0100
0000
0000
0000
0010
0000
0000
0000
0001
0000
0010
0000
,  // measure 21
0001
0100
1000
0000
0002
0000
0013
1000
,  // measure 22
0010
0100
0001
0010
0001
0000
1000
0010
,  // measure 23
0100
0000
0001
0000
0010
0000
0000
0000
1000
0001
0000
1000
0001
0000
0000
0000
,  // measure 24
0100
0000
1000
0100
1000
0000
0000
0000
0100
0000
0000
0000
0001
0000
0010
0000
,  // measure 25
0001
0100
0100
0000
0020
0000
1030
0100
,  // measure 26
0010
0001
0100
0000
1010
0000
0100
0001
,  // measure 27
0010
0001
1000
0000
0102
0000
1003
1001
,  // measure 28
0000
1010
0000
1100
0000
1001
0010
1000
,  // measure 29
0001
0010
0000
1100
0000
1100
0000
0011
,  // measure 30
0000
0001
1000
0010
1000
0100
0000
1010
,  // measure 31
1000
0101
0000
1001
0000
1001
0000
0010
,  // measure 32
1000
0100
1000
0002
0000
1003
0000
1000
,  // measure 33
0010
1000
0100
0001
0000
0011
0000
0100
,  // measure 34
1000
1100
0010
1001
0000
1010
0000
0100
,  // measure 35
1000
0011
0000
1000
0100
0100
0001
0000
,  // measure 36
1010
0001
0101
1000
0101
0000
1000
0001
,  // measure 37
0010
0100
0110
0000
1010
0000
1000
0100
,  // measure 38
1000
0010
1000
0001
0100
0000
1000
0010
,  // measure 39
1000
0010
1001
0000
0110
0000
1000
0100
,  // measure 40
1100
0000
1001
0000
0011
0000
1000
0100
,  // measure 41
1000
0010
1001
0000
0110
0000
0001
0010
,  // measure 42
1001
0200
0301
0000
1010
0000
1000
0100
,  // measure 43
1000
0010
0200
0301
1000
0100
2000
0010
,  // measure 44
3200
0001
0310
0000
0110
0000
1100
0000
,  // measure 45
1001
0000
0011
0000
1000
0100
2000
0010
,  // measure 46
3002
1000
0013
0000
0101
0000
0110
0000
,  // measure 47
1001
0000
0110
0000
1000
0100
0001
0100
,  // measure 48
1000
0010
0100
0000
1000
0010
1000
0001
,  // measure 49
0020
0000
0130
0000
1000
0100
1000
0001
,  // measure 50
0200
0000
1300
0000
0001
0010
0002
0000
,  // measure 51
0103
0000
0010
0000
1000
0100
1000
0010
,  // measure 52
1000
0001
0010
0000
0100
0000
0101
0000
,  // measure 53
0010
0000
1010
0000
1000
0000
0100
1000
,  // measure 54
0010
1000
0001
0000
0011
0000
0101
0000
,  // measure 55
0020
0000
1030
0000
1000
0000
1000
0100
,  // measure 56
1000
0000
1002
0000
0013
0100
0010
0000
,  // measure 57
1001
0000
0110
0000
0002
0000
0103
1000
,  // measure 58
0100
0000
0200
0000
1300
1000
0002
0000
,  // measure 59
2003
0000
0000
0000
0000
0000
0100
0000
0000
0000
0000
0000
3020
0000
0000
0000
0000
0000
0030
0000
0000
0000
0000
0000
0110
0000
0000
0001
0000
0000
0010
0000
0000
0001
0000
0000
0100
0000
0000
0000
1000
0000
0100
0000
0000
0000
0000
0000
,  // measure 60
0000
0000
0000
0000
0000
0000
0000
0000
0000
0000
0000
0000
1000
0000
0000
0000
0000
0000
0000
0000
0000
0000
0000
0000
0001
0000
0000
0000
0000
0000
0000
0000
0000
0000
0000
0000
0100
0000
0000
0000
0000
0000
0000
0000
0000
0000
0000
0000
0010
0000
0000
0000
0000
0000
0000
0000
0000
0000
0000
0000
0000
0000
0000
0000
0000
0000
1000
0000
0000
0000
0000
0000
0010
0000
0000
0000
0000
0000
0000
0000
0000
0000
0000
0000
0000
0000
0000
0000
0000
0000
0000
0000
0000
0000
0000
0000
0000
0000
0000
0000
0000
0000
0000
0000
0000
0000
0000
0000
0001
0000
0000
0000
0000
0000
0000
0000
0000
0000
0000
0000
1000
0000
0000
0000
0000
0000
0000
0000
0000
0000
0000
0000
0001
0000
0000
0000
0000
0000
0000
0000
0000
0000
0000
0000
0100
0000
0000
0000
0000
0000
0000
0000
0010
0000
0000
0000
0000
0000
0000
0000
0000
0000
0001
0000
0000
0000
0000
0000
0000
0000
0000
0000
0000
0000
0000
0000
0000
0000
0000
0000
0000
0000
0000
0000
0000
0000
0000
0000
0000
0000
0000
0000
,  // measure 61
0000
0000
0010
0000
0100
0000
0001
0000
1000
0000
0000
1000
0000
0000
0000
0000
0001
0000
0100
0000
0010
0000
1000
0000
0020
0000
0000
0000
0130
0000
0000
0000
,  // measure 62
0000
0000
0000
0100
0000
0000
0010
0000
0000
1000
0000
0000
0010
0000
0000
0001
0000
0000
0100
0000
0000
0000
0000
0000
1000
0000
0000
0010
0000
0000
1000
0000
0000
0000
0001
0000
0010
0000
0000
0000
0100
0000
1000
0000
0000
0000
0000
0000
,  // measure 63
1000
0000
0000
0000
0000
0000
0000
0000
0000
0000
0000
0000
0100
0000
0000
0000
0000
0000
0000
0000
0000
0000
0000
0000
0010
0000
0000
0000
0000
0000
0000
0000
0001
0000
0000
0000
0000
0000
0000
0000
0000
0000
0000
0000
0000
0000
0000
0000
1000
0000
0000
0000
0000
0000
0000
0000
0000
0000
0000
0000
0010
0000
0000
0000
0000
0000
0100
0000
0000
0000
0000
0000
0000
0000
0000
0000
0000
0000
0000
0000
0000
0000
0000
0000
0000
0000
0000
0000
0000
0000
0000
0000
0000
0000
0000
0000
1001
0000
0000
0000
0000
0000
0000
0000
0000
0000
0000
0000
0000
0000
0000
0000
0000
0000
0000
0000
0000
0000
0000
0000
0000
0000
0000
0000
0000
0000
0000
0000
0000
0000
0000
0000
0000
0000
0000
0000
0000
0000
0000
0000
0000
0000
0000
0000
0000
0000
0000
0000
0000
0000
0000
0000
0000
0000
0000
0000
0000
0000
0000
0000
0000
0000
0000
0000
0000
0000
0000
0000
0000
0000
0000
0000
0000
0000
0000
0000
0000
0000
0000
0000
0000
0000
0000
0000
0000
0000
0000
0000
0000
0000
0000
0000
;
