#VERSION:0.83;
#TITLE:Beautiful;
#SUBTITLE:;
#ARTIST:A.G. Cook;
#TITLETRANSLIT:;
#SUBTITLETRANSLIT:;
#ARTISTTRANSLIT:;
#GENRE:;
#ORIGIN:;
#CREDIT:;
#BANNER:Screen Shot 2017-07-22 at 9.51.45 PM.png;
#BACKGROUND:A._G._Cook_Beautiful.png;
#PREVIEWVID:;
#JACKET:;
#CDIMAGE:;
#DISCIMAGE:;
#LYRICSPATH:;
#CDTITLE:;
#MUSIC:Beautiful (Short).mp3;
#OFFSET:0.000000;
#SAMPLESTART:49.000000;
#SAMPLELENGTH:12.000000;
#SELECTABLE:YES;
#BPMS:0.000=140.800,
120.000=35.200,
122.000=140.800;
#STOPS:;
#DELAYS:;
#WARPS:;
#TIMESIGNATURES:0.000=4=4;
#TICKCOUNTS:0.000=4;
#COMBOS:0.000=1;
#SPEEDS:0.000=1.000=0.000=0;
#SCROLLS:0.000=1.000;
#FAKES:;
#LABELS:0.000=Song Start;
#BGCHANGES:;
#KEYSOUNDS:;
#ATTACKS:
;

//---------------dance-single - ----------------
#NOTEDATA:;
#CHARTNAME:;
#STEPSTYPE:dance-single;
#DESCRIPTION:;
#CHARTSTYLE:;
#DIFFICULTY:Hard;
#METER:8;
#RADARVALUES:0.490846,0.619723,0.275522,0.218797,0.279574,424.000000,390.000000,34.000000,27.000000,0.000000,0.000000,0.000000,0.000000,0.000000,0.490846,0.619723,0.275522,0.218797,0.279574,424.000000,390.000000,34.000000,27.000000,0.000000,0.000000,0.000000,0.000000,0.000000;
#CREDIT:;
#NOTES:
1000
0100
0010
0001
0010
1000
0010
0001
,
1000
0100
0001
1000
0000
0010
1000
0010
,
0001
0000
1000
0000
0001
1000
0010
1000
,
0100
0001
0000
1000
0010
0001
1000
0100
,
1000
0010
0001
1000
1001
0000
0010
1000
,
0100
0010
0001
0010
1000
0010
0100
1000
,
0001
0010
0000
0000
1000
0100
1000
0100
,
0010
0001
1000
0010
1000
0010
0001
1000
,
1000
0000
0000
0001
0000
0000
1000
0000
0010
0000
0000
1000
0000
0000
0100
0000
,
0001
0000
0000
0010
0000
0000
1000
0000
0100
0000
0000
0010
0000
0000
1000
0000
,
0010
0000
0000
1000
0000
0000
0010
0000
0001
0000
0000
0100
0000
0000
0010
0000
,
0100
0000
0000
0010
0000
0000
0100
0000
1000
0000
0000
0100
0000
0000
0010
0000
,
0001
0000
0000
1000
0000
0000
1000
0000
0010
0000
0000
1000
0000
0000
0100
0000
,
0010
0000
0000
0001
0000
0000
1000
0000
0100
0000
0000
0010
0000
0000
1000
0200
,
0000
0000
0301
0000
1000
0000
0000
0000
0100
0000
0010
0000
0001
1000
0000
0001
,
0000
0000
1000
0010
0000
0000
1000
0100
0000
0000
0001
0010
0000
0000
1000
0010
,
0000
0000
1000
0000
0000
0000
0001
1000
0000
0000
0001
0000
0000
1000
0010
0000
,
0000
0000
1000
0000
0000
0000
0100
0001
0000
0000
1000
0000
0000
0000
0010
1000
,
0000
0000
0001
0000
0000
0000
1000
0010
0000
0000
1000
0000
0000
0000
0100
0001
,
0000
0000
0010
0000
0000
1000
0100
0000
0001
0000
0010
0000
1000
0000
0100
0000
,
1000
0000
0000
0100
0000
0000
0010
0000
0001
0000
1000
0000
0001
0000
1000
0000
,
0010
0000
0000
0100
0000
0000
1000
0000
0100
0000
1000
0000
0100
0000
1000
0000
,
0001
0000
0000
1000
0000
0000
0010
0000
1000
0000
0010
0000
1000
0000
0001
0000
,
1000
0000
0000
0100
0000
0000
0001
0000
1000
0000
0010
0000
1000
0000
0100
0001
,
2000
0100
0000
0000
3200
0000
0001
0000
,
0320
0100
2030
3000
,
0100
0002
2003
3000
,
0100
0010
0100
0000
0200
0000
0000
0000
,
1300
0001
2000
3000
,
0020
0000
0000
0000
0000
0000
0000
0030
,
2002
0000
0000
3003
0110
0000
1001
0000
,
1000
0000
0100
0000
1000
0100
0000
0000
0001
0000
1000
0001
1000
0000
0010
0001
,
0010
0000
0100
1000
0100
0000
0010
0000
0001
0000
0000
1000
0100
0000
0010
0000
,
0001
0010
0001
0010
1000
0100
0000
0002
0000
0103
2000
0000
0000
0000
3100
0000
,
0000
0000
0100
0000
0000
0000
1000
0200
0000
0000
0310
0000
1000
0000
0100
0000
,
0010
0000
0000
0001
0000
0000
0010
0000
0001
0000
0001
0010
0000
0000
0010
1000
,
0000
0000
1000
0100
0000
0000
0100
0010
0000
0000
0010
0000
1000
0000
0000
0000
,
0100
0000
0010
0000
0100
0000
0010
0001
0010
0000
1000
0100
1000
0000
0001
0000
,
1000
0001
0001
0010
1001
0000
0110
0000
,
0011
1010
0110
0011
,
0110
0011
1001
0110
,
1001
1010
0101
0011
,
1100
0101
0110
0110
,
1001
0110
0011
1010
,
0101
1010
0110
0011
,
1100
0000
0011
0000
0010
0100
0010
0100
,
1000
0001
1000
0001
1000
0001
1000
0001
2001
0000
0000
0010
0000
0000
0001
0000
,
0000
0000
0100
0000
0000
0000
0010
0000
0001
0000
0000
0001
0000
0000
0100
0000
,
0001
0000
0000
0010
0000
0000
0100
0000
3002
0000
0000
0100
0000
0000
0010
0000
,
0000
0000
0010
0000
0000
0000
1000
0000
0010
0000
0000
0100
0000
0000
0010
0000
,
1000
0000
0000
0100
0000
0000
1000
0000
1003
0000
0000
0100
0000
0000
0010
0000
,
0100
0000
0010
0000
0001
0000
1000
0000
0000
0000
0001
0000
0010
0000
0000
0100
,
0000
0000
0010
0000
0000
0000
1000
0000
0001
0000
0000
0001
0000
0000
1000
0000
,
0000
0000
1000
0000
0000
0000
0010
0000
0002
0000
0003
0020
0000
0030
0200
0000
,
0320
0000
0030
2000
0000
3000
0002
0000
1003
0000
0000
0000
0110
0000
0000
0000
,
1000
0000
0100
0000
0010
0000
0100
0000
0001
0000
0000
1000
0000
0000
0001
0000
,
0010
0000
0000
0100
0000
0000
1000
0000
1000
0000
0000
0000
0010
0000
0000
0000
,
1000
0000
0100
0000
1000
0000
0100
0000
0001
0000
0010
0100
1000
0000
1000
0000
,
0100
0010
0100
0010
1000
0000
0010
0000
,
0100
0001
0010
0001
1000
1000
0100
0010
,
0100
0000
0000
0001
0000
0000
0010
0000
1000
0000
0000
0001
0000
0000
1000
0000
,
0001
0010
1000
0010
0100
0001
1000
0000
,
1000
0100
0010
0000
2000
0000
0000
0000
,
0000
0000
3200
0000
,
0000
0000
0302
0000
,
0000
0000
0023
0000
,
0000
0000
0000
0030
1000
0000
0000
0000
;

//---------------dance-single - ----------------
#NOTEDATA:;
#CHARTNAME:;
#STEPSTYPE:dance-single;
#DESCRIPTION:;
#CHARTSTYLE:;
#DIFFICULTY:Medium;
#METER:7;
#RADARVALUES:0.429491,0.511945,0.235004,0.032414,0.000000,371.000000,342.000000,29.000000,4.000000,0.000000,0.000000,0.000000,0.000000,0.000000,0.429491,0.511945,0.235004,0.032414,0.000000,371.000000,342.000000,29.000000,4.000000,0.000000,0.000000,0.000000,0.000000,0.000000;
#CREDIT:;
#NOTES:
1000
0001
0000
0010
1000
0100
0000
1000
,
0001
1000
0001
0010
1000
0100
0001
0010
,
1000
0001
0000
0001
0010
1000
0000
0100
,
0001
1000
0000
0001
0000
0010
0100
1000
,
0100
1000
0000
0001
1000
0010
0000
1000
,
0100
0001
1000
0001
1000
0010
0100
1000
,
1100
0001
0000
0010
1000
0100
0000
0001
,
1000
0001
0000
0010
1000
0100
0001
1000
,
1000
0000
0001
0000
0010
0100
1000
0100
,
1000
0000
0001
0000
1000
0001
0010
0001
,
1000
0000
0001
0000
1000
0100
1000
0100
,
0010
0000
0001
0000
1000
0100
1000
0100
,
0010
0000
0001
0000
1000
0000
0001
1000
,
1000
0000
0010
0000
0100
1000
0100
0001
,
1000
0000
0001
0000
0010
0001
0010
1000
,
0100
1000
0001
1000
,
1010
1100
1010
1100
,
1001
0110
1001
0110
,
0001
0010
0100
0000
1000
0100
0010
0000
,
1000
0010
1000
0001
0100
0001
0100
1000
,
1000
0000
0010
0000
0001
1000
0001
1000
,
0001
0000
0001
0001
0010
0000
0100
1000
,
0100
0000
1000
0000
0001
1000
0001
1000
,
0010
0000
0100
0010
0100
0010
0001
0110
,
0001
0000
0000
0000
0000
1000
0000
0200
,
0300
0000
0001
0000
0000
0010
0000
0000
,
0000
0100
0000
1000
0000
0000
0000
0001
,
0000
0010
0000
0000
0100
0000
0000
0000
,
1000
0001
1000
0000
,
0002
0000
0000
0000
0000
0003
0000
0000
,
1001
0000
1000
0110
,
0001
1000
0001
1000
0010
0000
0100
0000
,
1000
0100
1000
0100
0001
0000
1000
0000
,
0001
1000
0001
1000
0010
0100
1000
0100
,
0010
0001
0010
0001
1000
0000
0001
0000
,
1000
0001
1000
0100
0010
0001
0010
0001
,
1000
0100
0001
1000
0010
0000
1000
0000
,
0001
0000
1000
0100
1000
0001
1000
0010
,
1000
0100
0001
0010
1001
0000
0110
0000
,
1001
0011
0100
1000
,
0010
0001
0010
0001
1001
0000
0110
0000
,
1100
0110
0010
0100
,
1000
0100
1000
0100
0001
0000
1000
0000
,
1001
0110
0011
1100
,
0010
0100
0010
0100
1000
0000
0100
0000
,
1001
0000
0110
0000
0001
0010
0001
1000
,
0100
1000
0100
0001
1000
0000
0000
0000
,
0000
0000
0010
0100
,
1000
0100
0001
0000
,
0000
0000
0010
0100
,
1000
0100
0001
0000
,
0000
0000
0010
0100
,
0010
0100
1000
0100
,
0001
0000
0000
0000
1000
0100
1000
0100
,
1000
0100
1000
0100
0001
0000
1001
0000
,
0010
0100
1000
0100
0010
0000
0001
1000
,
0001
1000
0001
1000
0010
0000
0100
0000
,
1000
0100
0010
0001
0010
0001
0010
0001
,
1000
0100
1000
0100
0001
0000
1000
0010
,
1000
0100
0001
0000
1000
0001
0010
1000
,
0010
1000
0001
0000
1000
0100
0001
0100
,
1000
0100
1000
0010
1000
0001
0010
1100
,
0100
0010
0001
1000
1001
0000
0000
0000
,
0000
0000
0100
0000
,
0000
0000
0010
0000
,
0000
0000
2000
0000
,
0002
0000
3003
0000
;

//---------------dance-single - ----------------
#NOTEDATA:;
#CHARTNAME:;
#STEPSTYPE:dance-single;
#DESCRIPTION:;
#CHARTSTYLE:;
#DIFFICULTY:Easy;
#METER:4;
#RADARVALUES:0.281311,0.485000,0.275522,0.194486,0.000000,243.000000,209.000000,34.000000,24.000000,0.000000,0.000000,0.000000,0.000000,0.000000,0.281311,0.485000,0.275522,0.194486,0.000000,243.000000,209.000000,34.000000,24.000000,0.000000,0.000000,0.000000,0.000000,0.000000;
#CREDIT:;
#NOTES:
1000
0100
0001
0011
,
1000
0001
1000
0001
,
1000
0100
0010
0010
,
1000
0001
1000
0100
,
0001
0010
0100
1000
,
0100
1000
0001
1000
,
0010
0100
1000
0100
,
1000
0001
1000
0010
,
1001
0100
0000
0100
,
1000
0100
0010
0001
,
1000
0000
1000
1000
,
0100
0010
0001
1000
,
0001
0000
0001
1000
,
0100
0010
0100
0001
,
1000
0000
1000
1000
,
0000
0100
0011
0100
,
1000
0100
0001
1000
,
0001
0010
0100
1000
,
0100
0001
0010
0001
,
1000
0100
1000
0100
,
0001
0001
0001
0001
,
1000
1000
1000
1000
,
1001
1001
1001
1001
,
0110
0110
0110
0110
,
0002
0000
0000
0003
,
2000
0000
0000
3000
,
0002
0000
0000
0003
,
0020
0000
0000
0030
,
1000
0001
1000
0000
,
0002
0000
0000
0003
,
2020
3030
0000
0110
,
0010
1001
1000
0101
,
0100
1010
0010
1100
,
0100
0101
0001
1001
,
1000
1001
1000
0100
,
0100
0010
0100
0110
,
0010
0110
1000
1000
,
0001
0001
0010
0001
,
0100
1000
0100
0001
,
0100
0001
1000
0010
,
1000
0010
0001
0010
,
0001
0100
0010
1000
,
0100
0010
0002
0013
,
0020
1030
0200
0310
,
2000
3001
1001
1001
,
1001
1001
0110
0110
,
1001
0110
2002
0000
,
0000
0000
0000
0000
,
0000
0000
0000
0000
,
0000
0000
0000
0000
,
0000
0000
3003
0010
,
0000
0100
0001
0000
,
1000
0000
0000
0010
,
0000
0100
1000
0000
,
0001
1000
0000
1001
,
0010
0001
1000
0100
,
1000
0100
0010
0100
,
0010
0001
1000
0001
,
0100
0010
2000
3020
,
0032
0203
0310
1000
,
0100
0001
1000
2001
,
3010
0201
1300
0100
,
0010
0100
2000
0000
,
0000
0000
3002
0000
,
0000
0000
0203
0000
,
0000
0000
2300
0000
,
3020
0000
0030
0000
;

//---------------dance-single - ----------------
#NOTEDATA:;
#CHARTNAME:;
#STEPSTYPE:dance-single;
#DESCRIPTION:;
#CHARTSTYLE:;
#DIFFICULTY:Beginner;
#METER:2;
#RADARVALUES:0.160914,0.226090,0.008104,0.113450,0.000000,139.000000,138.000000,1.000000,14.000000,0.000000,0.000000,0.000000,0.000000,0.000000,0.160914,0.226090,0.008104,0.113450,0.000000,139.000000,138.000000,1.000000,14.000000,0.000000,0.000000,0.000000,0.000000,0.000000;
#CREDIT:;
#NOTES:
// measure 0
1000
0000
0001
0000
,  // measure 1
1000
0000
0000
0000
,  // measure 2
0100
0000
1000
0000
,  // measure 3
0100
0000
0010
0000
,  // measure 4
0001
0000
0000
0000
,  // measure 5
1000
0000
0100
0000
,  // measure 6
1000
0000
0000
0000
,  // measure 7
0010
0000
0100
0000
,  // measure 8
0001
0000
0000
0000
,  // measure 9
1000
0000
0000
0000
,  // measure 10
0001
0000
0000
0000
,  // measure 11
1000
0000
0010
0000
,  // measure 12
0100
0000
0000
0000
,  // measure 13
1000
0000
0000
0000
,  // measure 14
0001
0000
0000
0000
,  // measure 15
0010
0000
0100
0000
,  // measure 16
1000
1000
0000
0000
,  // measure 17
0001
0001
0010
0000
,  // measure 18
1000
1000
0000
0000
,  // measure 19
0100
0100
0010
0000
,  // measure 20
1000
0000
0001
0000
,  // measure 21
1000
0100
1000
0000
,  // measure 22
0001
0000
0010
0000
,  // measure 23
0100
0100
0100
0000
,  // measure 24
1000
0000
0010
0001
,  // measure 25
0000
0010
0100
0000
,  // measure 26
1000
0100
0000
0000
,  // measure 27
0001
0000
1000
0000
,  // measure 28
0010
0100
1000
0000
,  // measure 29
0002
0000
0000
0003
,  // measure 30
0000
0000
0000
1000
,  // measure 31
0001
0010
0100
0000
,  // measure 32
1000
0000
0010
0010
,  // measure 33
0001
0010
1000
0000
,  // measure 34
0001
0000
1000
0010
,  // measure 35
0001
0010
0100
0000
,  // measure 36
1000
0000
0001
0010
,  // measure 37
0001
0010
1000
0000
,  // measure 38
0100
0000
1001
0000
,  // measure 39
0100
1000
0100
0000
,  // measure 40
1000
0000
0010
0000
,  // measure 41
0001
0010
0100
0000
,  // measure 42
0010
0000
1000
0000
,  // measure 43
0100
1000
0100
0000
,  // measure 44
0001
0000
1000
0000
,  // measure 45
0100
0010
0100
0000
,  // measure 46
0001
0010
1000
0000
,  // measure 47
0000
0000
0001
0000
,  // measure 48
1000
0000
0100
0000
,  // measure 49
0000
0000
0010
0000
,  // measure 50
0100
0000
0002
0000
,  // measure 51
0000
0000
2003
0000
,  // measure 52
3200
0000
0320
0000
,  // measure 53
0000
0000
2000
0000
,  // measure 54
0000
0000
3030
0010
,  // measure 55
0000
0000
0001
0000
,  // measure 56
0010
0000
1000
0100
,  // measure 57
0000
1000
0001
0000
,  // measure 58
0010
0000
1000
0001
,  // measure 59
1000
0100
1000
0000
,  // measure 60
0100
0000
1000
0010
,  // measure 61
0000
1000
0001
0000
,  // measure 62
0010
0000
0200
0300
,  // measure 63
0000
0000
2000
3000
,  // measure 64
0000
0000
0002
0003
,  // measure 65
0000
0000
0020
0030
,  // measure 66
0000
0000
2000
3000
,  // measure 67
0000
0000
0002
0003
,  // measure 68
0000
0000
0020
0030
,  // measure 69
0000
0000
0200
0300
;
