#TITLE:Bad Baby;
#SUBTITLE:;
#ARTIST:Neggy Gemmy (fka Negative Gemini);
#TITLETRANSLIT:;
#SUBTITLETRANSLIT:;
#ARTISTTRANSLIT:;
#GENRE:;
#CREDIT:;
#BANNER:Bad Baby-bn.png;
#BACKGROUND:Bad Baby-bg.png;
#LYRICSPATH:;
#CDTITLE:;
#MUSIC:Bad Baby.ogg;
#OFFSET:0.000000;
#SAMPLESTART:45.714287;
#SAMPLELENGTH:16.190475;
#SELECTABLE:YES;
#BPMS:0.000000=125.999992
,96.000000=251.999985
,320.000000=125.999992
,352.000000=251.999985
,424.000000=125.999992
;
#STOPS:
;
#BGCHANGES:;
#KEYSOUNDS:;
#ATTACKS:;

//---------------dance-single - ----------------
#NOTES:
     dance-single:
     :
     Beginner:
     3:
     0.265752,0.360236,0.000000,0.495563,0.000000,244.000000,244.000000,0.000000,65.000000,0.000000,0.000000,0.265752,0.360236,0.000000,0.495563,0.000000,244.000000,244.000000,0.000000,65.000000,0.000000,0.000000:
0000
0000
0000
0000
,
0000
0000
0000
0000
,
0000
0000
0000
0000
,
0000
0000
0000
0000
,
2000
0001
0000
0010
,
3200
1000
0000
0310
,
0020
1000
0000
0001
,
0032
0100
0000
0100
,
0103
0020
2030
3200
,
1300
0000
0000
0010
0000
0000
1000
0000
,
0100
0001
0100
0010
,
0002
1003
2000
3100
,
1000
0020
2030
3200
,
1300
0000
0000
0010
0000
0000
0100
0000
,
0002
0013
0100
0010
,
0100
1000
0001
0002
,
1003
0010
0100
1000
,
2000
0010
3020
0130
,
0001
0010
0001
2000
,
0100
0010
0000
3001
,
0100
0001
0010
0001
,
1000
0000
0000
0002
0000
0000
2003
0000
,
0001
0010
3100
1000
,
0200
1000
0310
0001
,
1000
0000
0001
0000
,
0010
0000
0100
0000
,
2000
0000
0000
3002
,
0000
0000
0013
0000
,
1000
0000
0100
0000
,
1000
0000
0010
0000
,
2000
0000
3100
0010
,
0000
0001
0020
0000
,
0230
0000
1300
0000
,
0010
0000
1000
0000
,
0200
0000
0000
2300
,
0000
0000
3001
0000
,
0010
0000
1000
0000
,
0010
0000
1000
0000
,
0100
0000
0000
0020
,
0000
0000
0032
0000
,
2003
0000
3001
0000
,
1000
0000
0010
1000
,
0200
0000
0301
0000
,
0010
0000
0001
0100
,
0002
0000
1003
0000
,
0010
0000
0100
1000
,
0200
0300
1000
0000
,
0010
0000
1000
0000
,
0001
0000
2000
0000
,
3020
0000
1030
0000
,
0200
0000
0300
2000
,
0000
3000
0100
0000
,
1000
0000
0020
0000
,
1030
0000
0100
0000
,
2000
0000
3002
0000
,
2003
0000
3200
0000
,
1300
0000
0010
0000
,
1000
0000
0100
0000
,
2000
0000
3000
0002
,
0000
0003
0010
0000
,
0100
0000
2000
0000
,
3100
0000
0001
0000
,
0020
0000
0031
0000
,
1000
0000
0100
0000
,
0010
0000
2000
0000
,
3001
0000
0100
0000
,
2000
0000
0000
3020
,
0000
0130
0002
0000
,
1003
0000
1000
0000
,
0010
0000
0001
0000
,
0200
0000
0301
0000
,
2000
0000
3010
0000
,
1000
0000
0100
0000
,
1000
0000
0001
0000
,
0020
0000
0000
0230
,
0000
0000
0301
0000
,
1000
0000
0010
0000
,
0100
0000
1000
0000
,
2000
0000
3010
0000
,
0100
0000
0001
0000
,
1000
0001
0010
0100
,
2000
0000
0010
3000
,
0001
0010
0001
0100
,
2000
0000
3001
0010
,
0020
1030
0100
1000
,
0200
0000
1000
0300
,
0001
1000
0010
0100
,
0200
0000
1300
0010
,
1000
0001
0000
0010
,
0000
0100
0000
1000
,
0200
0000
0300
2000
,
0000
0000
3001
0000
,
0010
0001
0000
0100
,
0000
0001
0000
0001
,
2000
0000
3000
0200
,
0000
0000
0310
0000
,
0001
0000
0010
0000
,
0100
0000
1000
0000
,
0001
0000
0010
0100
,
1000
0000
0001
0000
,
0001
0000
0010
0000
,
0001
0100
0001
0000
,
0010
0000
1000
0000
,
0100
0000
1000
0001
,
2000
0000
0000
0000
,
3000
0000
0000
0000
;

//---------------dance-single - ----------------
#NOTES:
     dance-single:
     :
     Easy:
     4:
     0.274466,0.356805,0.000000,0.190601,0.000000,252.000000,252.000000,0.000000,25.000000,0.000000,0.000000,0.274466,0.356805,0.000000,0.190601,0.000000,252.000000,252.000000,0.000000,25.000000,0.000000,0.000000:
0000
0000
0000
0000
,
0000
0000
0000
0000
,
0000
0000
0000
0000
,
0000
0000
0000
0000
,
0200
0001
0000
0001
,
0320
0100
0000
0100
,
2030
0010
0000
0010
,
3200
1000
0000
1000
,
1300
0100
0010
0100
,
0010
0000
0000
0001
0000
0000
0010
0000
,
0001
1000
0001
1000
,
0100
0010
0100
1000
,
0001
0010
0001
0010
,
0100
0000
0000
0010
0000
0000
0001
0000
,
1000
0001
1000
0010
,
0100
1000
0100
0001
,
0010
0100
0010
0100
,
1000
0000
0000
0010
0000
0000
0100
0000
,
0001
1000
0001
1000
,
0010
0000
0001
0000
0000
0010
0000
0000
,
0100
0010
1000
0010
,
0100
0000
0000
0002
0000
0000
0100
0000
,
1003
0100
0001
0100
,
1000
0000
0010
0000
,
1000
0000
0001
0000
,
0010
0000
0100
0000
,
1000
0000
1000
0100
,
0010
0000
0001
0000
,
1000
0000
0001
0000
,
0010
0000
0100
0000
,
1000
0000
0100
0000
,
0010
0000
0001
0010
,
0001
0000
1000
0000
,
0010
0000
1000
0000
,
0100
0000
1000
0100
,
0010
0000
0100
0000
,
1000
0000
0001
0000
,
1000
0000
0010
0000
,
0100
0000
1000
0100
,
0001
0000
1000
0001
,
1000
0000
0010
0000
,
0100
0000
0010
0100
,
0001
0000
0010
0000
,
0001
0000
0100
0010
,
1000
0000
0100
0000
,
1000
0000
0010
0000
,
1000
0000
0100
0000
,
0010
0000
0001
0000
,
0001
0000
2000
0000
,
3010
0000
0100
0000
,
0002
0000
0000
2003
,
0000
0000
3010
0000
,
0100
0000
1000
0000
,
0100
0000
0001
0000
,
0010
0000
0001
0000
,
0100
0000
0002
0000
,
1003
0000
0010
0000
,
0100
0000
0010
0000
,
2000
0000
0000
3002
,
0000
0000
0013
0000
,
0100
0000
0010
0000
,
0001
0000
1000
0000
,
0020
0000
0130
0000
,
0200
0000
0320
0000
,
0031
0000
1000
0000
,
0100
0000
0010
0000
,
0200
0000
0000
2300
,
0000
0000
3100
0000
,
1000
0000
0001
0000
,
0010
0000
0001
0000
,
0100
0000
0010
0000
,
1000
0000
0010
0000
,
0100
0000
0001
0000
,
0010
0000
0001
0000
,
2000
0000
0000
3200
,
0000
0000
0310
0000
,
0001
0000
0010
0000
,
0001
0000
0100
0000
,
1000
0000
0100
0000
,
0010
0000
1000
0000
,
0001
1000
0010
0001
,
0020
0000
0000
0230
0000
0000
0310
0000
,
1000
0100
1000
0010
,
0100
0000
0000
0002
0000
0000
2003
0000
,
3001
1000
0010
0100
,
0001
0000
0000
0020
0000
0000
0130
0000
,
1000
0001
0100
0001
,
0010
0000
0000
0200
0000
0000
0320
0000
,
0031
0000
1000
0000
,
0001
0000
1000
0000
,
0010
0000
0100
0001
,
0000
0010
0001
0000
,
1000
0000
0001
0000
,
0010
0000
0100
0000
,
1000
0000
0010
0100
,
0010
0000
1000
0001
,
0100
0000
0001
1000
,
0001
0000
0010
0000
,
0100
0000
1000
0100
,
0010
0000
0001
0000
,
1000
0000
0010
0000
,
0100
0000
0001
1000
,
0001
0000
1000
0000
,
0010
0000
1000
0100
,
0010
0000
0000
0000
;

//---------------dance-single - ----------------
#NOTES:
     dance-single:
     :
     Medium:
     6:
     0.391005,0.516624,0.000000,0.297338,0.000000,359.000000,359.000000,0.000000,39.000000,0.000000,0.000000,0.391005,0.516624,0.000000,0.297338,0.000000,359.000000,359.000000,0.000000,39.000000,0.000000,0.000000:
0000
0000
0000
0000
,
0000
0000
0000
0000
,
0000
0000
0000
0000
,
0000
0000
0000
0000
,
1000
0000
0001
0000
0010
0001
0000
0100
,
0010
0000
1000
0000
0010
0100
0000
0100
,
0010
0000
0001
0000
0100
0001
0000
0010
,
0100
0000
1000
0000
0100
0010
0000
0000
,
0001
0000
0010
0000
0001
0010
0100
0000
,
1000
0000
0010
0100
0000
1000
0100
0001
,
0010
0000
0001
1000
0010
1000
0100
0000
,
1000
0000
0100
0000
1000
0010
0100
0000
,
0001
0000
1000
0000
0010
1000
0100
0000
,
0100
0000
0010
1000
0001
0100
0001
0000
,
0010
1000
0100
0000
1000
0010
1000
0000
,
0100
0000
0010
0000
0100
0010
0001
0000
,
0010
0000
0001
0000
1000
0010
0001
0000
,
0010
0000
1000
0001
0100
0001
0100
0000
,
0010
0000
0001
0000
1000
0000
0010
1000
,
0100
0000
0010
0000
0001
0010
0001
0100
,
0010
0000
0010
0000
1000
0100
1000
0000
,
0010
0000
0100
0010
0001
0000
1000
0010
,
0100
0000
1000
0000
0001
0000
0010
0001
,
0100
1000
0010
1000
,
0001
1000
0001
0000
,
0010
0100
0010
0000
,
1000
0010
1000
0000
,
0100
0001
0100
0000
,
0001
0010
0001
0000
,
1000
0010
1000
0000
,
0100
0000
0000
1000
0000
0000
0001
0000
,
0000
0010
0000
0000
0001
0000
0100
0000
,
0010
1000
0010
0000
,
1000
0100
0001
0000
,
0100
0000
1000
0001
,
0010
0001
0100
0000
,
1000
0000
0010
1000
,
0100
0000
0001
0010
,
0001
1000
0010
0000
,
1000
0001
1000
0001
,
0010
0100
1000
0000
,
0010
1000
0100
0100
,
0001
0010
0001
0000
,
0001
1000
0001
0010
,
0100
1000
0100
0000
,
1000
0010
1000
0000
,
0001
0100
0001
0000
,
0010
0100
0010
0000
,
1000
0001
2000
0000
,
3001
1000
0010
0000
,
0100
0001
0100
0010
,
1000
0001
0010
0000
,
0100
0100
0020
0000
,
1030
0100
2000
0000
,
3001
0010
0200
0000
,
1300
0010
1000
0002
,
0103
0010
0002
0000
,
0013
0100
2000
0000
,
3010
0100
0001
0100
,
1000
0100
0001
0000
,
0100
0010
0200
0000
,
0320
0001
0032
0000
,
1003
0100
2000
0000
,
3100
1000
0001
0010
,
0001
0010
0200
0000
,
2300
0000
3002
0000
,
0013
0100
1000
0001
,
1000
0100
0020
0000
,
1030
0001
2000
0000
,
3020
0000
0230
0000
,
0310
0100
0002
0000
,
1003
0100
0010
0001
,
1000
0100
0020
0000
,
0032
0000
2003
0000
,
3100
0010
0001
1000
,
0001
0010
0200
0000
,
1300
0001
2000
0000
,
3200
0000
0320
0000
,
0130
0010
0002
0000
,
1003
0010
0100
0001
,
2000
3001
0010
0100
,
0020
0000
0000
0032
0000
0000
2003
0000
,
3100
0010
0100
0010
,
0002
0000
0000
0203
0000
0000
0320
0000
,
1030
0100
1000
0001
,
0020
0000
0000
0032
0000
0000
2003
0000
,
3100
1000
0010
1000
,
0200
0000
0000
2300
0000
0000
3001
0010
,
0001
1000
0001
0010
,
0001
0100
0001
0000
,
0010
0001
0100
0010
,
1000
0010
1000
0000
,
1000
0001
1000
0010
,
1000
0100
0010
0000
,
0001
0000
0000
0010
0000
0000
0100
0000
,
0000
1000
0000
0000
0010
0000
1000
0000
,
0001
0000
0000
1000
0000
0000
0001
0000
,
0000
1000
0000
0000
0010
0000
0000
0000
,
1000
0000
0000
0100
0000
0000
0001
0000
,
0000
0100
0000
0000
0010
0000
0000
0000
,
0100
0000
0000
1000
0000
0000
0001
0000
,
0000
0010
0000
0000
0001
0000
0000
0000
,
1000
0000
0000
0100
0000
0000
0010
0000
,
0000
0010
0000
0000
1000
0000
0001
0000
,
1000
0001
0000
0000
;

//---------------dance-single - ----------------
#NOTES:
     dance-single:
     :
     Hard:
     9:
     0.505365,0.640420,0.038120,0.693788,0.019060,464.000000,459.000000,5.000000,91.000000,0.000000,0.000000,0.505365,0.640420,0.038120,0.693788,0.019060,464.000000,459.000000,5.000000,91.000000,0.000000,0.000000:
// measure 0
0000
0000
0000
0000
,  // measure 1
0000
0000
0000
0000
,  // measure 2
0000
0000
0000
0000
,  // measure 3
0000
0000
0000
0000
,  // measure 4
1000
0000
0000
0100
0000
0000
1000
0000
0000
0010
0000
0100
0000
0000
0000
0001
0000
0000
0100
0000
0000
0020
0000
0000
,  // measure 5
0130
0000
0000
1000
0000
0000
0100
0000
0000
0010
0000
1000
0000
0000
0000
0001
0000
0000
0000
0000
0000
2000
0000
0000
,  // measure 6
3001
0000
0000
0010
0000
0000
0001
0000
0000
0100
0000
0010
0000
0000
0000
1000
0000
0000
0000
0000
0000
0200
0000
0000
,  // measure 7
0310
0000
0000
0001
0000
0000
0010
0000
0000
0100
0000
1000
0000
0000
0000
0001
0000
0000
0100
0000
0000
0000
0000
0000
,  // measure 8
0010
1000
0100
1000
0010
0100
0002
0000
,  // measure 9
2003
3001
0010
0200
0000
1300
0010
0000
,  // measure 10
0100
0001
0020
0000
0130
1000
0002
0000
,  // measure 11
0103
0010
1000
0100
0001
0100
0020
0000
,  // measure 12
0031
0100
0020
0000
2030
0100
3010
0000
,  // measure 13
0001
0010
0010
0100
0100
2000
3001
0000
,  // measure 14
1000
0001
0020
0000
0130
1000
0200
0000
,  // measure 15
1300
0000
1001
0000
0001
0020
0130
1000
,  // measure 16
0001
0000
0010
0001
0100
0010
2000
0000
,  // measure 17
3002
1003
0100
0020
0000
0031
0100
0000
,  // measure 18
0010
1000
0200
0000
0310
0001
2000
0000
,  // measure 19
0010
0000
0001
0000
3100
0020
0000
0000
,  // measure 20
0031
0010
0002
0000
1003
0010
0100
0000
,  // measure 21
0020
0000
0130
0200
0000
1300
0001
0010
,  // measure 22
0001
1000
0200
0000
0310
0001
0020
0000
,  // measure 23
0031
0000
0000
0000
1001
0000
0000
1000
0000
0000
0200
0000
0000
0000
0000
0000
,  // measure 24
1300
0000
0001
0000
1000
0000
0000
0001
,  // measure 25
0010
0000
0001
0000
0100
0000
0000
0010
,  // measure 26
1000
0000
0010
0000
1000
0000
0000
0100
,  // measure 27
0010
0000
0001
0000
1000
0000
0000
0001
,  // measure 28
0010
0000
0001
0000
0100
0000
0000
0001
,  // measure 29
0100
0000
0010
0000
1000
0000
0000
1000
,  // measure 30
0001
0000
1000
0001
0000
1000
0010
0000
,  // measure 31
1000
0100
0000
1000
0010
0000
0100
0000
,  // measure 32
0001
0000
0010
0000
0100
0000
0000
0100
,  // measure 33
0010
0000
1000
0000
0100
0000
0000
1000
,  // measure 34
0001
0000
1000
0000
0010
0000
0000
1000
,  // measure 35
0010
0000
0100
0000
0010
0000
0000
0010
,  // measure 36
0001
0000
1000
0000
0100
0000
0000
0001
,  // measure 37
0100
0000
0010
0000
0001
0000
0000
0100
,  // measure 38
0001
0000
1000
0000
0001
0000
0000
1000
,  // measure 39
0010
0000
1000
0000
0100
0000
0010
0001
,  // measure 40
1000
0000
0001
0000
1000
0000
0000
0010
,  // measure 41
0100
0000
0010
0000
1000
0000
0001
1000
,  // measure 42
0001
0000
0010
0000
0001
0000
0000
0100
,  // measure 43
0001
0000
0100
0000
0010
0000
1000
0010
,  // measure 44
1000
0000
0010
0000
0100
0000
0000
0001
,  // measure 45
1000
0000
0100
0000
0001
0000
0100
1000
,  // measure 46
0100
0000
1000
0000
0010
0000
0000
0010
,  // measure 47
1000
0000
0010
0000
0100
0000
0000
0001
,  // measure 48
1000
0001
2000
0000
,  // measure 49
3020
0130
0002
0000
,  // measure 50
0023
0100
0130
2000
,  // measure 51
0001
0000
3001
0000
0110
0000
0000
1000
,  // measure 52
0001
1000
0002
0000
,  // measure 53
0023
0000
0031
0000
0100
0000
0000
0010
,  // measure 54
0100
0001
0100
1000
,  // measure 55
0100
0010
0200
0000
,  // measure 56
0320
0000
2030
0000
,  // measure 57
3200
0000
0310
0000
0001
0000
0000
1000
,  // measure 58
0002
0000
1003
0020
,  // measure 59
0000
0130
1001
0000
,  // measure 60
0010
0000
1000
0000
0100
0000
0000
1000
,  // measure 61
0001
0010
0002
0000
,  // measure 62
0203
0000
0000
0000
0301
0000
0000
0001
,  // measure 63
0020
0000
0000
0000
0031
0000
1000
0010
,  // measure 64
1000
0010
0200
0001
,  // measure 65
0302
0000
0000
0000
0013
0000
0000
0010
,  // measure 66
1000
0000
0100
0000
1000
0000
0100
1000
,  // measure 67
0001
0000
1000
0000
0010
0000
0000
0010
,  // measure 68
0100
0100
0002
1000
,  // measure 69
0013
0001
1000
0000
,  // measure 70
0100
0000
0010
0000
0100
0000
0000
0010
,  // measure 71
0001
0010
0002
0203
,  // measure 72
0320
0000
1030
0000
0010
0000
0000
1000
,  // measure 73
0001
0000
1000
0000
0001
0000
0000
0010
,  // measure 74
0001
0100
0010
2000
,  // measure 75
0001
3020
1030
0000
,  // measure 76
0100
0000
1000
0000
0010
0000
0000
0010
,  // measure 77
0001
0000
1000
0000
0010
0000
0000
1000
,  // measure 78
0100
0001
0100
0010
,  // measure 79
0001
1000
0200
0000
,  // measure 80
2300
3002
0023
0032
,  // measure 81
0203
0000
0320
2030
3200
0000
0320
0000
,  // measure 82
0032
2003
3200
2300
,  // measure 83
3020
0000
0230
0302
0023
0000
0230
2300
,  // measure 84
3200
0010
0320
0000
0032
0000
2003
0000
,  // measure 85
3200
0000
0320
0230
2300
0000
3020
0000
,  // measure 86
0230
0302
0023
0230
,  // measure 87
0320
0000
0230
0320
2030
0000
3020
1000
,  // measure 88
1030
0000
0001
0000
1000
0000
0000
0010
,  // measure 89
1000
0000
0100
0000
1000
0000
0000
0010
,  // measure 90
0001
0000
0010
0000
1000
0000
0100
0010
,  // measure 91
0001
0000
0001
0000
0010
0000
0000
0100
,  // measure 92
1000
0000
0010
0000
0100
0000
0000
0001
,  // measure 93
0010
0000
1000
0000
0010
0000
0000
0001
,  // measure 94
1000
0000
0001
1000
0000
0010
1000
0000
,  // measure 95
0100
0010
0000
0001
1000
0000
0010
0100
,  // measure 96
0001
0000
1000
0100
0000
1000
0010
0000
,  // measure 97
1000
0001
0000
0001
0100
0000
0001
1000
,  // measure 98
0010
0000
1000
0001
0000
0100
0001
0000
,  // measure 99
0100
0010
0000
1000
0010
0000
0100
0001
,  // measure 100
0100
0000
0010
1000
0000
0010
1000
0000
,  // measure 101
0100
1000
0000
0001
0010
0000
0010
1000
,  // measure 102
0010
0000
0100
0001
0000
1000
0010
0000
,  // measure 103
1000
0100
0000
0100
0001
0000
0012
0000
,  // measure 104
2000
0000
0000
0000
,  // measure 105
3003
0000
0000
0000
;
