#VERSION:0.83;
#TITLE:Audio;
#SUBTITLE:;
#ARTIST:easyFun;
#TITLETRANSLIT:;
#SUBTITLETRANSLIT:;
#ARTISTTRANSLIT:;
#GENRE:;
#ORIGIN:;
#CREDIT:;
#BANNER:Audio-bn.png;
#BACKGROUND:Audio-bg.png;
#PREVIEWVID:;
#JACKET:Audio-jacket.png;
#CDIMAGE:;
#DISCIMAGE:;
#LYRICSPATH:;
#CDTITLE:;
#MUSIC:Audio.ogg;
#OFFSET:0.000000;
#SAMPLESTART:38.395000;
#SAMPLELENGTH:15.351400;
#SELECTABLE:YES;
#DISPLAYBPM:125.000000;
#BPMS:0.000=125.017,
188.000=250.034,
192.000=125.017;
#STOPS:188.000=0.060,
188.250=0.060,
188.500=0.060,
188.750=0.060,
189.000=0.060,
189.250=0.060,
189.500=0.060,
189.750=0.060,
190.000=0.060,
190.250=0.060,
190.500=0.060,
190.750=0.060,
191.000=0.060,
191.250=0.060,
191.500=0.060,
191.750=0.060;
#DELAYS:;
#WARPS:;
#TIMESIGNATURES:0.000=4=4;
#TICKCOUNTS:0.000=4;
#COMBOS:0.000=1;
#SPEEDS:0.000=1.000=0.000=0;
#SCROLLS:0.000=1.000,
80.000=0.250,
80.250=0.500,
80.500=1.000,
80.750=2.000,
81.000=1.000,
112.000=0.500,
127.000=0.250,
128.000=1.000,
159.000=0.500,
160.000=1.000,
188.000=2.000,
192.000=1.000;
#FAKES:;
#LABELS:0.000=Song Start;
#BGCHANGES:;
#KEYSOUNDS:;
#ATTACKS:
;

//---------------dance-single - ----------------
#NOTEDATA:;
#CHARTNAME:;
#STEPSTYPE:dance-single;
#DESCRIPTION:;
#CHARTSTYLE:;
#DIFFICULTY:Beginner;
#METER:3;
#RADARVALUES:0.220567,0.313969,0.051753,0.008626,0.000000,179.000000,173.000000,6.000000,1.000000,0.000000,0.000000,0.000000,0.000000,0.000000,0.220567,0.313969,0.051753,0.008626,0.000000,179.000000,173.000000,6.000000,1.000000,0.000000,0.000000,0.000000,0.000000,0.000000;
#CREDIT:;
#DISPLAYBPM:125.000000;
#NOTES:
0000
0000
0000
0000
,
0000
0000
0000
0000
,
0000
0000
0000
0000
,
0000
0000
0000
0000
,
1000
0001
0010
0000
,
0100
0001
0100
0000
,
1000
0010
0001
0000
,
1000
0100
1000
0000
,
0010
0001
0100
0000
,
1000
0010
1000
0000
,
0100
0001
0100
0000
,
0010
0100
0010
0000
,
1000
1001
0001
0000
,
0010
0100
1000
0000
,
1000
0010
0100
0000
,
0001
0001
1000
0000
,
0100
0010
0100
0000
,
1000
0010
1000
0000
,
0001
0100
0001
0000
,
0010
0100
0010
1000
,
1000
0001
1000
0100
,
0010
0001
1000
1000
,
0001
0010
0100
0010
,
0001
1000
0100
1000
,
1000
0001
0010
0001
,
1000
0100
1000
0100
,
0010
0001
0100
0001
,
1000
0010
1000
0100
,
0000
0000
0000
0000
,
0001
0000
0000
0000
,
1000
0000
0000
0000
,
0010
0000
0000
0000
,
1000
0100
1000
0000
,
0001
0010
0001
0100
,
1000
0010
1000
0000
,
0010
0100
0010
0001
,
0100
0010
0001
0000
,
0100
1000
0010
0000
,
0001
0010
0001
0100
,
1000
0010
0100
0000
,
1000
1010
0100
0001
,
0010
0001
0100
1000
,
1000
0010
0001
0100
,
0010
0100
0010
0001
,
0010
0001
1000
0010
,
1000
0100
1000
0010
,
0100
0001
0010
0001
,
2000
0000
0000
0000
,
3001
0010
0001
0100
,
1000
0100
1000
0010
,
0001
0100
0010
0100
,
1000
0001
1000
0001
,
1000
1000
0100
0100
,
0010
0010
0001
0001
,
1000
1001
0001
1001
,
0010
0110
0100
0110
,
1000
0000
0000
0000
;

//---------------dance-single - ----------------
#NOTEDATA:;
#CHARTNAME:;
#STEPSTYPE:dance-single;
#DESCRIPTION:;
#CHARTSTYLE:;
#DIFFICULTY:Easy;
#METER:4;
#RADARVALUES:0.290803,0.338121,0.250140,0.267391,0.000000,236.000000,207.000000,29.000000,31.000000,0.000000,0.000000,0.000000,0.000000,0.000000,0.290803,0.338121,0.250140,0.267391,0.000000,236.000000,207.000000,29.000000,31.000000,0.000000,0.000000,0.000000,0.000000,0.000000;
#CREDIT:;
#DISPLAYBPM:125.000000;
#NOTES:
0000
0000
0000
0000
,
0000
0000
0000
0000
,
0000
0000
0000
0000
,
0000
0000
0000
0000
,
1000
1001
0001
0010
,
0001
0100
2000
3010
,
0001
0101
0100
0010
,
0001
0010
0200
0310
,
1000
0001
0010
0001
,
0100
1000
0200
1300
,
1000
0010
0100
0001
,
0010
0001
0020
0100
,
1030
1001
0001
0010
,
0001
0100
2000
3020
,
0130
0001
0010
0001
,
0100
0010
0002
0203
,
0310
1010
1000
0100
,
1000
0010
0200
0320
,
0031
1000
0100
1000
,
0002
0013
2000
3200
,
0301
1001
1000
0020
,
1030
0100
0010
0002
,
1003
0100
1000
0200
,
0301
1000
0010
2000
,
3010
0100
0001
0002
,
1003
0010
0100
2000
,
3010
0100
0010
0200
,
0310
0100
0010
0020
,
1030
1000
0001
0001
,
0010
0100
1000
0100
,
0010
0010
0100
0100
,
1000
0001
0100
0000
,
0010
1001
1000
0100
,
1000
0010
0002
1003
,
1000
0010
0100
0010
,
1000
0100
2000
3100
,
0010
0100
0010
1000
,
0001
0001
1000
2000
,
3001
0010
0100
0010
,
1000
0100
1000
0000
,
1001
1010
1000
0100
,
1000
0010
0002
2003
,
3010
0110
0100
0001
,
0010
0001
2000
3002
,
0013
0110
0001
0011
,
1000
0100
2000
3020
,
0031
0101
1000
1010
,
2000
0001
0001
3001
,
0001
0011
0001
1100
,
0010
1000
0010
0101
,
1000
1010
1000
0011
,
0001
0101
1000
0110
,
1000
1010
0100
0110
,
0001
1001
1000
1010
,
0001
0101
0100
0110
,
1000
1001
1000
0110
,
1001
0000
0000
0000
;

//---------------dance-single - ----------------
#NOTEDATA:;
#CHARTNAME:;
#STEPSTYPE:dance-single;
#DESCRIPTION:;
#CHARTSTYLE:;
#DIFFICULTY:Medium;
#METER:6;
#RADARVALUES:0.398006,0.434726,0.370898,0.025877,0.000000,323.000000,280.000000,43.000000,3.000000,0.000000,0.000000,0.000000,0.000000,0.000000,0.398006,0.434726,0.370898,0.025877,0.000000,323.000000,280.000000,43.000000,3.000000,0.000000,0.000000,0.000000,0.000000,0.000000;
#CREDIT:;
#DISPLAYBPM:125.000000:0.000000;
#NOTES:
0000
0000
0000
0000
,
0000
0000
0000
0000
,
0000
0000
0000
0000
,
0000
0000
0000
0000
,
1000
1010
0001
0010
,
0001
0000
0100
0000
1000
0100
1000
0010
,
0001
0101
0100
0010
,
0100
0000
1000
0000
0001
1000
0010
0100
,
0100
0011
0001
0101
,
1000
0000
0010
0000
1000
0100
1000
0100
,
0010
0101
1000
0010
,
1000
0100
0001
0001
,
1000
1010
0001
0101
,
1000
0000
1010
0000
1000
0100
0010
0001
,
1000
0011
0001
0101
,
1000
0000
1010
0000
1000
0100
1000
0100
,
0010
0110
0100
0011
,
0001
0000
1001
0000
1000
0100
1000
0100
,
0010
0101
0100
0110
,
1000
0100
1000
0001
,
1000
0000
0001
0000
0010
0000
0100
0001
,
1000
0000
0100
0000
0010
0000
1000
0001
,
0010
0000
0100
0000
0010
0000
0100
0100
,
0010
0000
0001
0000
1000
0000
0100
1000
,
0010
0000
1001
0000
0001
0000
0011
0100
,
1000
0000
1010
0000
1000
0000
1100
0010
,
0010
0000
0101
0000
1000
0000
1010
0001
,
0100
1000
0110
0100
,
0002
0000
1000
0000
1000
0000
1000
0010
,
1000
0000
1000
0000
1000
0000
1000
0103
,
0200
0010
1000
0010
,
0001
0000
1000
0000
0001
0300
0000
0000
,
1000
1010
1000
1100
,
0001
0000
0011
0000
0001
0100
1000
0010
,
1000
1001
0001
1001
,
0001
0000
0011
0000
0010
0100
0010
0100
,
1000
0110
1000
1100
,
1000
0000
1010
0000
0001
0100
0001
1000
,
0110
0100
1000
0001
,
1000
0000
0010
0000
2000
0000
3000
0001
,
1000
0000
1001
0000
0010
0000
0001
0100
,
0100
1000
0010
0000
1000
0100
1000
0010
,
0001
0000
1001
0000
1000
0000
0010
1000
,
0100
0000
0101
0000
0100
0010
0100
0010
,
0001
0000
1001
0000
1000
0000
1010
0010
,
0100
0000
0101
0000
0001
0010
0101
0000
,
1000
1010
1000
1100
,
1000
0100
1000
0001
1000
0001
0010
1000
,
1001
0001
1000
0010
1000
0100
0010
0001
,
0100
0001
0100
0010
0001
0100
1000
0010
,
1000
0100
0010
0001
1000
0100
1000
0010
,
0100
0010
0001
1000
0100
1000
0010
0001
,
1000
0100
1000
0001
0010
0001
0100
0010
,
0100
0010
0001
1000
0010
1000
0100
0001
,
1000
0001
1000
0010
0100
0001
0010
0001
,
1000
1000
0001
0001
0010
0010
0100
0100
,
1000
0000
0000
0000
;

//---------------dance-single - ----------------
#NOTEDATA:;
#CHARTNAME:;
#STEPSTYPE:dance-single;
#DESCRIPTION:;
#CHARTSTYLE:;
#DIFFICULTY:Hard;
#METER:8;
#RADARVALUES:0.495351,0.719153,0.172510,0.250140,0.444214,402.000000,382.000000,20.000000,29.000000,0.000000,0.000000,4.000000,0.000000,0.000000,0.495351,0.719153,0.172510,0.250140,0.444214,402.000000,382.000000,20.000000,29.000000,0.000000,0.000000,4.000000,0.000000,0.000000;
#CREDIT:;
#DISPLAYBPM:125.000000;
#NOTES:
// measure 0
0000
0000
0000
0000
,  // measure 1
0000
0000
0000
0000
,  // measure 2
0000
0000
0000
0000
,  // measure 3
0000
0000
0000
0000
,  // measure 4
1000
0000
0001
0000
0000
0001
0000
0000
1000
0000
0000
0010
0000
0000
0000
0000
,  // measure 5
0000
0000
1000
0000
0010
1000
0000
0000
0100
0000
0000
0100
0000
0000
0000
0000
,  // measure 6
0000
0000
0001
0000
0000
1000
0000
0000
0010
0000
0000
0100
0000
0000
0000
0000
,  // measure 7
0000
0000
1000
0000
0000
0010
0000
0000
0001
0000
0000
0100
0000
0000
0000
0000
,  // measure 8
0000
0000
1000
0000
0010
0000
0000
0000
0001
0000
0000
0100
1000
0000
0000
0000
,  // measure 9
0010
0000
0000
0000
1000
0000
0000
0000
0001
0000
0000
0100
1000
0000
0010
0000
,  // measure 10
1000
0000
0000
0000
0001
0000
0000
0000
1000
0000
0000
0010
0100
0000
0000
0000
,  // measure 11
0001
0000
0000
0000
1000
0000
0000
0000
0010
0000
0000
0100
0000
0000
1000
0000
,  // measure 12
1000
0000
0001
0000
1000
0001
0000
0000
0010
0000
0000
0100
1001
0000
0000
0000
,  // measure 13
1000
0000
0010
0000
1000
0001
0000
0000
0010
0000
0000
0002
0100
0000
0013
0000
,  // measure 14
0001
0000
0010
0000
1000
0100
0000
0000
1000
0000
0000
0010
0101
0000
0000
0000
,  // measure 15
0001
0000
0010
0000
0001
0100
0000
0000
0100
0000
1000
0100
0000
1000
0010
0000
,  // measure 16
0001
0000
1000
0000
0001
1000
0000
0000
0010
0000
0000
0000
0110
0000
0000
0000
,  // measure 17
1000
0000
0010
0000
1000
0010
0000
0000
0001
0000
0000
0000
0101
0000
0000
0000
,  // measure 18
1000
0000
0010
0000
1000
0100
0000
0000
0001
0000
0000
0000
0011
0000
0000
0000
,  // measure 19
1000
0000
0000
0000
0100
0000
0000
0000
0001
0000
0010
0001
0000
1000
0100
0000
,  // measure 20
0110
0000
0000
0000
1001
0000
0000
0000
0001
0000
0000
0000
1000
0004
4000
0000
,  // measure 21
3003
0000
0000
0000
1000
0000
0000
0000
0010
0000
0000
0000
1000
0100
1000
0100
,  // measure 22
0001
0000
0000
0000
0010
0000
0000
0000
0001
0000
0000
0000
0100
0004
0400
0003
,  // measure 23
0301
0000
0000
0000
1000
0000
0000
0000
0010
0000
0000
0000
0001
0100
0001
0100
,  // measure 24
0001
0000
0000
0000
0011
0000
0000
0000
1000
0000
0000
0000
0010
0000
0010
0001
,  // measure 25
0000
0000
1000
0000
1010
0001
0000
0000
0100
0000
0000
0000
1001
0000
0000
0000
,  // measure 26
1000
0000
0020
0000
1030
0100
0000
0000
0001
0000
0000
0001
0010
0000
0000
1000
,  // measure 27
0010
0000
0100
0000
0001
0010
0000
0000
0010
0000
1000
0000
0100
0002
0000
0000
,  // measure 28
1003
0000
0000
0000
1000
0000
0000
0000
0010
0000
0000
0000
1000
0001
1000
0001
,  // measure 29
1000
0000
0000
0000
0010
0000
0000
0000
0100
0000
0000
0000
1000
0100
1000
0100
,  // measure 30
1000
0000
0000
0000
0001
0000
0000
0000
0010
0000
0000
0000
0001
0100
0001
0100
,  // measure 31
1100
1000
1000
0000
,  // measure 32
1000
1001
0010
0011
,  // measure 33
0100
0000
0000
0000
1100
0000
0000
0000
1000
0000
0001
0020
1000
0030
0100
0000
,  // measure 34
1000
1001
0001
0011
,  // measure 35
0001
0000
0000
0000
0101
0000
0000
0000
2000
0000
3100
0020
0000
1030
0001
0000
,  // measure 36
0010
2000
0001
0000
3020
0000
0130
0000
,  // measure 37
1000
0000
0200
0000
0010
0000
0000
0000
0302
0000
0100
0000
0003
1000
0010
0000
,  // measure 38
1000
0001
0010
0100
,  // measure 39
1000
0000
0000
0000
0100
0000
0000
0000
1000
0000
0000
0000
0000
0001
0010
0100
,  // measure 40
1000
0000
0001
0000
1000
0010
0000
0000
0001
0000
0000
0200
0310
0002
0000
0000
,  // measure 41
1003
0000
0100
0000
1000
0000
0000
0000
1010
0000
1000
0010
0000
1000
0001
0000
,  // measure 42
1000
0000
0100
0000
1001
0002
0000
0000
1003
0000
0000
0020
1030
0100
2000
0000
,  // measure 43
3100
0000
0001
0000
0020
0000
0000
0000
1030
0000
0100
2000
0000
3001
0020
0000
,  // measure 44
0031
0000
1000
0000
1001
0000
0000
0000
0010
0000
0000
1000
0100
0001
0010
0001
,  // measure 45
0010
0000
0010
0000
1000
0100
0000
0000
0010
0000
0001
1000
0000
0001
1000
0000
,  // measure 46
0010
0100
1000
0010
,  // measure 47
1000
0100
1000
0100
0001
0010
0001
0010
1000
0010
1000
0010
0001
0100
0001
0100
,  // measure 48
0010
0000
0100
0001
0100
0000
1000
0010
1000
0000
0100
0000
0001
0010
1000
0100
,  // measure 49
0002
0000
0013
1000
0010
0000
1000
0100
0001
0000
0001
0010
0002
0000
0203
0000
,  // measure 50
1300
0000
0001
0010
0001
0010
0001
0000
1000
0100
1000
0100
0010
0000
0001
0000
,  // measure 51
0100
0000
0010
0000
0100
0001
1000
0010
0002
0000
0103
0000
0020
0000
1030
0000
,  // measure 52
1000
0001
1000
0000
0001
0100
0001
0000
0010
1000
0010
0000
0100
0001
0010
1000
,  // measure 53
0001
0010
1000
0010
0001
0100
1000
0100
0002
0000
2003
0000
3200
0000
0320
0000
,  // measure 54
1030
0000
1000
0100
0010
0000
0010
0001
0100
0000
0001
0000
0001
1000
0001
1000
,  // measure 55
0010
0000
0100
0000
0010
0000
0100
0000
1000
0001
1000
0001
0020
0000
0230
0000
,  // measure 56
1300
0000
0001
0000
,  // measure 57
0010
0000
0100
0000
;
