#VERSION:0.83;
#TITLE:Ambulance;
#SUBTITLE:;
#ARTIST:Cece Natalie;
#TITLETRANSLIT:;
#SUBTITLETRANSLIT:;
#ARTISTTRANSLIT:;
#GENRE:;
#ORIGIN:;
#TAGS:;
#CREDIT:;
#BANNER:Ambulance.png;
#BACKGROUND:Ambulance-bg.png;
#PREVIEWVID:;
#JACKET:;
#CDIMAGE:;
#DISCIMAGE:;
#LYRICSPATH:;
#CDTITLE:;
#MUSIC:Ambulance.ogg;
#OFFSET:0.000000;
#SAMPLESTART:25.042336;
#SAMPLELENGTH:16.689556;
#SELECTABLE:YES;
#BPMS:0.000000=115.042000
;
#STOPS:;
#DELAYS:;
#WARPS:;
#TIMESIGNATURES:0.000000=4=4
;
#TICKCOUNTS:0.000000=4
;
#COMBOS:0.000000=1
;
#SPEEDS:0.000000=1.000000=0.000000=0
;
#SCROLLS:0.000000=1.000000
;
#FAKES:;
#LABELS:0.000000=Song Start
;
#BGCHANGES:;
#KEYSOUNDS:;
#ATTACKS:
;

//---------------dance-single - ----------------
#NOTEDATA:;
#CHARTNAME:;
#CHARTHASH:652066671;
#STEPSTYPE:dance-single;
#BANNER:;
#DESCRIPTION:;
#CHARTSTYLE:;
#DIFFICULTY:Beginner;
#METER:2;
#METERF:2.000000;
#LASTSECONDHINT:104.309731;
#RADARVALUES:0.000000,0.000000,0.000000,0.000000,0.000000,0.000000,0.000000,0.000000,0.000000,0.000000,0.000000,0.000000,0.000000,0.000000,0.000000,0.000000,0.000000,0.000000,0.000000,0.000000,0.000000,0.000000,0.000000,0.000000,0.000000,0.000000,0.000000,0.000000;
#CREDIT:;
#NOTES:
0000
0000
0000
0000
,
0000
0000
0000
0000
,
0000
0000
0000
0000
,
0000
0000
0000
0000
,
1000
0000
0001
0010
,
0001
0000
0200
1300
,
1000
0000
0010
1000
,
0010
0100
0010
0000
,
0001
0000
1000
1000
,
0100
1000
0200
0301
,
0000
0010
0001
0000
,
0010
0100
0010
0100
,
1000
0000
1000
1001
,
0001
0000
0001
1001
,
0010
0000
0010
0110
,
0100
0000
0100
0110
,
1000
0100
0010
0001
,
0001
0010
0100
1000
,
1000
0001
0100
0010
,
1000
0001
0010
0100
,
2000
3010
0001
0010
,
0000
0100
0001
0010
,
0000
0001
1000
0100
,
0000
1000
0010
1000
,
0001
1000
0200
1300
,
1000
0010
0200
0301
,
0010
0001
0010
1000
,
0100
1000
2000
3001
,
1000
0000
0010
0000
,
0001
0000
0100
0000
,
0001
0000
0010
0000
,
0100
0000
1000
0000
,
1000
0000
0001
0000
,
0100
0000
0110
0000
,
1000
0000
0001
0000
,
1000
0000
1001
0000
,
0001
0010
0200
0000
,
1300
0100
0020
0000
,
0130
0100
0002
0000
,
1003
0100
2000
0000
,
3010
0100
0010
0001
,
1000
0100
1000
0010
,
0001
1000
1000
0001
,
0100
0010
0100
0010
,
0010
0001
1000
0100
,
1000
0001
0010
0100
,
0001
1000
1000
0010
,
0100
0100
0010
0001
,
2000
0000
0000
0000
,
3002
0000
0000
0000
,
0003
0000
0000
0000
;

//---------------dance-single - ----------------
#NOTEDATA:;
#CHARTNAME:;
#CHARTHASH:3217443802;
#STEPSTYPE:dance-single;
#BANNER:;
#DESCRIPTION:;
#CHARTSTYLE:;
#DIFFICULTY:Easy;
#METER:3;
#METERF:3.000000;
#LASTSECONDHINT:103.266632;
#RADARVALUES:0.000000,0.000000,0.000000,0.000000,0.000000,0.000000,0.000000,0.000000,0.000000,0.000000,0.000000,0.000000,0.000000,0.000000,0.000000,0.000000,0.000000,0.000000,0.000000,0.000000,0.000000,0.000000,0.000000,0.000000,0.000000,0.000000,0.000000,0.000000;
#CREDIT:;
#NOTES:
0000
0000
0000
0000
,
0000
0000
0000
0000
,
0000
0000
0000
0000
,
0000
0000
0000
0000
,
2000
3002
0013
0100
,
2000
3020
0130
0100
,
0002
0023
0031
0001
,
2000
3100
1000
1000
,
0010
1000
0001
1001
,
0010
0100
2000
3010
,
1000
0001
0200
0301
,
0002
1003
1000
0010
,
2000
0000
0001
3010
,
0200
0301
2000
3100
,
1000
0001
2000
3001
,
0010
0100
0020
0031
,
1000
0000
0001
0000
1000
0001
1000
0000
,
0010
0000
0100
0000
0010
0100
0010
0000
,
0002
0103
1000
0010
,
2000
3010
0100
0001
,
0001
1000
2000
3001
,
0010
0100
0020
0130
,
0100
0000
1000
0000
0001
0000
0010
0002
,
0000
1003
0100
1000
,
0001
0000
0010
0000
0100
0010
0100
0000
,
0001
0000
1000
0000
0001
1000
0001
0000
,
0010
0000
1000
0000
0100
1000
0100
0000
,
0010
0001
0100
1001
,
1000
0000
0000
0001
0000
0000
0000
0000
,
0010
0000
0000
0100
0000
0000
0000
0000
,
1000
0000
0000
0100
0000
0000
0000
0000
,
0010
0000
0000
0001
0000
0000
0000
0000
,
1000
0000
0001
0010
0000
0000
0100
0000
,
1000
0000
0010
1000
0000
0000
0100
0000
,
0001
0000
1000
0010
0000
0000
0100
0000
,
0001
0000
1000
0100
0000
0000
1000
0000
,
0010
0000
1000
0100
0000
0001
0010
0000
,
0100
0000
1000
0010
0000
0100
0001
0000
,
1000
0000
0100
1000
0000
0010
1000
0000
,
0001
0000
0100
0001
0000
0010
0001
0000
,
1000
0000
0100
0000
1000
0001
1000
0000
,
0010
0100
0200
0301
,
0001
0000
0010
0000
0001
0010
0001
0000
,
1000
0002
1003
2000
,
3100
0010
0100
1000
,
0001
0010
0001
0200
,
0301
0010
0100
1000
,
0010
1000
0001
2000
,
3100
0000
0010
0000
,
0100
0000
0001
0000
;

//---------------dance-single - ----------------
#NOTEDATA:;
#CHARTNAME:;
#CHARTHASH:788698823;
#STEPSTYPE:dance-single;
#BANNER:;
#DESCRIPTION:;
#CHARTSTYLE:;
#DIFFICULTY:Medium;
#METER:5;
#METERF:5.000000;
#LASTSECONDHINT:99.615791;
#RADARVALUES:0.000000,0.000000,0.000000,0.000000,0.000000,0.000000,0.000000,0.000000,0.000000,0.000000,0.000000,0.000000,0.000000,0.000000,0.000000,0.000000,0.000000,0.000000,0.000000,0.000000,0.000000,0.000000,0.000000,0.000000,0.000000,0.000000,0.000000,0.000000;
#CREDIT:;
#NOTES:
0000
0000
0000
0000
,
0000
0000
0000
0000
,
0000
0000
0000
0000
,
0000
0000
0000
0000
,
0001
1000
0000
0001
0000
0100
0010
0000
,
1000
0001
0010
0010
0000
0100
0100
0000
,
1000
0000
0001
0010
0000
0100
0000
1000
,
0010
0000
1000
0001
0000
0100
0010
0000
,
1000
0000
0100
0010
0001
0100
0001
0000
,
1000
0100
0010
0001
1000
1000
0200
0000
,
0310
0010
0100
0001
0000
1000
0002
0000
,
0013
0000
0100
0010
0100
1000
0010
0000
,
0001
1000
0001
1000
0100
0010
0001
0000
,
0001
0000
0100
0010
0000
1000
0100
0000
,
0002
0103
0100
1000
0000
0010
1000
0000
,
0100
0000
0010
0100
0000
0001
1000
0000
,
0100
0000
0010
0001
1000
0100
0010
0000
,
0110
0000
1001
0000
0100
0001
0100
0000
,
0010
0100
0010
0100
0000
0001
1000
0000
,
0010
1000
0100
0010
0000
1000
0001
0000
,
0010
0100
0000
1000
0100
1000
0010
0000
,
0010
0100
0010
0100
0000
0001
1000
0000
,
0001
0010
0100
0100
0000
0100
1000
0000
,
1000
0000
0100
0000
1000
0100
0010
0000
,
0010
0000
0001
0100
0100
1000
0010
0000
,
0010
0001
0100
0010
0100
0001
0100
0001
,
0010
1000
0010
0001
1000
0001
0010
0100
,
1000
1000
0100
0010
0001
1000
0020
0000
,
1000
0000
0100
1000
0000
0000
0100
0010
,
0001
0000
1000
0100
0000
1000
0010
0000
,
1000
0000
0001
0100
0000
0000
0010
0010
,
0100
0000
0010
1000
0000
0001
0100
0000
,
0200
0000
1300
0001
0000
0010
0100
1000
,
0100
1000
0100
1000
0001
1000
0000
0000
,
0100
0000
0020
0031
0000
0010
0001
0000
,
0100
0100
1000
0010
0000
0100
0010
0000
,
2000
0000
3002
0000
0013
0010
0100
0000
,
0001
0000
0100
0010
0000
1000
0001
0000
,
0100
1000
1000
0010
2000
0000
3001
0000
,
0100
0000
0010
0100
1000
0001
1000
0000
,
0010
0000
1000
0100
0010
0001
0001
0000
,
0010
0100
1000
1000
0010
0100
0001
0000
,
1000
0001
0000
1000
0000
0100
0100
0000
,
0001
0100
0000
0010
0000
0100
0001
0000
,
0010
0000
0001
1000
0100
0010
0100
0000
,
1000
0010
1000
0100
0100
0001
0100
0000
,
0001
0000
0010
0001
0100
0001
0010
0000
,
0002
0000
0013
0100
0010
0100
1000
0000
;

//---------------dance-single - ----------------
#NOTEDATA:;
#CHARTNAME:;
#CHARTHASH:3637971846;
#STEPSTYPE:dance-single;
#BANNER:;
#DESCRIPTION:;
#CHARTSTYLE:;
#DIFFICULTY:Hard;
#METER:7;
#METERF:7.000000;
#LASTSECONDHINT:99.615791;
#RADARVALUES:0.479232,0.481421,0.156672,0.156672,0.110592,364.000000,347.000000,17.000000,17.000000,0.000000,0.000000,0.000000,0.000000,0.000000,0.479232,0.481421,0.156672,0.156672,0.110592,364.000000,347.000000,17.000000,17.000000,0.000000,0.000000,0.000000,0.000000,0.000000;
#CREDIT:;
#NOTES:
// measure 0
0000
0000
0000
0000
,  // measure 1
0000
0000
0000
0000
,  // measure 2
0000
0000
0000
0000
,  // measure 3
0000
0000
0000
0000
,  // measure 4
1000
0001
1001
0010
1000
0001
0010
0100
,  // measure 5
0010
0000
0001
0000
1000
0000
0010
1000
0010
0000
0100
0000
0001
0000
0000
0000
,  // measure 6
0010
0000
0100
0000
1000
0000
0001
0000
0100
0000
0010
0000
1000
0000
0100
1000
,  // measure 7
0010
0100
0001
1000
0010
0100
0002
0000
,  // measure 8
0013
0000
0100
0000
0010
0001
1000
0000
0001
0000
0001
0100
0010
2000
0000
0000
,  // measure 9
3100
0010
0001
0010
0100
0001
1100
0000
,  // measure 10
0001
0000
1000
0000
0010
0000
0100
0000
0001
0000
0010
0000
0200
0000
0000
1300
,  // measure 11
0010
0100
0001
1000
0000
1000
0001
0000
,  // measure 12
0100
0000
0010
0000
1000
0000
0001
0000
0010
0000
0001
1000
0001
0000
0000
0000
,  // measure 13
0010
0000
0100
1000
0001
0000
1000
0000
0100
0000
1000
0000
0020
0000
0000
0000
,  // measure 14
0130
0001
0010
0100
1000
0010
1001
0000
,  // measure 15
0001
0000
0010
0100
0010
0000
0001
0000
1000
0000
0010
0000
0100
0000
0001
0000
,  // measure 16
1000
0000
0100
0010
0001
0000
1000
0000
0010
0000
1000
0000
0001
0000
0000
0000
,  // measure 17
0110
0000
1000
0000
0001
0000
0010
0000
0100
0000
1000
0000
1001
0000
0001
0100
,  // measure 18
0001
0000
1000
0000
1000
0000
0010
1000
0100
0000
0100
0000
0010
0000
0100
0000
,  // measure 19
0010
0000
0001
0000
1000
0000
0010
0100
0001
0000
0100
0000
0020
0000
0000
0000
,  // measure 20
1030
1000
0100
0100
0010
0010
0002
0000
,  // measure 21
0103
0000
0010
0000
0100
0000
0001
1000
0001
0000
1000
0100
1000
0000
0000
0000
,  // measure 22
0001
0010
0100
0100
0000
0001
0000
0010
,  // measure 23
0001
0010
0010
0100
0001
1000
0001
0000
,  // measure 24
0101
0000
0100
0010
0100
0010
1000
0000
,  // measure 25
0100
0100
0001
1000
0000
1000
0001
0010
,  // measure 26
0010
0100
0001
0000
0100
0000
1000
0000
0000
0000
0100
0000
0010
0000
0001
0000
,  // measure 27
1000
0000
1000
0001
1000
0000
0001
0000
0010
0000
0100
0000
0200
0000
0000
0000
,  // measure 28
0301
1000
0001
0100
0010
0100
0001
1000
,  // measure 29
0001
0010
0100
0010
0010
1000
0001
1000
,  // measure 30
0001
0100
0001
0100
1000
0100
0010
1000
,  // measure 31
0100
0001
0100
0010
0001
1000
0010
0010
,  // measure 32
0001
0000
0010
0000
0101
0000
0000
0000
1000
0000
0001
0010
0001
0000
1000
0000
,  // measure 33
0001
0100
0010
1000
0110
1001
0000
0000
,  // measure 34
0010
0000
0100
0000
1000
0001
0100
0000
0001
0000
1000
0000
0100
0000
0010
0000
,  // measure 35
0001
1000
0100
0010
1010
0101
0000
0000
,  // measure 36
1000
0000
0001
0000
0100
0001
1000
0000
0100
0000
0010
0000
0010
0000
0000
0000
,  // measure 37
1000
0000
0110
0000
0001
0010
0200
0000
,  // measure 38
0310
0000
0001
0000
0100
0000
1000
0000
0100
0000
0010
0000
1000
0000
0000
0001
,  // measure 39
0010
0001
1000
0100
0010
0100
1000
0000
,  // measure 40
0101
1100
1010
0011
,  // measure 41
0100
1000
0001
0100
0010
1000
0200
0000
,  // measure 42
0310
0001
0100
0001
1000
0100
0020
0000
,  // measure 43
0031
0010
0001
0100
0010
1000
0010
0100
,  // measure 44
0001
0000
1000
0001
0010
0000
0100
0000
1000
0000
0001
0000
0200
0000
0000
0000
,  // measure 45
0301
1000
0100
1000
0010
0100
0001
0010
,  // measure 46
0200
1300
2000
3100
0020
0031
0002
0013
,  // measure 47
0100
1000
0100
1000
0100
0000
0010
0000
0001
0000
0010
0000
0110
0000
0000
0000
,  // measure 48
2000
0001
3000
0020
0100
0130
1000
0000
,  // measure 49
0010
1000
0010
0000
0001
0100
0001
0000
;
