#TITLE:Alone;
#SUBTITLE:;
#ARTIST:Slayyyter;
#TITLETRANSLIT:Alone;
#SUBTITLETRANSLIT:;
#ARTISTTRANSLIT:;
#GENRE:;
#CREDIT:;
#BANNER:alone.png;
#BACKGROUND:alonebackground.png;
#LYRICSPATH:;
#CDTITLE:;
#MUSIC:Alone.mp3;
#OFFSET:0.000000;
#SAMPLESTART:34.482758;
#SAMPLELENGTH:12.000000;
#SELECTABLE:YES;
#BPMS:0.000000=174.000000
,6.000000=87.000000
,7.000000=174.000000
,69.000000=87.000000
,70.000000=348.000000
,198.000000=174.000000
,293.000000=348.000000
,421.000000=174.000000
;
#STOPS:228.500000=0.345000
;
#BGCHANGES:;
#KEYSOUNDS:;
#ATTACKS:;

//---------------dance-single - ----------------
#NOTES:
     dance-single:
     :
     Easy:
     4:
     0.296306,0.498409,0.066297,0.208361,0.000000,219.000000,212.000000,7.000000,22.000000,0.000000,0.000000,0.296306,0.498409,0.066297,0.208361,0.000000,219.000000,212.000000,7.000000,22.000000,0.000000,0.000000:
1000
0000
0010
0000
,
0001
1000
0200
1300
,
1000
0000
0000
0010
,
0000
0001
0000
0100
,
0100
0000
0000
0001
,
0010
0001
0010
1000
,
1000
0000
0000
0100
,
0000
0001
0000
0010
,
0010
0000
0000
0100
,
0010
0100
1001
1000
,
1000
0000
0000
0100
,
0000
0010
0000
0001
,
0001
0000
0010
0100
,
0010
0200
0301
0010
,
0100
1000
0000
0100
,
1000
0100
0010
0001
,
1000
0000
0000
0100
,
0000
2000
3001
0000
,
0001
0000
0010
0000
,
0000
0000
1000
0000
,
1000
0000
0100
0000
,
0000
0000
0010
0000
,
0010
0000
0100
0000
,
0000
0000
1000
0000
,
0100
0000
0010
0000
,
0001
0000
0010
0000
,
1001
0000
1001
0000
,
0000
0000
0100
0000
,
1000
0000
0010
0000
,
0000
0000
0100
0000
,
0010
0000
0100
0000
,
0000
0000
0001
0000
,
0010
0000
0001
0000
,
0010
0000
1000
0000
,
0100
0000
1000
0000
,
0000
0000
0002
0000
,
0003
0000
2000
0000
,
3000
0000
0100
0000
,
0010
0000
0001
0000
,
0100
0000
2000
0000
,
3100
0000
0001
0000
,
0010
0000
1000
0000
,
0100
0000
1000
0000
,
0000
0000
0020
0000
,
0030
0000
0100
0000
,
0010
0000
0001
0000
,
0000
0000
0000
0000
,
0000
0000
0100
0000
,
1000
0000
0001
0000
,
0010
0000
1001
0000
,
0110
0000
1000
0100
,
1000
0100
0002
0000
,
2003
0000
3000
0000
,
0200
0000
1300
0000
,
0010
0000
1000
0100
,
1000
0000
0001
0000
,
0010
0000
1000
0100
,
1001
1000
1000
0000
,
0000
0100
0000
0010
,
0001
0010
0001
0100
,
1000
0200
0000
1300
,
1000
0001
0001
0020
,
0000
2030
0000
3100
,
0001
0010
1000
0100
,
1000
0100
0001
0011
,
0001
1000
0100
2000
,
0000
3002
0000
0023
,
0000
1030
1000
0200
,
0000
0320
0000
0032
,
0000
1003
1000
0100
,
0000
0010
0000
0001
,
0000
2000
3000
0002
,
0003
2000
0000
0000
,
3000
0100
0000
0001
,
0000
0010
0000
0000
,
0000
0100
0000
0010
,
0000
0100
0000
0000
,
0000
1000
0000
0100
,
0000
1000
0000
0000
,
0000
0001
0000
0010
,
0000
0100
0000
1000
,
0000
1000
0000
0001
,
0000
0001
0000
0000
,
0000
0010
0000
0010
,
0000
0100
0000
0000
,
0000
0010
0000
0010
,
0000
0001
0000
0000
,
0000
0100
0000
1000
,
0000
0001
0000
0010
,
0000
0001
0000
1000
,
0000
1000
0000
0000
,
0000
0010
0000
0100
,
0000
0001
0000
0000
,
0000
1000
0000
0001
,
0000
1000
0000
0000
,
0000
0010
0000
0100
,
0000
0010
0000
0001
,
0000
0100
0000
1000
,
0000
0100
0000
0000
,
0000
0010
0000
0001
,
0000
1000
0000
1000
,
0000
0000
0000
0000
,
0000
0001
0000
0000
,
0000
0010
0000
0100
,
0000
0001
0000
1000
,
0000
0100
0000
0000
;

//---------------dance-single - ----------------
#NOTES:
     dance-single:
     :
     Medium:
     7:
     0.470842,0.647932,0.075768,0.378838,0.000000,348.000000,340.000000,8.000000,40.000000,0.000000,0.000000,0.470842,0.647932,0.075768,0.378838,0.000000,348.000000,340.000000,8.000000,40.000000,0.000000,0.000000:
1000
0000
0100
0000
,
1000
0010
1000
0001
0002
0000
1003
0000
,
1000
0000
0000
0000
0100
1000
0100
0000
,
0001
0010
0001
1000
0100
0000
1000
0000
,
1000
0000
0000
0000
0001
0010
0001
0000
,
0100
1000
0001
1000
,
1000
0000
0000
0000
0010
0100
0001
0000
,
1000
0100
0001
0000
0010
0000
1000
0000
,
1000
0000
0000
0000
0001
0000
0010
0001
,
0100
0001
0100
0000
1001
0000
1000
0000
,
1000
0000
0000
0000
0010
0100
0001
0000
,
0100
0010
0001
0101
,
0101
0000
0000
0000
0100
1000
0100
0010
,
0001
1000
0001
1000
,
1000
0000
0000
0000
0010
1000
0010
0000
,
0001
0100
0001
0100
0001
0000
1000
0000
,
1000
0000
0100
0000
1000
0100
0001
0010
,
0001
2000
3100
0000
,
0001
0000
0010
0000
,
1000
0100
1000
0000
,
0001
0010
0001
0000
,
1000
0010
1000
0000
,
0001
0001
1000
0000
,
1000
1000
0020
0000
,
0230
0000
2300
0000
,
3002
0000
2003
0000
,
3100
0000
0100
0000
,
1000
0010
1000
0000
,
0001
0010
0001
0000
,
0010
0001
2000
0000
,
3001
0010
0002
0000
,
0010
0103
1000
0000
,
0100
0000
0100
0000
,
0010
0000
0001
0000
,
1000
0000
0010
0000
,
0001
0100
0002
0000
,
1003
1000
0020
0000
,
1030
1000
0100
0000
,
1000
1000
0001
0000
,
1000
0001
0010
0000
,
1000
0000
0100
0000
,
0002
0000
2003
0000
,
3100
0000
0100
0000
,
0000
0010
0001
0010
,
0001
1000
0100
0000
,
1000
0000
2000
0000
,
0000
0000
3002
0000
,
0000
0013
1000
0100
,
1000
0100
0001
0000
,
0010
0000
1000
0000
,
0001
0000
0000
0000
1000
0100
1000
0100
,
0001
0000
0010
0002
0000
0000
0000
0000
,
2003
0000
3000
0000
,
0100
0002
0000
0000
2003
0000
0000
0000
,
3200
0000
0000
0300
0000
0000
0000
0000
,
0010
0001
0010
0001
0000
1000
0100
1000
,
0000
0000
0001
1000
,
1001
1000
0100
0002
,
0003
0010
2000
0000
0000
0000
3000
0000
,
0100
1000
0100
0000
0001
0000
0010
0000
,
0100
0001
0100
0001
1000
0001
1000
0000
,
1000
1000
0010
0200
,
0000
0301
0100
0000
0000
0000
0010
0000
,
0001
0010
0001
0100
0001
0010
0000
0010
,
0010
0100
0010
0000
0100
0000
0100
0000
,
0100
0000
1000
0000
0001
1000
0002
0000
,
0023
0230
0000
0300
,
0100
0001
1000
0000
0010
0200
0000
0300
,
1000
0100
0001
0000
0010
0002
0000
0003
,
1000
0100
1000
0000
1000
0000
0001
0000
,
0010
0001
0100
0001
0000
0100
0100
0000
,
0000
1000
0200
0300
,
0002
0000
0003
0000
0020
0000
0100
0031
,
1000
1000
0001
0010
,
0000
0001
0000
1000
,
0100
1000
0000
0001
,
0001
1000
0000
0010
,
0010
0100
0000
0100
,
0100
1000
0000
0100
,
0010
0100
0000
0001
,
0000
0010
0000
1000
,
0000
0100
0000
2000
,
0000
3001
0000
1000
,
0010
1000
0000
0100
,
0001
0020
0000
0130
,
0100
1000
0000
0100
,
0010
0002
0000
0013
,
0001
0100
0000
1000
,
0000
0200
0000
0302
,
0000
0013
0000
1000
,
0000
1001
0000
0001
,
0010
0001
0000
0100
,
0001
0010
0000
0100
,
0010
0100
0000
1000
,
0100
0010
0000
1000
,
0010
1001
0000
1001
,
0000
0020
0000
0230
,
0000
1300
0000
0100
,
0000
0010
0000
0000
,
0001
0010
0001
0100
,
0001
1000
0000
0100
,
0000
2000
0000
0000
,
3000
0020
0000
0000
,
0031
0100
0001
1000
,
0100
0010
0000
0001
,
0000
1001
0000
0000
;

//---------------dance-single - ----------------
#NOTES:
     dance-single:
     :
     Beginner:
     2:
     0.209714,0.249204,0.018942,0.445135,0.000000,155.000000,153.000000,2.000000,47.000000,0.000000,0.000000,0.209714,0.249204,0.018942,0.445135,0.000000,155.000000,153.000000,2.000000,47.000000,0.000000,0.000000:
1000
0000
0010
0000
,
0001
0000
2000
3001
,
0000
0000
0000
0010
,
0000
0100
0000
1000
,
0000
0000
0000
0010
,
0000
0002
0003
1000
,
0000
0000
0000
0100
,
0000
0100
0000
0010
,
0000
0000
0000
1000
,
0000
0001
0000
2000
,
0000
3000
0000
0001
,
0000
0010
0000
0200
,
0000
1300
0000
0100
,
0000
0010
0000
0002
,
0000
1003
0000
0100
,
0000
0010
0000
2000
,
0000
0000
3000
0002
,
0003
1000
0100
0000
,
0010
0000
0001
0000
,
0000
0000
1000
0000
,
0100
0000
1000
0000
,
0000
0000
0001
0000
,
0001
0000
0001
0000
,
0000
0000
0010
0000
,
0000
0000
0100
0000
,
0010
0000
0001
0000
,
1000
0000
1000
0000
,
0000
0000
0100
0000
,
1000
0000
0100
0000
,
0000
0000
0001
0000
,
0010
0000
0001
0000
,
0000
0000
2000
0000
,
0000
3000
0200
0000
,
0000
0300
0001
0000
,
1000
0000
0001
0000
,
0000
0000
0010
0000
,
0100
0000
1000
0000
,
0000
0000
0010
0000
,
0100
0000
0010
0000
,
0000
0000
0002
0000
,
0013
0000
2000
0000
,
3100
0000
0001
0000
,
1000
0000
1000
0000
,
0000
0000
0020
0000
,
0000
0030
0100
0000
,
0000
0000
1000
0000
,
0000
0000
0002
0000
,
0000
0003
0110
0000
,
0000
0000
0100
0000
,
0000
0000
1000
0000
,
0001
0000
0010
0000
,
1000
0000
0200
0000
,
0302
0000
0000
0003
,
1000
0000
0020
0000
,
0032
0000
0003
0000
,
0000
0000
0200
0000
,
2300
0000
3002
0000
,
1003
1000
0000
0100
,
0000
0001
0000
0000
,
0000
0010
0000
0100
,
0000
2000
0000
3000
,
0000
0001
0000
0010
,
0000
0002
0000
0000
,
0003
1000
0000
0100
,
0000
0010
0000
0001
,
0000
2000
0000
3002
,
0000
0023
0000
0230
,
0000
1300
0000
0020
,
0000
0230
0000
0302
,
0003
1000
0000
0100
,
0000
0010
0000
1000
,
0000
0000
0000
0002
,
0000
2003
0000
0000
,
3000
0100
0000
0000
,
0000
0001
0000
0000
,
0000
0010
0000
0000
,
0000
1000
0000
0000
,
0000
0200
0000
0000
,
0300
1000
0000
0000
,
0000
0001
0000
0001
,
0000
0001
0000
1000
,
0000
1000
0000
0000
,
0000
0200
0000
0000
,
0300
0020
0000
0000
,
0030
0002
0000
0000
,
0003
2000
0000
0000
,
3000
0020
0000
0000
,
0030
0100
0000
1000
,
0000
0100
0000
0001
,
0000
2000
0000
0000
,
3000
0020
0000
0030
,
0000
0200
0000
0000
,
0300
0200
0000
0000
,
0300
2000
0000
0000
,
3000
0200
0000
0300
,
0000
1000
0000
0100
,
0000
1000
0000
0010
,
0000
0020
0000
0000
,
0030
0001
0000
0000
,
0000
2000
0000
0000
,
3000
0002
0000
0003
,
0000
0020
0000
0000
,
0000
0030
0000
0000
,
0000
0100
0000
0000
,
0000
1000
0000
0000
,
0000
1001
0000
0000
;

//---------------dance-single - ----------------
#NOTES:
     dance-single:
     :
     Hard:
     9:
     0.771206,1.046659,0.530373,0.681909,0.213096,570.000000,514.000000,56.000000,72.000000,0.000000,0.000000,0.771206,1.046659,0.530373,0.681909,0.213096,570.000000,514.000000,56.000000,72.000000,0.000000,0.000000:
// measure 0
2000
0000
0000
0000
3100
0000
0000
0001
0010
0000
1000
0000
0100
0000
0000
0000
,  // measure 1
2000
0000
3001
0100
0020
0000
0032
0000
2003
0000
0000
3000
1001
0000
0000
0000
,  // measure 2
0110
0000
0000
1000
0100
0000
0001
0000
0010
0000
0100
0000
2000
0000
3000
0100
,  // measure 3
0010
0000
0001
0000
0001
0000
1000
0100
1000
0100
1000
0000
0110
0000
0000
0000
,  // measure 4
0011
0000
0000
0000
1000
0000
0000
0000
0010
0000
0100
0000
0020
0000
1000
0100
,  // measure 5
1030
0002
0013
0000
0110
0000
1002
0000
,  // measure 6
1003
0000
0010
0100
1000
0001
0010
0001
,  // measure 7
0010
0100
2000
3100
0020
0031
0011
0000
,  // measure 8
0011
0000
0000
1000
0010
0000
0100
0000
0020
0000
0130
0000
2000
0000
3100
0000
,  // measure 9
0002
0013
0200
1000
0301
0000
1100
0000
,  // measure 10
0101
0000
0000
0000
0001
0000
0010
0000
0001
0000
1000
0000
0100
0000
0001
0010
,  // measure 11
0001
0000
1000
0000
0100
0000
0010
0001
0010
1000
0010
0000
1001
0000
0000
0000
,  // measure 12
0101
0000
0000
0000
0001
0010
0001
0000
0010
0000
1000
0000
0100
0000
1000
0100
,  // measure 13
1000
0002
0013
1000
1001
0000
0110
0000
,  // measure 14
0110
0000
0000
0000
0100
0000
1000
0000
0100
0000
0001
0010
1000
0000
0000
0001
,  // measure 15
1000
0000
0100
0000
1000
0000
0001
1000
0001
0000
1000
0000
1100
0000
0000
0000
,  // measure 16
0101
0000
0100
0000
1000
0000
0001
0000
0010
0000
0001
1000
0200
0000
2300
0000
,  // measure 17
3001
0000
0000
0000
2002
0000
0000
0003
3000
0000
0000
0000
0001
0000
0000
0000
,  // measure 18
2001
3000
0102
0003
,  // measure 19
0001
1000
2000
0000
,  // measure 20
3001
0010
2000
0000
,  // measure 21
3100
1000
2000
3001
,  // measure 22
1000
1000
0002
0000
,  // measure 23
0013
0001
0100
0001
,  // measure 24
1010
0000
0011
0000
,  // measure 25
0110
0000
0101
0000
,  // measure 26
1001
0001
2000
0000
,  // measure 27
3200
0001
1300
0000
,  // measure 28
0001
0001
0010
1000
,  // measure 29
0001
1000
0200
0000
,  // measure 30
0301
0010
0010
1000
,  // measure 31
0100
1000
0001
0001
,  // measure 32
1000
0001
1000
0100
,  // measure 33
0001
1000
0010
0000
,  // measure 34
0001
0000
0001
0000
,  // measure 35
0010
1000
0100
0001
,  // measure 36
0100
1000
0001
1000
,  // measure 37
0010
0001
0100
0001
,  // measure 38
1000
0001
0001
0000
,  // measure 39
0010
1000
0110
0000
,  // measure 40
1001
0000
0011
0000
,  // measure 41
0101
0000
1010
0000
,  // measure 42
0100
0001
1000
0010
,  // measure 43
1000
0001
0100
1000
,  // measure 44
0001
0001
0010
0001
,  // measure 45
1000
0100
2000
0000
,  // measure 46
3001
0100
0001
0100
0001
0000
0001
0010
,  // measure 47
1000
0000
0010
0000
0100
0000
0001
1000
,  // measure 48
0010
0000
0001
0000
0002
0000
0000
0003
,  // measure 49
0100
0000
0000
0000
2000
0000
0000
0000
3010
0000
0000
0000
0001
0000
0000
0100
,  // measure 50
1000
0000
0010
0000
0001
0000
0000
0000
1000
0000
0100
0001
0100
0000
0001
0000
,  // measure 51
1000
0000
0000
0000
0000
0000
1000
0000
0000
0010
0000
0000
1000
0000
0000
0000
0000
0000
0020
0000
0000
0000
0000
0000
1000
0000
0000
0000
0000
0000
0000
0000
0000
0000
0000
0000
0100
0000
0000
0000
1030
0000
0000
0000
0001
0000
0000
0000
,  // measure 52
0020
0000
2030
0000
3002
0000
0000
0000
1003
0000
1000
0100
0001
0000
2000
0000
,  // measure 53
3001
0100
0000
0100
0002
0000
0000
0000
0013
1000
0001
0000
1000
0000
0000
0000
,  // measure 54
0001
0000
0000
0000
0010
0000
0000
0000
0100
0000
0000
0000
1000
0000
0000
0000
0000
0000
0000
0000
0000
0000
0000
0000
1000
0000
0000
0000
0000
0000
0100
0000
0000
1000
0000
0000
0010
0000
0000
0000
0000
0000
0001
0000
0000
0000
0000
0000
,  // measure 55
1000
0200
0320
0032
1000
0023
2030
3200
,  // measure 56
1000
0000
0000
0000
0310
0000
0000
0000
0001
0000
0100
0010
1000
0000
0010
0000
,  // measure 57
1001
0000
0000
0000
1010
0000
0000
0000
1100
0000
0001
0010
0002
0000
0100
0000
,  // measure 58
1000
0000
1003
0000
0200
0000
0000
0010
0302
0000
0100
0000
2003
0000
0100
0000
,  // measure 59
3010
0100
0020
0000
0031
0001
1000
0000
,  // measure 60
1000
0000
0010
0000
0001
0000
1000
0000
0100
1000
0001
0000
1000
0000
0000
0100
,  // measure 61
0001
0000
2000
0000
3001
0000
0000
0000
0010
0100
0010
0000
0002
0000
0000
0000
,  // measure 62
0000
0000
0103
0000
2000
0000
0000
0000
0000
0000
0000
0000
3000
0000
0010
0001
,  // measure 63
0010
0001
0100
0000
1000
0000
0100
0000
1000
0000
0020
0000
1000
0000
1030
0000
,  // measure 64
0100
0000
0000
0000
0010
0000
0001
0000
1000
0000
0001
0000
0100
0000
0000
0001
,  // measure 65
0200
0000
1300
0100
1000
0000
0100
0001
0020
0000
0130
0000
0002
0000
0013
0000
,  // measure 66
2000
0000
3100
0000
2000
0000
0000
0100
0000
0000
0010
0000
0001
0000
3000
0000
,  // measure 67
0001
0000
0000
0010
0000
0000
0100
0000
0000
0000
1000
0000
0000
0000
0020
0000
0000
0000
1030
0000
0000
0000
0000
0000
,  // measure 68
1000
0100
1000
0200
0000
0302
0000
0003
,  // measure 69
1000
0200
0301
0000
0110
0000
0001
0010
,  // measure 70
1000
0000
0000
0000
0000
0000
0100
0000
0000
0000
0000
0000
1000
0000
0000
0000
0000
0000
0000
0000
0000
0001
0000
0000
0000
0000
0000
0000
0010
0000
0000
0000
0000
0000
0000
0000
2000
0000
0000
0000
0000
0000
0000
0000
0000
0000
0000
0000
,  // measure 71
0001
3000
0110
0000
0110
0000
1000
0100
,  // measure 72
0001
0000
0000
0000
2000
3100
0020
0130
,  // measure 73
0002
0003
1000
0000
0100
0000
0001
0000
,  // measure 74
0000
1001
0000
0010
,  // measure 75
1000
1200
0000
0301
,  // measure 76
0010
0002
0000
1003
,  // measure 77
0100
2000
0000
3010
,  // measure 78
0001
0200
0000
1300
,  // measure 79
0100
1001
0000
0110
,  // measure 80
0000
1100
0000
1001
,  // measure 81
0000
1010
0000
0100
,  // measure 82
1000
0001
0000
0010
,  // measure 83
1000
0100
1001
1000
,  // measure 84
0010
1000
0001
1000
,  // measure 85
1100
1001
0000
0110
,  // measure 86
0001
0101
0000
1000
,  // measure 87
0100
2000
0000
3010
,  // measure 88
0000
0002
0000
0103
,  // measure 89
1000
0100
0000
1000
,  // measure 90
0001
0010
0000
1000
,  // measure 91
0100
0001
0010
1001
,  // measure 92
1000
0100
1000
0001
,  // measure 93
1010
1000
0010
0100
,  // measure 94
1000
0001
0000
1000
,  // measure 95
0010
1001
0000
0100
,  // measure 96
0000
1000
0000
0010
,  // measure 97
0000
1000
0100
0001
,  // measure 98
0010
1000
0000
0001
,  // measure 99
0100
1100
1000
0001
,  // measure 100
0010
1000
0001
0100
,  // measure 101
1001
0000
1000
0000
0001
0010
0001
0010
,  // measure 102
0001
0010
1000
0000
0100
0000
1000
0000
,  // measure 103
0010
0000
0101
0000
0001
0010
1000
0000
,  // measure 104
0001
0000
1001
0000
0000
0010
1000
0100
,  // measure 105
1000
0100
1010
0000
0000
0000
0000
0000
;
