#TITLE:All The Time;
#SUBTITLE:;
#ARTIST:Zara Larsson;
#TITLETRANSLIT:;
#SUBTITLETRANSLIT:;
#ARTISTTRANSLIT:;
#GENRE:;
#CREDIT:;
#BANNER:allthetimebn.png;
#BACKGROUND:allthetime.png;
#LYRICSPATH:;
#CDTITLE:;
#MUSIC:All The Time SM.mp3;
#OFFSET:0.000000;
#SAMPLESTART:42.857143;
#SAMPLELENGTH:17.142857;
#SELECTABLE:YES;
#BPMS:0.000000=102.000000
;
#STOPS:
;
#BGCHANGES:;
#KEYSOUNDS:;
#ATTACKS:;

//---------------dance-single - ----------------
#NOTES:
     dance-single:
     :
     Medium:
     5:
     0.328355,0.330218,0.040148,0.250926,0.000000,229.000000,225.000000,4.000000,25.000000,0.000000,0.000000,0.328355,0.330218,0.040148,0.250926,0.000000,229.000000,225.000000,4.000000,25.000000,0.000000,0.000000:
0000
0000
0000
0000
,
0000
0000
0000
0000
,
0000
0000
0000
0000
,
0000
0000
0000
0000
,
0000
1000
0100
1000
,
0010
0001
0010
0000
0100
0000
1000
0000
,
0100
0010
0001
0000
0001
0000
0010
0001
,
1000
0100
1000
0000
1000
0000
0010
0100
,
0001
0000
0001
0010
0000
1000
0100
1000
,
0010
0002
1003
0000
1000
0000
0100
0000
,
1000
0010
1000
0000
0100
0000
0010
0100
,
0010
0000
0001
0100
0000
1000
0100
0000
,
0010
0000
1000
0001
0010
0002
0000
0003
,
1000
0100
1000
0020
0000
0030
1000
0100
,
1000
0001
0000
1000
0010
0100
1000
0000
,
0010
1000
0001
0010
0002
0000
0103
1000
,
0010
1000
2000
3100
1000
0002
0000
1003
,
0010
0100
1000
0020
0000
0030
1000
0100
,
1000
0001
0000
0010
0001
0000
0100
1000
,
0100
0001
0010
0001
1000
0100
1000
0010
,
1001
0000
0001
0000
0011
0000
1000
0100
,
1000
0010
0001
0100
0002
0000
1003
0010
,
1000
0100
1000
0000
1010
0000
0001
0000
,
0100
0001
0100
0010
0100
1000
0100
1000
,
0010
1000
0001
0000
1000
0010
0200
0000
,
1300
0000
0010
0100
0010
0001
0100
0001
,
0010
0001
2000
0000
3010
0000
0100
0000
,
0001
0000
0002
0013
2000
3100
1000
0010
,
0001
1000
1000
0000
0100
1000
0010
0001
,
0100
0000
0001
0010
0001
1000
0020
0000
,
2030
0000
3100
0001
0010
0001
0100
0010
,
0100
0000
1000
0100
1000
0010
0100
1000
,
0010
0001
2000
0000
3010
0000
0002
0000
,
0103
0000
0010
1000
0010
0100
2000
0000
,
3010
0000
0002
0000
0103
0010
0001
0000
,
0010
0000
1000
0100
1000
0010
0200
0000
,
1300
0010
0002
0000
1003
0010
1000
0100
,
2000
0000
3010
0001
0200
0000
0301
0010
,
0002
0103
1000
0010
0100
1000
0010
0100
,
0010
0000
0001
0100
0002
0000
1003
0010
,
0200
1300
0010
0001
,
0101
0010
0000
0000
0000
0000
0000
0000
;

//---------------dance-single - ----------------
#NOTES:
     dance-single:
     :
     Easy:
     3:
     0.210778,0.226335,0.030111,0.301111,0.000000,147.000000,144.000000,3.000000,30.000000,0.000000,0.000000,0.210778,0.226335,0.030111,0.301111,0.000000,147.000000,144.000000,3.000000,30.000000,0.000000,0.000000:
0000
0000
0000
0000
,
0000
0000
0000
0000
,
0000
0000
0000
0000
,
0000
0000
0000
0000
,
0000
0020
1030
0100
,
1000
0002
0013
0100
,
0010
0200
0310
0100
,
0010
0020
0031
1000
,
0100
2000
3002
0023
,
1030
0200
0320
0130
,
1000
0020
0130
1000
,
0001
0200
0301
0010
,
1000
0200
1300
0002
,
0013
2000
3010
0100
,
0010
0200
0301
0010
,
1000
1000
0100
0100
,
0010
0001
1001
1000
,
0100
0010
0011
0001
,
0100
0010
1000
0000
,
0100
0002
0000
2003
,
0000
3010
0001
0001
,
1000
0100
1000
0010
,
0100
0001
0001
1000
,
0100
2000
3010
0200
,
0310
0001
0010
0100
,
1000
1000
0001
0001
,
0010
1000
0010
0100
,
0010
0010
0100
0100
,
1000
0002
1003
0020
,
0130
1000
0100
1000
,
0100
0200
1300
0002
,
0013
0001
0100
0010
,
1000
0100
0100
1000
,
1000
0000
0001
0010
,
0010
0100
1000
0100
,
0010
0001
0001
1000
,
1000
0020
1030
0100
,
0100
0002
0013
2000
,
3100
0010
0010
0100
,
1000
2000
3200
0302
,
0023
1030
0100
0001
,
1001
0000
0000
0000
;

//---------------dance-single - ----------------
#NOTES:
     dance-single:
     :
     Hard:
     8:
     0.390011,0.514398,0.070259,0.170630,0.321185,272.000000,265.000000,7.000000,17.000000,0.000000,0.000000,0.390011,0.514398,0.070259,0.170630,0.321185,272.000000,265.000000,7.000000,17.000000,0.000000,0.000000:
0000
0000
0000
0000
,
0000
0000
0000
0000
,
0000
0000
0000
0000
,
0000
0000
0000
0000
,
0000
0000
0000
0000
1000
0100
1000
0000
0001
0000
0000
0000
0010
0000
0010
0000
,
0100
0000
1000
0000
0002
0000
0000
0000
0013
0000
1000
0000
0100
1000
0100
0001
,
0000
0000
1000
0000
0010
0000
0000
0000
1000
0000
0000
0000
0010
0000
1000
0100
,
0001
0000
0010
0000
1000
0000
0000
0000
0001
0000
0000
0000
0010
0000
0000
1000
,
0100
1000
0001
0000
0010
0000
1000
0000
,
0100
0000
1000
0000
0001
0000
0010
0000
0001
0000
0100
1000
0100
1000
0001
0010
,
0000
0000
1000
0000
1000
0000
0000
0000
0100
0000
0001
0010
0001
0000
1000
0000
,
0010
1000
0010
0100
0000
1000
0001
0000
,
0010
0000
0020
0100
0130
0001
0010
0000
,
1000
0100
1000
0002
0000
0000
0013
0100
,
1000
0000
0200
0000
0000
0000
1300
0000
0010
0000
1000
0000
0001
0000
0100
0001
,
0000
0000
0010
0000
1000
0000
0000
0000
1000
0000
0100
0001
0010
0000
0001
1000
,
0010
1000
0100
0001
0010
0002
0000
0003
,
1000
0000
0010
0000
0100
0000
1000
0000
0200
0000
0000
0300
1000
0000
0100
0000
,
0010
1000
0010
0100
1000
0000
0001
0000
,
0000
0000
0010
1000
0100
1000
0001
1000
0001
0000
0010
0001
1000
0010
1000
0010
,
1000
0010
0000
0000
0102
0000
0000
0000
1003
0000
0100
1000
0100
0001
0010
0001
,
0000
0000
1000
0010
1000
0000
0100
1000
0001
0000
0010
1000
0000
0000
1000
0000
,
0100
0000
0001
0000
0010
0000
0000
0000
1000
0000
0100
1000
0020
0000
0031
0000
,
1000
0000
0000
0000
0001
0000
0010
1000
0000
0100
0000
1000
0000
0000
0001
0010
,
0000
0000
1000
0000
0100
0000
0000
0001
0000
0000
0010
0000
2000
0000
0000
3000
,
0100
0000
0000
0000
0001
0010
0000
0001
0000
1000
0000
0100
0000
0000
1000
0010
,
0000
0001
0000
0000
2000
0000
0000
3000
0010
0000
0000
0000
0100
0000
0000
0000
,
0010
0100
0100
0100
0010
0010
0100
0010
,
0001
0010
0000
0000
0002
0000
0000
0003
1000
0000
0100
0000
1000
0000
0000
0000
,
0010
1000
0000
0100
0000
0000
0001
0010
0000
0001
0000
0200
0000
0300
0010
0000
,
0000
1000
0100
0000
1000
0010
1000
0000
,
0001
0010
0000
0001
0000
0000
0100
0100
0000
1000
0000
0010
0000
0000
0100
1000
,
0000
0000
0100
0000
0020
0000
0000
2030
0000
0000
3002
0000
0013
0000
0000
0000
,
1000
0000
0000
0000
0100
1000
0000
0001
0000
0010
0000
0002
0000
0000
0103
1000
,
0000
0010
0000
0000
0100
0000
0000
0000
1000
0000
0000
0000
0010
0000
0000
0000
,
0001
0000
0100
0000
1000
0100
1000
0001
0010
0000
1000
0100
1000
0001
0010
1000
,
0001
0100
0000
0000
0010
0000
0100
0001
0000
0000
1000
0000
0010
0000
0000
0000
,
1000
0000
0100
0001
0011
1000
0100
1000
,
1100
0000
0020
0000
0000
0000
0031
1000
0000
0000
0100
0000
1000
0000
0000
0000
,
0010
0000
0001
0100
0101
0000
1000
0010
,
1010
1000
1001
0001
,
0110
0000
0000
0000
;

//---------------dance-single - ----------------
#NOTES:
     dance-single:
     :
     Beginner:
     2:
     0.162026,0.185183,0.000000,0.150556,0.000000,113.000000,113.000000,0.000000,15.000000,0.000000,0.000000,0.162026,0.185183,0.000000,0.150556,0.000000,113.000000,113.000000,0.000000,15.000000,0.000000,0.000000:
// measure 0
0000
0000
0000
0000
,  // measure 1
0000
0000
0000
0000
,  // measure 2
0000
0000
0000
0000
,  // measure 3
0000
0000
0000
0000
,  // measure 4
0000
2000
3000
0001
,  // measure 5
0001
0010
0000
0000
,  // measure 6
0000
0200
0300
0010
,  // measure 7
0100
1000
0000
0000
,  // measure 8
0010
0001
0000
1000
,  // measure 9
0010
2000
3000
0000
,  // measure 10
0000
0001
0000
0100
,  // measure 11
0010
0001
0000
1000
,  // measure 12
0100
2000
3010
0001
,  // measure 13
0100
0002
0003
0020
,  // measure 14
0030
1000
0100
0000
,  // measure 15
0100
0010
0001
0000
,  // measure 16
0000
1000
0100
1000
,  // measure 17
0000
0010
0001
0010
,  // measure 18
0001
2000
3001
0010
,  // measure 19
0000
2000
0000
0000
,  // measure 20
3000
0001
0010
0001
,  // measure 21
0000
1000
1000
1000
,  // measure 22
0100
0010
0001
0000
,  // measure 23
0001
0010
0001
0100
,  // measure 24
0010
1000
0100
0010
,  // measure 25
0100
0001
0010
0002
,  // measure 26
1003
1000
0000
0100
,  // measure 27
0000
0010
0010
1000
,  // measure 28
0100
1000
0000
0001
,  // measure 29
0010
0001
0100
1000
,  // measure 30
0100
0020
0030
1000
,  // measure 31
0000
0100
0001
0010
,  // measure 32
0001
2000
3100
0010
,  // measure 33
0001
0002
0013
0200
,  // measure 34
1300
0010
1000
0100
,  // measure 35
0000
1000
1000
0001
,  // measure 36
0001
2000
0000
3010
,  // measure 37
0000
0001
0001
0010
,  // measure 38
0100
2000
0000
3100
,  // measure 39
0000
0010
0100
0010
,  // measure 40
0001
1000
0001
0001
,  // measure 41
0010
0000
0000
0000
;
