#VERSION:0.83;
#TITLE:Acidiva 303;
#SUBTITLE:;
#ARTIST:ni-21;
#TITLETRANSLIT:;
#SUBTITLETRANSLIT:;
#ARTISTTRANSLIT:;
#GENRE:;
#ORIGIN:;
#CREDIT:;
#BANNER:acidivabanner.png;
#BACKGROUND:acidbg.png;
#PREVIEWVID:;
#JACKET:;
#CDIMAGE:;
#DISCIMAGE:;
#LYRICSPATH:;
#CDTITLE:;
#MUSIC:acidiva mastered.mp3;
#OFFSET:0.000000;
#SAMPLESTART:40.000000;
#SAMPLELENGTH:12.000000;
#SELECTABLE:YES;
#BPMS:0.000=150.000;
#STOPS:211.500=1.600;
#DELAYS:;
#WARPS:;
#TIMESIGNATURES:0.000=4=4;
#TICKCOUNTS:0.000=4;
#COMBOS:0.000=1;
#SPEEDS:0.000=1.000=0.000=0;
#SCROLLS:0.000=1.000;
#FAKES:;
#LABELS:0.000=Song Start;
#BGCHANGES:;
#KEYSOUNDS:;
#ATTACKS:
;

//---------------dance-single - ----------------
#NOTEDATA:;
#CHARTNAME:;
#STEPSTYPE:dance-single;
#DESCRIPTION:;
#CHARTSTYLE:;
#DIFFICULTY:Easy;
#METER:4;
#RADARVALUES:0.336305,0.546291,0.319900,0.483952,0.000000,287.000000,248.000000,39.000000,59.000000,0.000000,0.000000,0.000000,0.000000,0.000000,0.336305,0.546291,0.319900,0.483952,0.000000,287.000000,248.000000,39.000000,59.000000,0.000000,0.000000,0.000000,0.000000,0.000000;
#CREDIT:;
#NOTES:
1000
0100
0001
0010
,
0001
0100
0100
1000
,
1000
0000
0010
0001
,
0001
0000
0200
0300
,
0001
0000
0001
0010
,
0100
0000
1000
0100
,
0001
0000
0010
0100
,
2000
0000
0000
3000
,
0001
0001
0001
0001
,
0010
0100
0010
0100
,
1000
1000
1000
1000
,
0100
0010
0002
0000
,
1003
0100
1000
0100
,
0001
0001
1000
1000
,
0010
0100
0010
0001
,
0200
0320
0030
0000
,
0002
0003
1000
1000
,
0020
0030
0100
0100
,
2000
3000
0001
0001
,
0020
0030
2002
3003
,
1000
0100
0010
0001
,
0100
1000
0001
0010
,
0001
0100
1000
0110
,
0002
0000
2003
0000
,
3010
0100
0001
0001
,
1000
1000
0010
0100
,
0002
0003
1000
0100
,
0020
0030
1000
0001
,
0200
0000
0301
0001
,
0020
0030
0100
0100
,
1000
0001
0001
0001
,
1001
1001
0000
0010
,
2002
0000
0000
3003
,
0002
0000
2003
0000
,
3200
0000
0000
0000
,
0000
0001
0001
0001
,
2300
0100
0010
0100
,
3002
0010
0100
0010
,
0203
1000
1000
0010
,
0302
0010
0010
0010
,
1003
1000
0200
0301
,
0001
0001
0020
0130
,
1000
1000
0200
0310
,
0010
0001
1000
0001
,
0010
0100
1000
0100
,
0002
0013
2000
0100
,
3020
0130
0200
1300
,
2000
3100
0002
0013
,
0020
0031
1200
0000
,
0302
0000
2003
0000
,
3200
0302
0003
0210
,
1300
0002
1003
0001
,
2002
0000
0000
0000
0000
0000
0000
3003
,
1001
1001
1001
1001
,
0011
0011
0011
0011
,
1001
0110
1001
0110
,
0101
0101
0101
1100
,
1000
1001
0110
0011
,
1100
1001
0011
0101
,
1001
1001
0110
0110
,
1100
1100
1100
0002
,
1003
1000
0100
2000
,
3001
0001
0020
0130
,
2000
3001
0002
1003
,
0100
0100
0020
0000
,
0031
0001
1000
1000
,
0100
0100
2000
3001
,
0002
0013
0200
1300
,
0002
0000
0000
1003
,
0000
0000
1000
0001
,
0001
1000
1000
1000
,
0200
1300
1000
1000
,
0002
0013
0010
0010
,
2002
0000
0000
0000
,
3003
0000
0000
0000
;

//---------------dance-single - ----------------
#NOTEDATA:;
#CHARTNAME:;
#STEPSTYPE:dance-single;
#DESCRIPTION:;
#CHARTSTYLE:;
#DIFFICULTY:Beginner;
#METER:3;
#RADARVALUES:0.217954,0.272223,0.016405,0.057418,0.000000,186.000000,184.000000,2.000000,7.000000,0.000000,0.000000,0.000000,0.000000,0.000000,0.217954,0.272223,0.016405,0.057418,0.000000,186.000000,184.000000,2.000000,7.000000,0.000000,0.000000,0.000000,0.000000,0.000000;
#CREDIT:;
#NOTES:
1000
0000
0001
0010
,
0001
0000
0100
1000
,
0100
0000
1000
0001
,
0001
0000
0010
0000
,
0100
0000
1000
0100
,
0100
0000
0001
0001
,
0001
0000
1000
0000
,
0001
0000
0000
0000
,
0010
0100
0010
0000
,
1000
0001
0001
0000
,
0100
1000
0100
0000
,
0001
0000
0010
0000
,
1000
0100
1000
0000
,
0001
0001
0001
0000
,
0010
0100
0010
0000
,
0001
1000
0100
0000
,
0001
0000
0001
1000
,
0100
0000
0010
0000
,
0001
0001
0001
0000
,
1000
0100
0001
0000
,
0010
0100
1000
0000
,
0001
0001
0001
0000
,
1000
0100
1000
0000
,
0001
0000
0010
0000
,
0100
1000
0100
0000
,
0001
0000
1000
0000
,
0100
1000
0010
0001
,
0001
0000
0020
0000
,
1030
0000
0100
0000
,
0001
0000
0001
0000
,
1000
0100
1000
0100
,
0001
0000
0000
0000
,
2002
0000
0000
0000
,
0000
0000
0000
0000
,
0000
0000
0000
0000
,
0000
0000
0000
3003
,
1000
0000
0000
0000
,
0001
0000
0000
0010
,
1000
0000
0000
0000
,
0100
0000
0001
0001
,
1000
0000
0010
0000
,
0100
0000
0100
0000
,
1000
0000
0001
0000
,
0001
0000
0010
0000
,
1000
0000
0001
0000
,
1000
0000
0001
0000
,
1000
0000
0001
0000
,
1000
0000
0001
0000
,
0001
0010
0001
0010
,
0010
0010
0010
0010
,
1000
1000
1000
1000
,
0002
0000
0000
0003
,
1001
0000
0000
0000
,
0100
0010
0100
1000
,
1000
0001
0001
0000
,
0001
0001
0010
0100
,
1000
0000
0100
0000
,
0001
0001
0010
0001
,
0100
1000
0100
0001
,
1000
1000
0010
0010
,
0001
0000
0000
0000
,
1000
0100
1000
0100
,
0001
0000
1000
0000
,
0001
0001
0010
0100
,
0001
0000
1000
0000
,
0100
0100
1000
0100
,
0001
0000
0001
0000
,
0010
0100
1000
0100
,
0001
0000
0010
0000
,
2000
0000
0000
3000
,
0001
0001
0001
0001
,
0002
0000
0000
0003
,
0010
0010
0010
0010
,
2000
0000
0000
3000
;

//---------------dance-single - ----------------
#NOTEDATA:;
#CHARTNAME:;
#STEPSTYPE:dance-single;
#DESCRIPTION:;
#CHARTSTYLE:;
#DIFFICULTY:Medium;
#METER:6;
#RADARVALUES:0.448798,0.484772,0.090228,0.073823,0.000000,383.000000,372.000000,11.000000,9.000000,0.000000,0.000000,0.000000,0.000000,0.000000,0.448798,0.484772,0.090228,0.073823,0.000000,383.000000,372.000000,11.000000,9.000000,0.000000,0.000000,0.000000,0.000000,0.000000;
#CREDIT:;
#NOTES:
1000
0000
0100
0000
0001
0000
0010
1000
,
0010
0001
0100
1000
,
0100
0000
1000
0000
0100
0000
0001
0010
,
0001
1000
0002
0003
,
1000
0000
0100
0000
1000
0000
0100
0001
,
0010
0001
1000
0001
,
0001
1000
0100
0001
,
2002
0000
3003
1000
,
0100
1000
0100
0001
1000
0000
0001
0000
,
0001
0010
0001
0010
0001
0000
1000
0000
,
1000
0100
1000
0100
0001
0000
0001
0000
,
1000
0010
1000
0001
0001
0000
0000
0000
,
1000
0100
1000
0100
0001
0000
0001
0000
,
1000
0010
1000
0010
1000
0000
0100
0000
,
0001
0100
0001
0010
0100
0000
1000
0000
,
1100
1001
0001
0010
,
0100
1000
0100
1000
0100
0000
0001
0000
,
0010
0100
0010
0100
0010
0000
0001
0000
,
0010
0011
0011
1000
,
1000
0100
1000
0100
0001
0000
0000
0000
,
1000
0000
0001
0000
0010
0100
1000
0100
,
0001
1000
0001
0010
,
0110
0000
1000
0100
1000
0000
0100
0000
,
0001
0000
1000
0000
0002
0000
0000
0003
,
1000
0000
1000
0000
0100
0001
0100
0001
,
1000
0000
1000
0000
0010
0001
0010
0001
,
0100
0000
0100
0000
0010
0100
0010
0100
,
1000
0000
1000
0000
0100
1000
0100
0001
,
0001
0000
0001
0000
0100
0001
0100
0010
,
0010
0000
0010
0000
1000
0100
1000
0100
,
0100
0100
0100
0001
,
0002
0000
0000
1003
,
2000
0000
0000
0100
,
0001
0000
0010
0001
,
0200
0000
0000
0300
0001
0000
0010
0000
,
0001
0000
0000
0000
0100
0000
0001
3000
,
1001
0000
0001
0000
0010
0000
0100
1000
,
0100
0000
0001
0000
0010
0000
0001
0100
,
0001
0001
1000
0100
,
0010
0001
0010
0001
1000
0000
1000
0000
,
0001
0000
0001
0100
0001
0000
1000
0000
,
1000
0000
0100
1000
0100
0000
0010
0000
,
0010
0000
0010
0100
0010
0000
0010
0000
,
1000
0000
1000
1000
0001
0000
0001
0000
,
1000
1000
1000
1000
,
0100
0100
0100
0100
,
0010
0010
0010
0010
,
0001
0001
0001
0001
,
1000
0100
1000
0100
,
0010
0100
0010
0100
,
0001
0010
0001
0010
0001
0010
0001
0010
,
0001
1000
0001
1000
0001
1000
0001
1000
,
0000
0000
0000
0000
,
1000
0000
0100
0000
1000
0100
0001
0010
,
0001
0000
0001
0000
1000
0001
1000
0000
,
1000
0000
1000
0100
1000
0100
0001
0010
,
0001
0001
1000
1001
,
0001
0010
0001
0010
1000
0100
0100
0000
,
0001
0010
0001
0100
0001
0100
0100
0000
,
1000
0001
1000
0001
1000
0100
0010
0100
,
0001
0001
1000
1001
,
1000
0100
1000
0100
0010
0001
0010
0001
,
1000
0000
0001
1000
0001
0000
1000
0000
,
1000
0100
1000
0100
0001
0010
0001
1000
,
0100
0001
0010
1000
,
1000
0100
1000
0100
0001
0010
0001
0000
,
1000
0100
1000
0100
0001
0000
0010
0000
,
1000
0100
1000
0010
0001
0010
0001
0000
,
0100
0001
0100
1000
0100
0000
0001
0000
,
1001
0001
0010
0100
,
1000
0100
1000
0100
0001
0000
0001
0000
,
1000
0001
0010
1000
0010
0000
0001
0000
,
1000
0001
0100
1000
0100
0001
1000
0000
,
2002
0000
0000
0000
0000
0000
0000
3003
;

//---------------dance-single - ----------------
#NOTEDATA:;
#CHARTNAME:;
#STEPSTYPE:dance-single;
#DESCRIPTION:;
#CHARTSTYLE:;
#DIFFICULTY:Hard;
#METER:8;
#RADARVALUES:0.495670,0.666561,0.139444,0.188659,0.410129,423.000000,406.000000,17.000000,23.000000,0.000000,1.000000,0.000000,0.000000,0.000000,0.495670,0.666561,0.139444,0.188659,0.410129,423.000000,406.000000,17.000000,23.000000,0.000000,1.000000,0.000000,0.000000,0.000000;
#CREDIT:;
#NOTES:
// measure 0
1000
0000
0000
0000
0001
0000
0000
0000
1000
0000
0000
0000
0001
0000
0000
1000
,  // measure 1
0001
0000
0000
0000
1000
0000
0000
0000
1000
0000
0000
0000
0001
0000
0000
0010
,  // measure 2
0001
0000
0000
0000
0001
0000
0000
0000
0001
0000
0000
0000
0001
0000
0000
0100
,  // measure 3
1000
0000
0000
0000
1000
0000
0000
0000
1000
0000
0000
0000
0000
1000
0100
1000
,  // measure 4
0001
0000
0000
0000
0001
0000
0000
0000
0001
0000
0000
0000
0001
0000
0000
1000
,  // measure 5
0100
0000
0000
0000
1000
0000
0000
0000
1000
0000
0000
0000
0001
0000
0000
0100
,  // measure 6
1000
0100
0000
0000
0000
0000
0010
0000
0000
0000
0100
0000
0000
0000
0010
0000
,  // measure 7
0001
1000
1001
1000
,  // measure 8
1000
0000
0100
0000
1000
0000
0100
0000
0001
0000
0000
1000
0000
0000
0000
0000
,  // measure 9
0000
0000
0002
0000
0000
0000
1003
0000
1000
0000
0000
0001
0000
0000
0000
0000
,  // measure 10
0000
0000
0001
0000
0100
0000
1000
0000
0100
0000
0000
0001
0000
0000
0000
0000
,  // measure 11
0001
1000
0000
0100
2000
0000
3000
0000
,  // measure 12
0001
0000
1000
0000
0001
0000
1000
0000
0001
0000
0000
0001
0000
0000
0000
0000
,  // measure 13
0000
0000
1000
0000
0000
0000
0100
0000
1000
0000
0000
1000
0000
0000
0000
0000
,  // measure 14
0000
0000
0001
0000
0010
0000
0001
0000
1000
0000
0000
0100
0000
0000
0000
0000
,  // measure 15
0001
0000
0000
1000
0001
0000
0000
1000
2000
0000
3000
0200
0000
0000
0300
0000
,  // measure 16
0001
0000
1000
0000
0001
0000
1000
0000
0001
0000
0000
0102
0000
0000
0003
0000
,  // measure 17
0000
0000
0010
0000
1000
0000
0100
0000
1000
0000
0000
0100
0000
0000
0000
0000
,  // measure 18
0000
0000
0001
0000
0010
0000
0001
0000
1000
0000
0000
1000
0000
0000
0000
0000
,  // measure 19
0000
0000
0000
0000
1000
0000
0100
0000
0001
0000
0000
2000
0000
0000
0000
0000
,  // measure 20
3010
0000
0001
0000
1000
0000
0001
0000
1000
0000
0000
0100
0000
0000
0000
0000
,  // measure 21
0001
0000
0010
0000
0001
0000
1000
0000
0100
0000
0000
0100
0000
0000
0000
0000
,  // measure 22
0000
0000
0001
0000
0010
0000
0001
0000
1000
0000
0000
0100
0000
0000
0000
0000
,  // measure 23
0001
0000
0000
1000
0000
0000
0001
0000
1000
0000
0000
0100
0000
0000
0100
0000
,  // measure 24
0001
0010
0000
0001
0010
0000
0200
0000
0300
0000
1000
0000
0000
0100
1000
0100
,  // measure 25
0001
0000
0000
1000
0100
0000
2000
0000
3000
0000
0010
0000
1000
0000
0001
0000
,  // measure 26
0100
1000
0000
0001
0100
0000
2000
0000
3000
0000
0100
0000
1000
0001
1000
0001
,  // measure 27
1000
1000
0001
0000
1000
0000
0000
0000
,  // measure 28
0001
0010
0001
1000
0100
0010
0100
0000
,  // measure 29
1000
0001
1000
0001
0100
0000
1000
0000
,  // measure 30
1000
0100
1000
0000
0001
0000
1000
0000
0001
0000
1000
0000
0001
0000
1000
0100
,  // measure 31
1000
0000
0000
0001
0000
0000
1000
0000
0000
0001
0000
0000
0010
0000
1000
0000
,  // measure 32
2000
0000
0000
0001
,  // measure 33
0002
0003
0010
0100
,  // measure 34
0002
0000
0013
0001
,  // measure 35
0100
0000
0000
0000
0010
0000
0001
3000
,  // measure 36
1001
0000
0001
0000
0010
0000
1000
0100
,  // measure 37
0001
0001
0001
0010
,  // measure 38
1000
0100
1000
0001
,  // measure 39
0010
0000
1000
0000
,  // measure 40
0001
0000
0000
0100
0000
0000
1000
0000
0000
0100
0000
0000
0001
0000
0010
0000
,  // measure 41
0001
0000
0000
1000
0000
0000
0100
0000
0000
1000
0000
0000
0100
0000
0010
0000
,  // measure 42
0001
0000
0000
0001
0000
0000
0001
0000
0000
1000
0000
0000
0100
0000
1000
0000
,  // measure 43
0010
0001
0010
0000
1000
0000
0100
1000
0100
0000
0000
0000
0100
0001
0100
0001
,  // measure 44
0000
0000
0000
1000
0000
0000
0100
0000
0001
0000
1000
0000
0001
0000
0000
0000
,  // measure 45
0010
0000
0000
0010
0000
0000
0100
0000
0000
1000
0000
0000
0100
0000
0001
0000
,  // measure 46
0001
0000
0000
1000
0000
0000
0100
0000
0000
0000
0010
0000
0010
0000
1000
0000
,  // measure 47
0001
0000
0000
0001
0000
0000
1000
0000
0100
0000
1000
0000
0100
0000
0001
0000
,  // measure 48
0001
0000
0000
0001
1000
0000
0000
1000
0010
0000
0000
0001
0010
0000
0000
0001
,  // measure 49
1000
0000
0000
1000
0100
0000
0000
0100
0001
0000
0000
0001
0100
0000
0000
0100
,  // measure 50
1000
0000
0000
1000
0010
0000
0000
1000
0001
0000
1000
0000
0001
0000
1000
0000
,  // measure 51
0001
1000
0001
1000
0001
1000
0001
1000
2002
0000
0000
0000
0000
0000
0000
0000
,  // measure 52
3003
0000
0000
0000
,  // measure 53
1000
0000
0000
0001
0000
0000
0001
0000
0000
1000
0000
0000
0010
0000
1000
0000
,  // measure 54
0001
0000
0000
0001
0000
0000
0100
0000
0000
1000
0000
0000
0202
0000
0303
0000
,  // measure 55
0001
0000
0000
1000
0000
0000
0001
0000
0000
0010
0000
0000
1000
0000
0100
0000
,  // measure 56
0001
0000
1000
0000
0100
0000
0010
0000
2000
0000
3000
0001
0000
0000
0000
0000
,  // measure 57
0001
0000
0000
0001
0000
0000
1000
0000
0000
0100
0000
0000
1000
0000
0010
0000
,  // measure 58
0001
0000
0000
0001
0000
0000
1000
0000
0000
0100
0000
0000
2002
0000
0000
3003
,  // measure 59
0010
0000
0000
0010
0000
0000
1000
0000
0000
1000
0000
0000
0100
0000
0001
0000
,  // measure 60
0001
0000
0001
0000
0010
1000
0010
0000
1000
0000
0000
0000
0001
0000
0000
0000
,  // measure 61
0001
0000
0000
0001
0000
0000
1000
0000
0000
1000
0000
0000
0100
0000
0001
0000
,  // measure 62
0001
0000
0000
1000
0000
0000
0100
0000
0000
0010
0000
0000
0101
0000
0000
0000
,  // measure 63
1000
0000
0000
1000
0000
0000
0100
0000
0000
0001
0000
0000
1000
0000
0001
0000
,  // measure 64
0001
1000
0001
1000
0001
1000
0001
1000
0000
0000
0100
0000
0000
0001
0000
0000
,  // measure 65
1000
0000
0000
1000
0000
0000
0001
0000
0000
0001
0000
0000
0010
0000
1000
0000
,  // measure 66
0100
0000
0000
0100
0000
0000
0001
0000
0000
1000
0000
0000
0100
0000
0000
0000
,  // measure 67
0001
0000
0000
0001
0000
0000
1000
0000
0000
0001
0000
0000
1000
0000
0000
0000
,  // measure 68
1001
1001
1001
1001
,  // measure 69
2000
0000
0000
3000
0100
0000
0001
0000
,  // measure 70
0002
0000
0000
0003
1000
0000
1000
0000
,  // measure 71
0100
1001
1001
1001
,  // measure 72
0011
0000
0000
0000
0101
0000
0000
0000
2200
0000
0000
0000
0000
3300
0000
0000
,  // measure 73
0001
0000
0000
0000
0000
0000
0001
0000
1000
0000
0000
0001
0000
0000
0100
0000
;
