#VERSION:0.83;
#TITLE:About Work The Dancefloor;
#SUBTITLE:;
#ARTIST:Georgia;
#TITLETRANSLIT:;
#SUBTITLETRANSLIT:;
#ARTISTTRANSLIT:;
#GENRE:;
#ORIGIN:;
#CREDIT:;
#BANNER:aboutwork.png;
#BACKGROUND:georgia-about-work-dancefloor.png;
#PREVIEWVID:;
#JACKET:;
#CDIMAGE:;
#DISCIMAGE:;
#LYRICSPATH:;
#CDTITLE:;
#MUSIC:About Work The Dancefloor (SM Mix).mp3;
#OFFSET:0.000000;
#SAMPLESTART:44.444443;
#SAMPLELENGTH:12.000000;
#SELECTABLE:YES;
#BPMS:0.000=110.000,
81.500=220.000,
85.000=110.000;
#STOPS:84.500=0.409;
#DELAYS:;
#WARPS:;
#TIMESIGNATURES:0.000=4=4;
#TICKCOUNTS:0.000=4;
#COMBOS:0.000=1;
#SPEEDS:0.000=1.000=0.000=0;
#SCROLLS:0.000=1.000;
#FAKES:;
#LABELS:0.000=Song Start;
#BGCHANGES:;
#KEYSOUNDS:;
#ATTACKS:
;

//---------------dance-single - ----------------
#NOTEDATA:;
#CHARTNAME:;
#STEPSTYPE:dance-single;
#DESCRIPTION:;
#CHARTSTYLE:;
#DIFFICULTY:Medium;
#METER:5;
#RADARVALUES:0.358181,0.353674,0.016604,0.207555,0.000000,302.000000,300.000000,2.000000,25.000000,0.000000,0.000000,0.000000,0.000000,0.000000,0.358181,0.353674,0.016604,0.207555,0.000000,302.000000,300.000000,2.000000,25.000000,0.000000,0.000000,0.000000,0.000000,0.000000;
#CREDIT:;
#NOTES:
0000
0000
0000
0000
,
1000
0001
0010
0001
,
0100
1000
0100
1000
0010
0000
0001
0100
,
1000
0000
0100
0001
0010
0000
0001
0100
,
1000
0100
1000
0010
0002
0000
0000
0003
,
1000
0000
0100
1000
0010
0000
0001
0100
,
1000
0000
0010
0100
0001
0010
0001
0100
,
1000
0000
0100
0000
1000
0000
0010
0001
,
0100
0000
0010
0000
0001
0100
1000
0010
,
1000
0000
0001
0000
0010
0100
0100
1000
,
0100
0000
0001
0010
1000
0100
1000
0100
,
0001
0000
1000
0100
1000
0000
0001
0000
,
1000
0010
1000
0001
0100
1000
0200
0000
,
1300
0010
0001
0100
0001
0010
0001
0000
,
1000
0000
0100
0000
0010
1000
0001
0100
,
0001
0010
0001
0000
2000
0000
3100
1000
,
0000
0000
0010
0001
0100
0001
0010
0001
,
0200
0300
1000
0000
1000
0000
0010
0200
,
0000
0301
0010
0000
1000
0000
0100
2000
,
3000
0000
0010
0001
0100
0001
0010
0000
,
0002
0000
0000
2003
0000
0200
0000
3300
,
0000
0001
1000
0000
0100
1000
0010
0110
,
0001
0000
0001
0010
0100
0000
1000
0000
,
0100
0001
1000
0000
0010
0100
1000
0000
,
0010
0000
0001
0000
0100
0010
0001
0000
,
1000
0000
1000
0000
0010
1000
0010
0000
,
0100
0000
0100
0001
0010
0001
0100
0000
,
0001
0010
1000
0000
0001
0010
0100
0000
,
0010
0000
1000
0010
0100
0001
0010
0000
,
0001
0010
0002
0000
1003
0000
0100
0000
,
1000
0010
0200
0000
0301
0000
0020
0000
,
2030
3000
0100
0000
0000
0000
1000
0000
,
0010
0002
0103
1000
,
0010
2000
3100
0020
,
0031
0100
2000
0000
3010
0000
0100
0001
,
0020
0030
0100
0001
0010
0000
2000
3000
,
0100
0000
1000
0000
0000
0000
0001
0010
,
0001
0000
0100
1000
0100
1000
0010
1000
,
0001
0000
1000
0000
0001
0010
0100
0010
,
0100
0001
0010
0001
0100
0000
1000
0000
,
0010
1000
1000
0000
0001
0000
0010
0001
,
0100
0001
0020
0000
1030
0000
0100
0000
,
1000
0200
0000
0301
0010
1000
0100
0000
,
0001
0010
1000
0000
0100
1000
0010
1000
,
0001
0000
0001
0010
0100
1000
2000
0000
,
3010
0001
0100
1000
0100
0001
0010
1000
,
0100
1000
1000
0010
0001
0100
0010
0000
,
0001
1000
2000
0000
3010
0001
0100
0000
,
1000
0010
1000
0100
0010
0001
0100
0000
,
0001
0010
0001
0010
0001
0010
1000
0100
,
1000
0000
0010
0100
0001
0010
0010
0000
,
0001
1000
0200
0000
0000
0300
1100
0000
,
0010
0001
1000
0100
1000
0001
0020
0030
,
1000
0100
0001
0000
0000
0000
0000
0000
;

//---------------dance-single - ----------------
#NOTEDATA:;
#CHARTNAME:;
#STEPSTYPE:dance-single;
#DESCRIPTION:;
#CHARTSTYLE:;
#DIFFICULTY:Easy;
#METER:3;
#RADARVALUES:0.221787,0.221046,0.024907,0.464923,0.000000,187.000000,184.000000,3.000000,56.000000,0.000000,0.000000,0.000000,0.000000,0.000000,0.221787,0.221046,0.024907,0.464923,0.000000,187.000000,184.000000,3.000000,56.000000,0.000000,0.000000,0.000000,0.000000,0.000000;
#CREDIT:;
#NOTES:
0000
0000
0000
0000
,
1000
1001
0001
1001
,
0002
0000
0003
0010
,
1000
0100
2000
3000
,
0010
0001
0010
0001
,
1000
0200
1300
0000
,
0010
0000
0001
0010
,
0002
0103
1000
0000
,
0010
0000
0100
1000
,
0001
0010
0002
0003
,
1000
0000
0100
1000
,
0010
0002
1003
0000
,
0100
1000
0020
0030
,
1000
0100
1000
0001
,
0020
0031
2000
3100
,
0010
0100
0010
0001
,
2000
3001
0020
1030
,
0200
1300
0010
0101
,
0002
1003
0100
2000
,
3010
0001
0100
1000
,
2000
0000
0000
0000
,
0000
3000
1000
0000
0100
0000
1000
0000
,
0010
0001
0010
0002
,
0103
1000
0100
1000
,
0010
2000
3020
0230
,
0302
1003
0010
0100
,
0010
0001
0001
0100
,
0100
0010
1000
1000
,
0100
0010
0010
0200
,
0301
2000
3010
2000
,
3001
0020
0031
0100
,
1000
2000
3000
0020
,
0030
0002
0003
1000
,
0000
2000
3000
0002
,
0003
0020
0030
0200
,
0300
2000
3000
0100
,
0000
0001
2000
0000
,
0010
3001
0100
1000
,
0010
0001
0100
1000
,
0010
2000
3100
0020
,
0031
0100
1000
0010
,
1000
0002
0103
1000
,
0010
2000
3100
1000
,
0010
0200
0301
0002
,
0013
2000
3200
0320
,
0032
1003
0100
1000
,
0010
0002
0023
0230
,
1300
0010
1000
0100
,
0001
0200
0320
2030
,
3002
0013
0100
1000
,
0100
2000
3020
0230
,
0302
2003
3010
0100
,
1000
0020
0130
0001
,
1000
0010
0000
0000
;

//---------------dance-single - ----------------
#NOTEDATA:;
#CHARTNAME:;
#STEPSTYPE:dance-single;
#DESCRIPTION:;
#CHARTSTYLE:;
#DIFFICULTY:Hard;
#METER:7;
#RADARVALUES:0.447133,0.449875,0.066418,0.456621,0.215857,377.000000,369.000000,8.000000,55.000000,0.000000,0.000000,0.000000,0.000000,0.000000,0.447133,0.449875,0.066418,0.456621,0.215857,377.000000,369.000000,8.000000,55.000000,0.000000,0.000000,0.000000,0.000000,0.000000;
#CREDIT:;
#NOTES:
0000
0000
0000
0000
,
1000
0000
0000
0000
0001
0000
0000
0100
1000
0000
0000
0000
0001
0000
0000
0000
,
0002
1000
0023
0000
0230
0000
2300
0010
3020
0000
0000
0000
0130
0000
2000
0000
,
3002
0000
0013
0100
0020
0000
0130
1000
,
0201
0010
1300
0100
1002
0100
0010
0100
,
1003
0000
0101
0010
0100
0000
1000
0100
,
2000
0000
0000
0000
3001
0000
0010
0000
0001
0010
1000
0000
0100
0000
0010
0000
,
2000
3200
0320
0130
,
2000
0000
3100
0010
0001
1000
0001
0010
,
2000
0000
3200
0000
0320
0000
0031
0100
,
2000
3000
0010
0100
1000
0010
0001
0100
,
2000
0000
3010
0100
0001
0000
0010
0001
,
0000
2000
0000
0000
3100
0000
0000
0001
0010
0000
1000
0000
0201
0000
1000
0000
,
1300
0001
0010
0100
1000
0100
1000
0001
,
0010
0001
0100
0001
1000
0010
1000
0100
,
1000
0100
0002
0013
2000
3100
0010
0001
,
1000
0000
0100
0000
0010
0000
1000
0100
0001
1000
0010
0000
0100
0000
1000
0000
,
2000
3100
2000
0000
3002
0000
0013
2000
,
0000
0001
3100
0000
0001
0000
1000
0000
0010
0000
1000
0000
0100
0000
0001
0000
,
0010
0000
0100
1000
0100
1000
0010
0000
,
0001
0010
0100
1000
0002
0000
0000
0000
,
0003
0000
1001
0000
1000
0001
0010
0000
1000
0100
1000
0100
0000
0010
0000
0001
,
0001
0000
0000
0100
1000
0000
0100
0000
1000
0000
0010
0000
0002
0000
0000
0000
,
0103
0000
0001
0000
1000
0010
1000
0000
0100
1000
0001
0010
0000
0010
0000
0001
,
0100
0000
0000
0001
2000
0000
3100
0000
0020
0000
0031
0000
0100
0000
0000
0000
,
1000
0000
0010
0000
1000
0100
0001
0000
0100
0000
0020
0000
0000
0130
0000
0001
,
1000
0000
0000
1000
0100
0000
0010
0000
0001
0000
0100
0000
2000
0000
3000
0000
,
0010
0000
0001
0000
1000
0000
0010
0000
0100
0000
0001
1000
0000
0100
0000
0001
,
0010
0000
0100
0001
0010
0001
0101
0000
,
1000
0010
2000
0000
0100
0000
3002
0000
,
0010
0100
0203
0000
1000
0000
0320
0100
,
0001
0032
0000
0203
,
0000
0000
0010
0000
0320
0000
0000
0000
0000
0000
0000
1000
0230
0000
0000
0000
,
0000
1300
0010
0001
,
0100
0001
0100
0010
0010
0000
0001
0000
,
0100
0000
0010
0001
0010
0000
1000
0000
,
0002
0100
0000
0000
2000
3000
0010
1000
,
0103
0000
1000
0010
1000
0001
0100
0001
,
2000
0000
3000
0000
0010
0000
0001
0100
,
0001
0000
0010
0000
0002
0000
0103
0000
1000
0000
0000
0000
0020
0000
0000
0030
,
0100
1000
0200
0300
0001
0000
0010
1000
,
0100
0001
0010
0001
0100
1000
0010
0000
,
1000
0000
0202
0000
0000
0303
0001
0000
0010
0000
1000
0000
0100
0000
0000
0000
,
1000
0010
0001
0000
0100
1000
0100
0010
,
0001
0000
0000
0000
0010
0000
1000
0000
0100
0000
0010
0000
1002
0000
0000
0003
,
1000
0000
0010
0001
1000
0000
0001
0000
0010
1000
0100
0001
0000
0100
0000
1000
,
0010
0000
0000
1000
0001
0000
0010
0000
0100
0000
1000
0000
0010
0000
1000
0000
,
0010
0000
0001
0000
0100
0000
1000
0000
0010
1000
0001
0010
0000
1000
0000
0100
,
1000
0000
0000
0001
0010
0000
0100
0000
0010
0000
0001
0000
1000
0000
0010
0000
,
1000
0000
0100
0000
0001
0001
0000
0000
1000
0100
1000
0001
0000
1000
0000
0010
,
1000
0000
0000
0100
0010
0000
0001
0000
0010
0000
0100
0000
1000
0000
0000
0000
,
1000
0000
0010
0000
2000
0000
0000
0000
3100
0000
0001
0000
0020
0000
0000
0030
,
1000
0000
0100
0000
0002
0000
0010
0003
0100
0000
1000
0000
2000
0000
0000
3000
,
0010
0000
0001
0000
1000
0100
1000
0000
0001
0010
1000
0100
0000
1000
0000
0001
,
0010
0000
0000
1000
0000
0000
0000
0000
0000
0000
0000
0000
0000
0000
0000
0000
;

//---------------dance-single - ----------------
#NOTEDATA:;
#CHARTNAME:;
#STEPSTYPE:dance-single;
#DESCRIPTION:;
#CHARTSTYLE:;
#DIFFICULTY:Beginner;
#METER:2;
#RADARVALUES:0.174346,0.198941,0.000000,0.257368,0.000000,147.000000,147.000000,0.000000,31.000000,0.000000,0.000000,0.000000,0.000000,0.000000,0.174346,0.198941,0.000000,0.257368,0.000000,147.000000,147.000000,0.000000,31.000000,0.000000,0.000000,0.000000,0.000000,0.000000;
#CREDIT:;
#NOTES:
// measure 0
0000
0000
0000
0000
,  // measure 1
0000
0000
0000
0000
,  // measure 2
0001
0000
0000
0000
,  // measure 3
1000
0000
0010
0000
,  // measure 4
0001
0000
0000
0000
,  // measure 5
1000
0010
1000
0000
,  // measure 6
0000
0000
0010
0001
,  // measure 7
0010
0000
1000
0000
,  // measure 8
0000
0000
0000
0001
,  // measure 9
0010
0001
0010
0000
,  // measure 10
1000
0000
0000
1000
,  // measure 11
1000
0001
0001
0000
,  // measure 12
0010
0000
0000
0000
,  // measure 13
1000
0100
1000
0010
,  // measure 14
0000
0000
0001
0001
,  // measure 15
0001
1000
1000
1000
,  // measure 16
0000
0000
0010
0100
,  // measure 17
0010
0100
0000
1000
,  // measure 18
0100
1000
0000
0001
,  // measure 19
0100
0001
0010
0001
,  // measure 20
0020
0000
0000
0000
,  // measure 21
0000
0030
1000
0000
0001
0000
0010
0000
,  // measure 22
0100
1000
0100
1000
,  // measure 23
0010
0001
0010
0010
,  // measure 24
0100
1000
0010
1000
,  // measure 25
0001
0001
0000
0010
,  // measure 26
0000
0001
0010
0001
,  // measure 27
0010
0100
0000
0010
,  // measure 28
0000
0100
1000
0100
,  // measure 29
1000
0010
0000
0001
,  // measure 30
0000
1000
0000
0100
,  // measure 31
0100
1000
0000
0001
,  // measure 32
0000
0010
0000
0000
,  // measure 33
0000
0020
0030
0200
,  // measure 34
0300
2000
3000
0002
,  // measure 35
0003
0020
0000
0230
,  // measure 36
0000
1300
0002
0003
,  // measure 37
0000
1000
0001
0010
,  // measure 38
0001
0000
0100
1000
,  // measure 39
0010
0001
0100
0001
,  // measure 40
0001
0000
0010
0100
,  // measure 41
1000
0100
0000
0010
,  // measure 42
0000
2000
3000
0001
,  // measure 43
0000
0020
0031
2000
,  // measure 44
3100
0002
0023
0230
,  // measure 45
2300
3010
0001
1000
,  // measure 46
0100
2000
3200
0320
,  // measure 47
0032
1003
0100
1000
,  // measure 48
0010
0020
0230
2300
,  // measure 49
3002
1003
0100
0010
,  // measure 50
0100
0002
0023
2030
,  // measure 51
3200
0310
0100
1000
,  // measure 52
0001
0020
2030
3200
,  // measure 53
0302
1003
0000
0000
;
