#TITLE:AS Acá;
#SUBTITLE:;
#ARTIST:Amnesia Scanner feat. Lalita;
#TITLETRANSLIT:;
#SUBTITLETRANSLIT:;
#ARTISTTRANSLIT:;
#GENRE:;
#CREDIT:;
#BANNER:AS Aca-bn.png;
#BACKGROUND:AS Aca-bg.png;
#LYRICSPATH:;
#CDTITLE:;
#MUSIC:AS Acá.mp3;
#OFFSET:0.000000;
#SAMPLESTART:44.444443;
#SAMPLELENGTH:12.000000;
#SELECTABLE:YES;
#BPMS:0.000000=104.000000
;
#STOPS:
;
#BGCHANGES:;
#KEYSOUNDS:;
#ATTACKS:;

//---------------dance-single - ----------------
#NOTES:
     dance-single:
     :
     Medium:
     6:
     0.327617,0.362484,0.081036,0.388973,0.000000,283.000000,273.000000,10.000000,48.000000,0.000000,0.000000,0.327617,0.362484,0.081036,0.388973,0.000000,283.000000,273.000000,10.000000,48.000000,0.000000,0.000000:
0000
0000
0000
0000
,
0000
0000
0000
0000
,
1000
0000
0000
0010
0000
0001
1000
0000
,
1000
0000
0000
0100
0000
1000
0010
0100
,
0001
0000
0000
1000
0000
0010
0100
0000
,
1000
0000
0000
0100
0000
0010
0002
0000
,
1003
0000
0000
1000
0000
0010
0001
0100
,
2000
3010
0000
0001
1000
0010
0100
2000
,
0000
0000
3100
0002
0000
0013
1000
0110
,
1000
0020
0000
0031
0000
0100
0000
1000
,
0010
1000
0100
0001
0000
0010
0000
0000
,
1000
0000
0010
0001
0000
0100
1001
0010
,
1000
0100
0010
0001
0010
0001
0100
1000
,
0100
0000
1000
0010
0000
1000
0200
0300
,
0001
0010
1000
0100
0000
0010
0001
0000
,
1000
0000
0100
1000
0010
0001
0100
0000
,
1000
0000
0100
0010
0001
1000
0200
0000
,
0302
0000
0000
2003
0000
3020
0000
0000
,
1030
0100
1000
0001
0000
0010
0100
2000
,
3100
0000
0000
0001
0000
0010
0001
0100
,
2000
0000
3000
0010
0000
0100
0001
0010
,
0200
0000
0300
0010
0000
0001
0000
0100
,
1000
0010
0100
0001
0000
0010
0001
0200
,
0000
0300
0000
0001
0000
0010
0001
0010
,
1000
0000
0000
0100
0000
0000
0010
1000
,
0001
0000
0100
0010
0000
0100
0000
0001
,
0020
0000
2030
0000
3200
0000
0000
0301
,
0020
0230
2300
3200
2300
3010
0002
0103
,
2000
0000
0000
3020
0000
0030
0000
0000
,
0002
0000
0000
0203
0000
0000
0300
0000
,
2000
3020
0030
0000
,
0001
0000
1100
1000
0000
0010
0001
0000
,
1000
0000
0100
1000
0000
0010
0001
0100
,
1000
0010
1000
0001
0110
1000
0010
0000
,
0001
0001
0000
1000
0000
0010
2000
0000
,
3200
0000
0000
0301
0000
0010
1000
0100
,
1000
0010
0000
0001
0000
0100
1000
0010
,
0002
0000
0103
1000
0010
1000
0100
0002
,
1003
0020
1030
0200
0000
2300
3010
1000
,
0001
0010
0100
1000
0100
1000
0010
1010
,
2000
0000
0000
3200
0000
0301
0010
0001
,
0102
0100
1003
0020
0000
1030
0100
1000
,
2000
0010
3100
1100
0000
0001
0010
0001
,
0200
0000
1300
0010
1000
0100
0001
0010
,
1000
0000
0100
1000
0000
0010
0002
0003
,
1000
0100
1000
0010
0100
0010
0011
0000
,
1000
0000
0100
1000
0010
1000
1010
0000
,
0010
0100
1000
0100
0010
0001
0110
0000
,
1000
0010
1000
0100
0000
1000
0100
0001
,
0020
0000
0030
1000
0000
0010
1000
0100
,
2000
0000
3000
0010
0000
0100
1000
0100
,
0001
0000
0000
2000
0000
3020
0000
0031
,
0100
2000
0000
0000
0000
3000
0000
0000
;

//---------------dance-single - ----------------
#NOTES:
     dance-single:
     :
     Beginner:
     2:
     0.177121,0.212719,0.040518,0.210694,0.000000,153.000000,148.000000,5.000000,26.000000,0.000000,0.000000,0.177121,0.212719,0.040518,0.210694,0.000000,153.000000,148.000000,5.000000,26.000000,0.000000,0.000000:
0000
0000
0000
0000
,
1000
0000
0001
1000
,
0001
0000
0000
1000
,
0100
0000
0010
0001
,
0010
0000
1000
0100
,
1000
0010
0001
2000
,
3001
0000
0010
0100
,
1000
0100
0010
0001
,
2000
0000
3100
0001
,
0020
0000
0030
1000
,
0100
1000
0100
1000
,
0001
0010
0100
1000
,
0010
1000
0001
0100
,
1000
0000
0010
0001
,
1001
0000
0100
0001
,
1000
0000
0010
0001
,
0100
0000
1000
0100
,
0002
0000
0013
1000
,
1001
0000
0000
0001
,
0020
0030
1000
0100
,
2000
3000
0010
0001
,
0100
0000
0020
0230
,
1300
1000
0000
0010
,
1000
0000
0100
1000
,
0100
0000
1000
0010
,
0001
0000
0100
1000
,
0200
1300
0200
0000
,
0302
0000
0023
0230
,
2300
0000
3010
0100
,
0002
0000
0103
0010
,
1100
0000
0000
0000
,
0000
0000
0000
1001
,
0001
0000
0010
0100
,
1000
0000
0000
0100
,
0002
0003
2000
3000
,
0100
0010
0100
0001
,
0002
0000
0003
1000
,
0200
0000
0000
1300
,
0000
0010
0001
0010
,
1000
0000
0100
0001
,
2000
0000
0000
3010
,
0001
0100
1000
0010
,
0200
0000
0301
0010
,
2000
0000
3100
0001
,
1000
0000
0100
0001
,
0010
1000
0100
1000
,
1000
0010
1000
1001
,
0001
0010
0001
0100
,
1000
0000
0000
0100
,
0002
0000
0003
0010
,
0200
0000
0300
1000
,
0010
0000
2000
0000
,
0002
0000
3003
0000
;

//---------------dance-single - ----------------
#NOTES:
     dance-single:
     :
     Easy:
     4:
     0.185225,0.191447,0.040518,0.170176,0.000000,160.000000,155.000000,5.000000,21.000000,0.000000,0.000000,0.185225,0.191447,0.040518,0.170176,0.000000,160.000000,155.000000,5.000000,21.000000,0.000000,0.000000:
0000
0000
0000
0000
,
1000
0000
0000
0001
,
1000
0000
0000
0100
0000
0000
0010
0000
,
1000
0000
0000
0001
,
0010
0000
0000
0100
0000
0000
0010
0000
,
1000
0100
0001
0000
,
1001
0000
0010
0100
,
1000
0000
0000
0100
0000
0000
0001
0000
,
0020
0000
1030
0100
,
1000
0000
0000
0010
0000
0000
0001
0000
,
1000
0000
0100
1001
,
0001
0000
0000
0010
0000
0000
0100
0000
,
1000
0100
1000
0010
,
0001
0000
0000
0100
0000
0000
0010
0000
,
1001
0000
1000
0100
,
1000
0000
0000
0010
0000
0000
0001
0000
,
1000
0000
0000
0100
0000
0000
0002
0003
,
2000
0000
0000
0100
0000
0001
0000
0000
,
3010
0000
0000
0100
0000
0000
0001
0000
,
0010
0000
0000
1000
0000
0000
1000
0000
,
0100
0000
0000
0010
0000
0000
0001
0000
,
1000
0000
0000
0002
0000
0000
1000
0003
,
1000
0000
0100
0010
,
0001
0000
1000
0100
,
0010
0000
0000
0001
0000
0000
1000
0000
,
0100
0000
0000
0010
0000
0000
0001
0000
,
1000
0200
2300
0000
,
3002
0000
0023
0000
,
2030
0000
0000
3200
0000
0000
0000
0000
,
0302
0000
0000
0023
0000
0000
0000
0000
,
1030
0000
0000
0000
,
1000
0000
0000
1001
,
0001
0000
0000
0010
0000
0000
0100
0000
,
1000
0010
1000
0100
,
1001
0000
0000
0001
0000
0000
0010
0000
,
0200
0000
1300
0100
,
0010
0001
1000
0010
,
0200
0000
0000
0000
1000
0300
0100
0000
,
0001
0010
0001
1000
,
2000
0000
3200
0000
0302
0003
0010
0000
,
1000
0100
1000
0001
,
0001
0000
0000
0010
0000
0000
1000
0000
,
0100
1000
0100
0010
,
0001
1000
0100
1000
,
0001
0000
0010
1000
,
1000
0100
1000
0010
,
0001
0000
0000
0000
1000
0000
0000
0100
,
0000
1000
0000
0010
0000
0001
0000
1000
,
0000
0000
0000
0010
0000
0000
1000
0000
,
0200
0000
0000
0300
0001
0000
0010
0000
,
2000
0000
0000
3000
0100
0000
0001
0000
,
0020
0000
0000
0030
1000
0000
0100
0000
,
0002
0000
0003
0000
;

//---------------dance-single - ----------------
#NOTES:
     dance-single:
     :
     Hard:
     7:
     0.353085,0.448838,0.121554,0.380869,0.109399,305.000000,290.000000,15.000000,47.000000,0.000000,0.000000,0.353085,0.448838,0.121554,0.380869,0.109399,305.000000,290.000000,15.000000,47.000000,0.000000,0.000000:
// measure 0
0000
0000
0000
0000
,  // measure 1
1000
0000
0000
0100
1000
0000
0001
0000
0000
0000
0010
0000
1000
0000
0100
0000
,  // measure 2
1000
0000
0001
0000
0010
0000
0002
0000
0000
0003
1000
0000
0000
0000
0000
0000
,  // measure 3
1000
0000
0000
0000
1000
0000
0001
0000
0000
0010
0001
0000
1000
0000
0100
0000
,  // measure 4
1000
0010
1000
0001
0000
1000
0010
0000
,  // measure 5
0100
1000
0000
0100
0000
0001
1000
0000
,  // measure 6
1020
0000
0000
0100
0000
0000
0031
0100
,  // measure 7
2000
3200
0000
1300
0000
0001
0010
2000
,  // measure 8
0000
0000
3100
0001
0000
0010
2000
0000
0000
0000
3200
0000
1300
0000
0001
0000
,  // measure 9
0010
0000
1200
0000
0000
0300
0002
0000
0003
0000
1000
0000
0000
0000
1000
0000
,  // measure 10
0010
0100
0001
0010
0000
1000
1001
0000
,  // measure 11
0001
0000
0000
0000
0010
0000
0100
0000
0000
1000
0100
0000
0001
0000
1000
0000
,  // measure 12
0010
1000
0100
0002
0000
0013
1000
0100
,  // measure 13
2000
0000
3001
0010
0000
1000
0110
0000
,  // measure 14
0002
0000
1003
0100
0000
1000
0010
0000
,  // measure 15
0200
0000
1300
0010
0000
0001
0100
0000
,  // measure 16
1000
0010
0100
0001
0010
0001
2000
3000
,  // measure 17
0200
0000
0000
0302
0000
0023
0000
1030
,  // measure 18
0100
0000
1000
0000
0100
0000
0001
0000
0000
0000
1000
0000
0010
0000
1000
0100
,  // measure 19
1001
0000
0000
0010
0000
0001
0100
1000
,  // measure 20
0100
0000
0000
1000
0000
0010
0001
0100
,  // measure 21
2000
0000
0000
3000
0000
0000
0020
0000
0000
0000
0032
0000
0000
0000
1003
0000
,  // measure 22
0100
0000
1000
0000
0100
0000
1000
0000
0000
0000
0010
0000
0001
0000
1000
0100
,  // measure 23
1000
0000
0000
0001
0000
0010
0001
1000
,  // measure 24
1000
0000
0000
0010
0000
0100
0010
0001
,  // measure 25
1000
0000
0000
0100
0000
0001
0000
1000
,  // measure 26
0020
0000
0000
0030
0002
0000
0000
0000
2003
0000
0000
0000
0000
0000
3100
0000
,  // measure 27
0001
0010
0001
1000
0100
1000
0010
0100
,  // measure 28
0002
0000
0000
0000
0000
0003
0020
0000
0000
0000
0000
0000
0030
0000
0000
0000
,  // measure 29
2000
0000
0000
3200
0000
0000
0300
0000
,  // measure 30
1000
0000
0000
0000
,  // measure 31
0001
0010
0001
1000
0000
0000
1001
0000
,  // measure 32
2002
0000
0000
0000
0000
3000
0000
0013
0000
0000
0110
0000
1000
0000
0100
0000
,  // measure 33
1000
0010
0001
2000
3000
0110
0100
1000
,  // measure 34
0001
0020
0000
2030
0000
3100
0001
0000
,  // measure 35
2002
0000
0000
0003
0000
0000
0100
0000
3000
0000
0010
0000
0001
0000
0100
0000
,  // measure 36
1000
0010
0100
0001
0000
0010
0001
0000
,  // measure 37
0100
0000
0000
1000
0000
0000
0000
0001
0010
0000
0001
0000
1000
0000
0000
0100
,  // measure 38
2000
0000
0000
0000
3000
0000
0001
0000
0000
0000
0010
0000
1000
0000
0000
0110
,  // measure 39
1000
0010
1000
0001
0020
0031
1000
0100
,  // measure 40
2000
0000
0000
0000
0000
3000
0001
0000
0000
0000
0010
0000
1000
0000
0100
0000
,  // measure 41
2000
0000
0000
3001
0010
0000
0001
0000
1000
0000
0100
0000
0010
0000
0000
0000
,  // measure 42
2000
0000
0000
3010
0100
0000
0100
0000
0000
0000
0001
0000
0010
0000
0000
0000
,  // measure 43
0002
0000
0000
0103
0001
0000
0100
0000
0000
0000
1000
0000
0010
0000
0000
0000
,  // measure 44
0100
0000
0000
1000
0001
0000
0010
0000
0001
0000
0100
0000
1010
0000
0000
0000
,  // measure 45
1000
0000
0000
0100
1000
0000
0001
0010
0001
1000
0100
0000
1001
0000
0000
0000
,  // measure 46
0001
0000
0000
0010
0001
0000
0000
1000
0100
0000
0000
0010
1001
0000
0020
0000
,  // measure 47
1030
0000
0000
0100
1000
0000
0001
0000
0000
0010
0000
0000
1000
0100
1000
0100
,  // measure 48
0001
0001
1000
0000
0100
0000
1010
0000
0000
0000
0001
0000
0100
0000
0002
0000
,  // measure 49
2000
0003
3000
0000
0000
0000
1000
0000
0000
0000
1000
0000
0200
0000
1300
0000
,  // measure 50
0010
0000
0000
0000
0000
0000
0001
0000
0000
0000
0002
0000
0000
0003
1000
0000
,  // measure 51
0010
0000
0000
2000
0000
3100
0000
0002
,  // measure 52
0000
0000
0000
0003
;
