#TITLE:You;
#SUBTITLE:(Tiesto vs Twoloud Remix);
#ARTIST:Galantis;
#TITLETRANSLIT:;
#SUBTITLETRANSLIT:;
#ARTISTTRANSLIT:;
#CREDIT:;
#BANNER:you tvtr-bn.png;
#BACKGROUND:you tvtr -bg.png;
#LYRICSPATH:;
#CDTITLE:kyka2016.png;
#MUSIC:You (Tiesto vs Twoloud Remix).mp3;
#OFFSET:-0.006;
#SAMPLESTART:52.530;
#SAMPLELENGTH:15.000;
#SELECTABLE:YES;
#BPMS:0.000=127.950;
#STOPS:;
#BGCHANGES:;

//---------------dance-single - ----------------
#NOTES:
     dance-single:
     :
     Challenge:
     9:
     0.575,0.556,0.883,0.271,0.353: // measure 1
0000
0000
0000
0000
,  // measure 2
0000
0000
0000
0000
,  // measure 3
0000
0000
0000
0000
,  // measure 4
0000
0000
0000
0000
,  // measure 5
1100
0000
0000
0000
0101
0000
0000
0000
1010
0000
0000
0101
0000
0000
0101
0000
,  // measure 6
0011
0000
0000
0000
1000
0000
0000
0000
0011
0000
0000
1100
0000
0000
0012
0000
,  // measure 7
0103
0000
0000
0000
1010
0000
0000
0000
1001
0000
0000
0101
0000
0000
1010
0000
,  // measure 8
0110
0000
0000
0000
1001
0000
0000
0000
0001
0100
0001
0100
0000
0010
1000
0000
,  // measure 9
0001
0000
0000
0000
1001
0000
0000
0000
1010
0000
0000
1001
0000
0000
1001
0000
,  // measure 10
0110
0000
0000
0000
0011
0000
0000
0000
1100
0000
0000
0110
0000
0000
2001
0000
,  // measure 11
3001
0000
0000
0000
0101
0000
0000
0000
1001
0000
0000
0010
0000
0001
1000
0000
,  // measure 12
0001
0000
0000
0000
1010
0000
0000
0000
0100
0000
0100
0010
0001
0000
0000
1000
,  // measure 13
0001
0000
0000
1000
0010
0000
0000
0100
0010
0000
0000
1000
0000
0000
0100
0000
,  // measure 14
1000
0000
0000
0001
0100
0000
0000
0001
0010
0000
0001
0100
0000
0001
1000
0000
,  // measure 15
0001
0000
0000
0100
0010
0000
0000
1000
0010
0000
0000
0100
0000
0000
0010
0000
,  // measure 16
1000
0000
0001
0000
1000
0000
0001
0000
0010
0001
0100
0001
0000
1000
0001
0000
,  // measure 17
0100
0000
0000
0001
0100
0000
0000
0010
1000
0000
0000
0001
0000
0000
0010
0000
,  // measure 18
0001
0000
1000
0001
1000
0000
0001
0100
0001
0000
1000
0001
0000
0000
1000
0000
,  // measure 19
0010
0000
0000
1000
0001
0000
0000
0010
0100
0000
0000
1000
0000
0000
0001
0000
,  // measure 20
0100
0000
0000
0010
0100
0000
0000
0001
1000
0000
0000
0001
0000
0000
1000
0000
,  // measure 21
0001
1000
0000
0010
0000
0000
0100
0000
0010
0000
1000
0000
0002
0000
0000
0000
,  // measure 22
1003
0001
0000
0100
0000
0000
0010
0000
1000
0000
0001
0000
0020
0000
0000
0000
,  // measure 23
0031
1000
0000
0002
0000
0000
0200
0000
0003
0000
0301
0000
0020
0000
0000
0000
,  // measure 24
0000
0000
0032
0000
0000
0000
0000
0000
1003
0001
0000
1000
0000
0000
0001
0000
,  // measure 25
0100
0010
0000
1000
0000
0000
0001
0000
0010
0000
0100
0000
2000
0000
0000
0000
,  // measure 26
3001
0100
0000
0001
0000
0000
0010
0000
0001
0100
0000
0010
0000
0000
1000
0000
,  // measure 27
0002
0000
0000
2003
0000
0000
3200
0000
,  // measure 28
0310
0001
0010
0100
1000
0000
0000
0000
1001
0000
0000
0000
0110
0000
0001
1000
,  // measure 29
0001
0000
0000
0000
1100
0000
0000
0000
0011
0000
0000
0000
0110
0000
0001
0010
,  // measure 30
1000
0010
0001
0100
0020
0000
2000
3030
,  // measure 31
0101
0000
0000
0000
0011
0000
0000
0000
1100
0000
0000
0000
1001
0000
0100
0010
,  // measure 32
1000
0001
0010
0001
0200
0000
0002
0303
,  // measure 33
0012
0000
0000
0000
1003
0000
0000
0000
2100
0000
0000
0000
3100
0000
0010
0001
,  // measure 34
1000
0001
0100
0001
2001
0000
3010
0000
,  // measure 35
2001
3001
1002
1003
,  // measure 36
0010
1000
0001
0100
0001
0000
0000
0000
1000
0000
0000
0000
0011
0000
1000
0001
,  // measure 37
1001
0000
0000
1100
1100
0000
0011
0000
,  // measure 38
0000
0101
0101
0000
1001
0000
0000
1010
,  // measure 39
1001
0000
0000
0011
0011
0000
0101
0000
,  // measure 40
0000
0110
1001
0000
1100
0000
0011
0000
,  // measure 41
1001
0000
0000
0011
1100
0000
0101
0000
,  // measure 42
0000
1100
1001
0000
0011
0000
0000
0101
,  // measure 43
1010
0000
0000
1100
0011
0000
0101
0000
,  // measure 44
1001
1100
0110
1001
,  // measure 45
0220
0000
0000
0000
,  // measure 46
0330
0000
0000
0000
;

//---------------dance-single - ----------------
#NOTES:
     dance-single:
     :
     Hard:
     7:
     0.467,0.477,0.224,0.294,0.294: // measure 1
0000
0000
0000
0000
,  // measure 2
0000
0000
0000
0000
,  // measure 3
0000
0000
0000
0000
,  // measure 4
0000
0000
0000
0000
,  // measure 5
1001
0000
0000
0000
1000
0000
0000
0000
0010
0000
0000
0100
0000
0000
0001
0000
,  // measure 6
1000
0000
0000
0000
0001
0000
0000
0000
1100
0000
0000
1100
0000
0000
1100
0000
,  // measure 7
0000
0000
0000
0000
0001
0000
0000
0000
0100
0000
0000
0001
0000
0000
0010
0000
,  // measure 8
0001
0000
0000
0000
1000
0000
0000
0000
0010
0100
0010
0100
0000
0010
0100
0000
,  // measure 9
0001
0000
0000
0000
1000
0000
0000
0000
0001
0000
0000
1000
0000
0000
0001
0000
,  // measure 10
1000
0000
0000
0000
0001
0000
0000
0000
0110
0000
0000
0110
0000
0000
0110
0000
,  // measure 11
0000
0000
0000
0000
0001
0000
0000
0000
1000
0000
0000
0001
0000
0001
0010
0000
,  // measure 12
0001
0000
0000
0000
1000
0000
0000
0000
0001
0000
0100
0001
0200
0000
0000
0000
,  // measure 13
0310
0000
0000
1000
0000
0000
0001
0000
0100
0000
0000
0001
0000
0000
1000
0000
,  // measure 14
0001
0000
0100
0000
0001
0000
0100
0000
0010
0000
0000
1000
0000
0000
0001
0000
,  // measure 15
0100
0000
0000
0010
1000
0000
0000
0010
0100
0000
0000
0001
0000
0000
0010
0000
,  // measure 16
0001
0000
0010
0000
0100
0000
1000
0000
0001
1000
0001
1000
0000
0001
1000
0000
,  // measure 17
0001
0000
0000
1000
0000
0000
0010
0000
1000
0000
0000
0010
0000
0000
0100
0000
,  // measure 18
0001
0000
0010
0000
0001
0000
0100
0000
0010
0000
1000
0001
0000
0000
0100
0000
,  // measure 19
0001
0000
0000
1000
0100
0000
0000
1000
0010
0000
0000
1000
0000
0000
0001
0000
,  // measure 20
0100
0000
0000
0001
0100
0000
0000
0010
1000
0000
0000
0001
0000
0000
1000
0000
,  // measure 21
0001
1000
0000
0001
0000
0000
1000
0000
0001
0000
1000
0000
0002
0000
0000
0000
,  // measure 22
0103
0001
0000
1000
0000
0000
0010
0000
0100
0000
0001
0000
1000
0000
0000
0000
,  // measure 23
0001
1000
0000
0002
0000
0000
0203
0000
0000
0000
0310
0000
2000
0000
0000
0000
,  // measure 24
0000
3002
0000
0000
0000
0100
0000
0100
,  // measure 25
1003
0010
0000
1000
0000
0000
0001
0000
0010
0000
0001
0000
0200
0000
0010
0000
,  // measure 26
0310
1000
0000
0010
0000
0000
1000
0000
0001
0010
0000
0001
0000
0000
0100
0000
,  // measure 27
0002
0000
0000
2003
0000
0000
3002
0000
,  // measure 28
1003
0001
1000
0001
1000
0000
0000
0000
0010
0000
0000
0000
0100
0000
0010
1000
,  // measure 29
0010
0000
0000
0000
1000
0000
0000
0000
0011
0000
0000
0000
0100
0000
0001
1000
,  // measure 30
0001
0100
0010
1000
0002
0000
0103
0000
,  // measure 31
1010
0000
0000
0000
1000
0000
0000
0000
0101
0000
0000
0000
0001
0000
1000
0001
,  // measure 32
1000
0010
0100
0010
2000
0000
3001
0000
,  // measure 33
0101
0000
0000
0000
1000
0000
0000
0000
0101
0000
0000
0000
1000
0000
0001
0100
,  // measure 34
0001
1000
0010
0100
0002
0000
0013
0000
,  // measure 35
1010
0001
1010
0001
,  // measure 36
1000
0010
1000
0010
1000
0000
0000
0000
0001
0000
0000
0000
0100
0000
0001
1000
,  // measure 37
0002
0000
0000
1003
0001
0000
2000
0000
,  // measure 38
0000
3010
0100
0000
0020
0000
0000
1030
,  // measure 39
0002
0000
0000
1003
0010
0000
0200
0000
,  // measure 40
0000
0301
0010
0000
0001
0000
1001
0000
,  // measure 41
0200
0000
0000
0310
1000
0000
0002
0000
,  // measure 42
0000
0013
0100
0000
2000
0000
0000
3001
,  // measure 43
0200
0000
0000
0310
1000
0000
0002
0000
,  // measure 44
1003
1010
0101
1001
,  // measure 45
2002
0000
0000
0000
,  // measure 46
3003
0000
0000
0000
;

//---------------dance-single - ----------------
#NOTES:
     dance-single:
     :
     Medium:
     5:
     0.338,0.450,0.118,0.200,0.053: // measure 1
0000
0000
0000
0000
,  // measure 2
0000
0000
0000
0000
,  // measure 3
0000
0000
0000
0000
,  // measure 4
0000
0000
0000
0000
,  // measure 5
1000
0000
0010
0000
1000
0000
0000
0001
,  // measure 6
0100
0000
0001
0000
1000
0000
0000
0001
,  // measure 7
0010
0000
0001
0000
0100
0000
0000
0010
,  // measure 8
1000
0000
0000
0000
0001
0000
0000
0000
0100
0000
0000
0001
0000
0000
0100
0000
,  // measure 9
0001
0000
1000
0000
0001
0000
0000
1000
,  // measure 10
0100
0000
1000
0000
0010
0000
0000
0100
,  // measure 11
0010
0000
1000
0000
0001
0000
0000
0010
,  // measure 12
0001
0000
0000
0000
0100
0000
0000
0000
0001
0000
0000
0001
0000
0000
0001
0000
,  // measure 13
1000
0000
0000
0000
0010
0000
0000
0000
1000
0000
0000
0001
0000
0000
1000
0000
,  // measure 14
0001
0000
0000
0000
0100
0000
0000
0000
0010
0000
0000
0100
0000
0000
0010
0000
,  // measure 15
0100
0000
0000
0000
0010
0000
0000
0000
1000
0000
0000
0010
0000
0000
1000
0000
,  // measure 16
0010
0000
0000
0000
0100
0000
0000
0000
0001
0000
0000
0100
0000
0000
0001
0000
,  // measure 17
0100
0000
0000
0010
0100
0000
0000
0010
,  // measure 18
1000
0000
0000
0000
0001
0000
0000
0000
1000
0000
0000
0001
0000
0000
2000
0000
,  // measure 19
0000
0000
0000
0000
0000
0000
0000
0000
3001
0000
0000
0100
0000
0000
0002
0000
,  // measure 20
0000
0000
0000
0000
0000
0000
0000
0000
1003
0000
0000
0001
0000
0000
1000
0000
,  // measure 21
0001
0000
1000
0000
0010
0100
0001
0000
,  // measure 22
1000
0000
0001
0000
0010
0001
0100
0000
,  // measure 23
0010
0000
1000
0000
0001
0100
0002
0000
,  // measure 24
0000
2003
0000
0000
0000
0000
0000
0000
,  // measure 25
3010
0000
0100
0000
0001
1000
0100
0000
,  // measure 26
1000
0000
0001
0000
0100
0000
0001
0010
,  // measure 27
0001
0000
0000
1100
0000
0000
0001
0000
,  // measure 28
0100
0010
0100
0000
0010
0000
1000
0000
,  // measure 29
0002
1003
0002
0103
,  // measure 30
0001
1000
0001
1000
0002
0000
0103
0000
,  // measure 31
0020
0130
0020
1030
,  // measure 32
0001
0010
0100
0010
0002
0000
1003
0000
,  // measure 33
0020
1030
0002
0103
,  // measure 34
0010
1000
0100
1000
0020
0000
0130
0000
,  // measure 35
1002
0013
1200
1300
,  // measure 36
1001
0110
1001
0110
,  // measure 37
1000
0000
0000
0001
0100
0000
0001
0000
,  // measure 38
0000
1000
0010
0000
1000
0000
0000
0001
,  // measure 39
0100
0000
0000
0001
1000
0000
0001
0000
,  // measure 40
0000
0100
0001
0000
1000
0000
0001
0000
,  // measure 41
1000
0000
0000
0010
1000
0000
0001
0000
,  // measure 42
0000
0100
0010
0000
1000
0000
0000
0001
,  // measure 43
0100
0000
0000
0001
1000
0000
0001
0000
,  // measure 44
1000
0100
0011
1100
,  // measure 45
2002
0000
0000
0000
,  // measure 46
3003
0000
0000
0000
;

//---------------dance-single - ----------------
#NOTES:
     dance-single:
     :
     Easy:
     3:
     0.193,0.238,0.000,0.153,0.000: // measure 1
0000
0000
0000
0000
,  // measure 2
0000
0000
0000
0000
,  // measure 3
0000
0000
0000
0000
,  // measure 4
0000
0000
0000
0000
,  // measure 5
1000
0000
1000
0001
,  // measure 6
1000
0000
0001
0100
,  // measure 7
0001
0000
0010
0001
,  // measure 8
0100
0000
0010
1000
,  // measure 9
0001
0000
0001
0000
,  // measure 10
1000
0100
1000
0000
,  // measure 11
0010
0000
0100
0000
,  // measure 12
0010
1000
0001
0000
,  // measure 13
0010
0000
0001
0000
,  // measure 14
0100
0001
1000
0000
,  // measure 15
0001
0000
0100
0000
,  // measure 16
0010
1000
0010
0000
,  // measure 17
1000
0000
0001
0000
,  // measure 18
1000
0001
1000
0000
,  // measure 19
0001
0000
0100
0000
,  // measure 20
0010
1000
0010
0000
,  // measure 21
1000
0100
1000
0000
,  // measure 22
0001
0100
0001
0000
,  // measure 23
0010
0001
0010
0002
,  // measure 24
0000
0000
0000
0000
,  // measure 25
0103
0010
1000
0000
,  // measure 26
0010
0100
0001
1000
,  // measure 27
0001
0000
1000
0000
,  // measure 28
0001
1000
0001
1000
,  // measure 29
0002
0000
2003
0000
,  // measure 30
3010
0100
0020
0000
,  // measure 31
2030
0000
3002
0000
,  // measure 32
0103
0010
2000
0000
,  // measure 33
3200
0000
0320
0000
,  // measure 34
0031
0100
0002
0000
,  // measure 35
2003
0000
3002
0000
,  // measure 36
1003
0010
1000
0010
,  // measure 37
1000
0000
0000
1000
,  // measure 38
0000
0000
0010
0000
,  // measure 39
0100
0000
0000
0100
,  // measure 40
0000
0000
0001
0000
,  // measure 41
0100
0000
0000
0100
,  // measure 42
0000
0000
0001
0000
,  // measure 43
1000
0000
0000
1000
,  // measure 44
0010
0010
0010
0010
,  // measure 45
0020
0000
0000
0000
,  // measure 46
0030
0000
0000
0000
;

//---------------dance-single - ----------------
#NOTES:
     dance-single:
     :
     Beginner:
     1:
     0.098,0.129,0.024,0.035,0.000: // measure 1
0000
0000
0000
0000
,  // measure 2
0000
0000
0000
0000
,  // measure 3
0000
0000
0000
0000
,  // measure 4
0000
0000
0000
0000
,  // measure 5
1000
0000
0000
0000
,  // measure 6
1000
0000
0000
0000
,  // measure 7
0010
0000
0000
0000
,  // measure 8
0010
0000
0000
0000
,  // measure 9
0100
0000
0000
0000
,  // measure 10
0100
0000
0000
0000
,  // measure 11
0001
0000
0000
0000
,  // measure 12
0001
0000
0000
0000
,  // measure 13
1000
0000
0000
0000
,  // measure 14
0001
0000
0001
0000
,  // measure 15
0100
0000
0000
0000
,  // measure 16
0010
0000
0010
0000
,  // measure 17
1000
0000
0000
0000
,  // measure 18
0001
0000
0001
0000
,  // measure 19
1000
0000
0000
0000
,  // measure 20
0010
0000
0010
0000
,  // measure 21
1000
0000
1000
0000
,  // measure 22
0001
0000
0001
0000
,  // measure 23
1000
0000
2000
0000
,  // measure 24
0000
0000
0000
0000
,  // measure 25
3010
0000
0010
0000
,  // measure 26
0100
0000
0100
0000
,  // measure 27
0020
0000
0000
0000
,  // measure 28
2030
0000
0000
0000
,  // measure 29
3001
0000
0001
0000
,  // measure 30
0001
0000
0000
0000
,  // measure 31
0100
0000
0100
0000
,  // measure 32
0100
0000
0000
0000
,  // measure 33
0010
0000
0010
0000
,  // measure 34
0010
0000
0000
0000
,  // measure 35
1000
0000
1000
0000
,  // measure 36
1001
0000
0000
0000
,  // measure 37
0010
0000
0000
0000
,  // measure 38
0010
0000
0000
0000
,  // measure 39
0100
0000
0000
0000
,  // measure 40
0100
0000
0000
0000
,  // measure 41
0001
0000
0000
0000
,  // measure 42
0001
0000
0000
0000
,  // measure 43
1000
0000
0000
0000
,  // measure 44
1000
0000
0000
0000
,  // measure 45
1001
0000
0000
0000
;
