#TITLE:Water Warning;
#SUBTITLE:Overclocked Remix;
#ARTIST:DJ Seith;
#TITLETRANSLIT:;
#SUBTITLETRANSLIT:;
#ARTISTTRANSLIT:;
#CREDIT:;
#BANNER:Water Warning.png;
#BACKGROUND:black-bg.PNG;
#LYRICSPATH:;
#CDTITLE:kykaCD.png;
#MUSIC:Water Warning.mp3;
#OFFSET:-0.020;
#SAMPLESTART:27.440;
#SAMPLELENGTH:13.720;
#SELECTABLE:YES;
#DISPLAYBPM:*;
#BPMS:0.000=140.000,112.000=280.000,192.000=140.000,256.000=280.000,287.000=140.000,296.000=105.000;
#STOPS:287.000=1.620
;
#BGCHANGES:;

//---------------dance-single - ----------------
#NOTES:
     dance-single:
     :
     Challenge:
     9:
     0.655,0.719,0.027,0.027,0.127: // measure 1
1000
0001
0000
0000
1000
0001
0000
0000
,  // measure 2
0100
0010
0000
0000
0100
0010
0000
0000
,  // measure 3
1000
0100
0000
0000
0010
0001
0000
0000
,  // measure 4
1000
0010
0000
0000
0100
0001
0000
0000
,  // measure 5
1000
0100
1000
0010
0100
0001
0010
0001
,  // measure 6
0100
0001
1000
0100
1000
0010
0100
0010
,  // measure 7
1000
0001
0100
0001
1000
0100
1000
0010
,  // measure 8
0100
0001
0010
0001
0100
0001
1000
0010
,  // measure 9
1000
0100
0000
0000
1000
0010
0000
0000
,  // measure 10
0100
0010
0000
0000
1000
0001
0000
0000
,  // measure 11
1000
0100
0010
0001
,  // measure 12
0100
0001
1000
0010
,  // measure 13
1000
0100
1000
0010
,  // measure 14
0100
0000
0000
0000
0000
0001
0000
0000
1000
0000
0000
0000
0000
0010
0000
0000
,  // measure 15
1000
0100
1000
0010
0100
0001
0010
0001
,  // measure 16
0100
0001
1000
0100
1000
0010
0100
0001
,  // measure 17
1000
0100
1000
0010
,  // measure 18
0100
0000
0000
0000
0000
0001
0000
0000
1000
0000
0000
0000
0000
0100
0000
0000
,  // measure 19
0010
0001
0100
0010
1000
0100
1000
0010
,  // measure 20
0100
0001
1000
0100
1000
0010
0100
0001
,  // measure 21
1000
0000
0010
0000
0100
0001
0100
0001
0100
0000
0010
0000
1000
0000
0100
0000
,  // measure 22
1000
0000
0010
0000
0100
0010
0100
0010
0100
0000
0001
0000
1000
0000
0100
0000
,  // measure 23
1000
0100
1000
0100
0010
0001
0010
0001
,  // measure 24
0100
0001
0100
0001
1000
0010
1000
0010
,  // measure 25
1000
0000
0001
0000
0100
0010
0100
0010
0100
0000
0001
0000
0010
0000
0100
0000
,  // measure 26
1000
0000
0001
0000
0010
0001
0010
0001
0010
0000
0100
0000
1000
0000
0010
0000
,  // measure 27
0100
0001
0100
0010
1000
0100
1000
0010
,  // measure 28
0100
0000
0001
0000
0010
0000
0000
0000
0100
0000
0001
0000
1000
0001
1000
0001
,  // measure 29
0100
0010
0100
0010
0100
0010
0100
0010
,  // measure 30
1000
0010
1000
0010
1000
0010
1000
0010
,  // measure 31
1000
0001
1000
0001
1000
0001
1000
0001
,  // measure 32
0010
0001
0010
0001
0010
0001
0010
0001
,  // measure 33
0100
0001
0100
0001
0100
0001
0100
0001
,  // measure 34
0100
0010
0100
0010
0100
0010
0100
0010
,  // measure 35
0100
0001
1000
0100
,  // measure 36
1000
0010
0100
0010
,  // measure 37
1000
0100
1000
0100
0010
0001
0010
0001
,  // measure 38
0100
0001
0100
0001
0100
0010
0100
0010
,  // measure 39
1000
0010
1000
0010
1000
0100
1000
0100
,  // measure 40
1000
0001
1000
0001
0100
0001
0100
0001
,  // measure 41
0100
0000
0010
0000
,  // measure 42
1000
0000
1001
0000
,  // measure 43
0100
0000
0010
0000
,  // measure 44
0001
0000
1001
0000
,  // measure 45
0001
0010
0100
1000
0001
0100
0010
1000
,  // measure 46
0001
0010
0001
0010
0001
0100
0001
0100
,  // measure 47
0010
1000
0010
1000
0010
0100
0010
0100
,  // measure 48
0001
1000
0010
1000
0001
0010
0100
1000
,  // measure 49
0001
1000
0010
0100
,  // measure 50
0001
0000
0000
0000
0000
1000
0000
0000
0010
0000
0000
0000
0000
0100
0000
0000
,  // measure 51
0010
1000
0001
0100
0001
0010
0001
0100
,  // measure 52
0010
1000
0100
1000
0010
0100
0010
1000
,  // measure 53
0001
1000
0010
0100
,  // measure 54
0001
0000
0000
0000
0000
1000
0000
0000
0100
0000
0000
0000
0000
1000
0000
0000
,  // measure 55
0001
1000
0100
1000
0010
0100
0001
0010
,  // measure 56
0001
1000
0001
1000
0100
1000
0010
0100
,  // measure 57
0001
0000
0100
0000
0010
1000
0010
1000
0010
0000
0100
0000
0001
0000
0010
0000
,  // measure 58
0001
0000
0100
0000
0010
0100
0010
0100
0010
0000
1000
0000
0001
0000
0010
0000
,  // measure 59
0001
0010
0001
0010
0100
1000
0100
1000
,  // measure 60
0010
1000
0010
1000
0001
0100
0001
0100
,  // measure 61
0001
0000
1000
0000
0010
0100
0010
0100
0010
0000
1000
0000
0100
0000
0010
0000
,  // measure 62
0001
0000
1000
0000
0100
1000
0100
1000
0100
0000
0010
0000
0001
0000
0100
0000
,  // measure 63
0010
1000
0010
0100
0001
0010
0001
0100
,  // measure 64
0010
0000
1000
0000
0100
0000
0000
0000
0010
0000
1000
0000
0001
1000
0001
1000
,  // measure 65
0010
0100
0010
0100
0010
0100
0010
0100
,  // measure 66
0001
0100
0001
0100
0001
0100
0001
0100
,  // measure 67
0001
1000
0001
1000
0001
1000
0001
1000
,  // measure 68
0100
1000
0100
1000
0100
1000
0100
1000
,  // measure 69
0010
1000
0010
1000
0010
1000
0010
1000
,  // measure 70
0010
0100
0010
0100
0010
0100
0010
0100
,  // measure 71
0010
1000
0001
0010
,  // measure 72
0001
0100
0010
0100
,  // measure 73
0020
0000
0000
0000
,  // measure 74
0030
0000
0000
0000
,  // measure 75
1000
0010
0100
0010
1000
0001
0100
0001
,  // measure 76
2002
0000
3003
0000
;

//---------------dance-single - ----------------
#NOTES:
     dance-single:
     :
     Hard:
     8:
     0.619,0.719,0.036,0.036,0.127:
1000
0100
0000
0000
1000
0100
0000
0000
,
0010
0001
0000
0000
0010
0001
0000
0000
,
0100
0001
0000
0000
0100
0001
0000
0000
,
1000
0010
0000
0000
1000
0010
0000
0000
,
1000
0100
1000
0100
0010
0001
0010
0001
,
0100
0001
0100
0001
0100
0010
0100
0010
,
1000
0010
1000
0010
1000
0100
1000
0100
,
0010
0001
0010
0001
0100
0001
0100
0001
,
1000
0001
0000
0000
1000
0100
0000
0000
,
1000
0010
0000
0000
0100
0001
0000
0000
,
1000
0100
1000
1000
,
0010
0100
0001
0001
,
1000
0001
1000
0001
,
1000
0000
0000
0000
0000
0010
0000
0000
0100
0000
0000
0000
0000
0010
0000
0000
,
0100
0001
1000
0100
1000
0100
1000
0100
,
0010
0001
0100
0001
0100
0010
0100
0010
,
0100
0001
1000
0010
,
0100
0000
0000
0000
0000
0010
0000
0000
1000
0000
0000
0000
0000
0001
0000
0000
,
0010
0001
0010
0001
0100
0010
0100
0010
,
1000
0100
1000
0100
0010
0001
0010
0001
,
1000
0000
0001
0000
1000
0001
1000
0001
1000
0000
0001
0000
1000
0000
0001
0000
,
0100
0000
0010
0000
0100
0010
0100
0010
0100
0000
0010
0000
0100
0000
0010
0000
,
0100
0001
0100
0001
1000
0100
1000
0100
,
0010
0001
0010
0001
0100
0010
0100
0010
,
1000
0000
0100
0000
1000
0100
1000
0100
0010
0000
0001
0000
0010
0000
0001
0000
,
1000
0000
0010
0000
1000
0010
1000
0010
0100
0000
0001
0000
0100
0000
0001
0000
,
0100
0010
0100
0010
1000
0001
1000
0001
,
1000
0000
0100
0000
1000
0000
0000
0000
0010
0000
1000
0000
0001
1000
0001
1000
,
0001
1000
0001
1000
0001
1000
0001
1000
,
0001
0010
0001
0010
0001
0010
0001
0010
,
0100
0010
0100
0010
0100
0010
0100
0010
,
0100
1000
0100
1000
0100
1000
0100
1000
,
0001
1000
0001
1000
0001
1000
0001
1000
,
0001
0100
0001
0100
0001
0100
0001
0100
,
0001
1000
0100
1000
,
0010
0100
0001
1000
,
0100
1000
0010
0100
,
0001
1000
0100
1000
,
0010
0100
0001
1000
,
0100
1000
0010
0100
,
0001
0000
0001
0000
,
1000
0000
2000
0000
,
3010
0000
0010
0000
,
0100
0000
0200
0000
,
0301
1000
0100
1000
,
0010
0100
0001
1000
,
1001
1000
1100
0010
,
0110
0000
1001
0000
0001
0010
0100
1000
,
0001
1000
0001
1000
,
0001
0000
0000
0000
0000
0100
0000
0000
0010
0000
0000
0000
0000
0100
0000
0000
,
0010
1000
0001
0010
0001
0010
0001
0010
,
0100
1000
0010
1000
0010
0100
0010
0100
,
0010
1000
0001
0100
,
0010
0000
0000
0000
0000
0100
0000
0000
0001
0000
0000
0000
0000
1000
0000
0000
,
0100
1000
0100
1000
0010
0100
0010
0100
,
0001
0010
0001
0010
0100
1000
0100
1000
,
0001
0000
1000
0000
0001
1000
0001
1000
0001
0000
1000
0000
0001
0000
1000
0000
,
0010
0000
0100
0000
0010
0100
0010
0100
0010
0000
0100
0000
0010
0000
0100
0000
,
0010
1000
0010
1000
0001
0010
0001
0010
,
0100
1000
0100
1000
0010
0100
0010
0100
,
0001
0000
0010
0000
0001
0010
0001
0010
0100
0000
1000
0000
0100
0000
1000
0000
,
0001
0000
0100
0000
0001
0100
0001
0100
0010
0000
1000
0000
0010
0000
1000
0000
,
0010
0100
0010
0100
0001
1000
0001
1000
,
0001
0000
0010
0000
0001
0000
0000
0000
0100
0000
0001
0000
1000
0001
1000
0001
,
1000
0001
1000
0001
1000
0001
1000
0001
,
1000
0100
1000
0100
1000
0100
1000
0100
,
0010
0100
0010
0100
0010
0100
0010
0100
,
0010
0001
0010
0001
0010
0001
0010
0001
,
1000
0001
1000
0001
1000
0001
1000
0001
,
1000
0010
1000
0010
1000
0010
1000
0010
,
1000
0001
0010
0001
,
0100
0010
1000
0001
,
2000
0000
0000
0000
,
3000
0000
0000
0000
,
1000
0100
1000
0100
0010
0001
0010
0001
,
0200
0000
0300
0000
;

//---------------dance-single - ----------------
#NOTES:
     dance-single:
     :
     Medium:
     6:
     0.411,0.479,0.073,0.036,0.036:
1000
0000
1001
0000
,
0001
0000
1001
0000
,
1000
0000
1001
0000
,
0001
0000
1001
0000
,
1000
0000
0100
0000
1000
0010
0100
0010
,
1000
0000
0001
0000
0100
0001
0010
0001
,
0100
0000
0010
0000
1000
0100
1000
0010
,
0100
0000
0001
0000
0010
0001
1000
0001
,
1000
0000
1100
0000
,
0001
0000
0011
0000
,
1000
0100
0010
0001
,
0100
0010
1000
0001
,
1000
0100
1000
0010
,
0100
0000
0000
0000
0000
0001
0000
0000
0001
0000
0000
0000
0000
1000
0000
0000
,
1000
0000
0100
0000
0010
0001
0010
0000
,
0100
0000
1000
0000
0010
0100
0001
0000
,
1000
0010
0100
0001
,
1000
0000
0000
0000
0000
0010
0000
0000
0010
0000
0000
0000
0000
0100
0000
0000
,
0100
0000
0001
0000
1000
0001
0100
0000
,
0001
0000
1000
0000
0100
1000
0010
0000
,
1000
0000
0001
0100
0001
0000
0001
0000
,
1000
0000
0100
1000
0100
0000
0100
0000
,
0010
0001
0010
0000
0100
1000
0100
0000
,
0010
0100
0010
0000
0001
1000
0001
0000
,
1000
0000
0001
1000
0100
0000
0100
0000
,
1000
0000
0010
0100
0001
0000
0001
0000
,
1000
0001
0100
0000
0010
1000
0001
0000
,
1000
0001
1000
0000
0001
1000
0002
0000
,
1003
0100
1000
0010
,
0100
0001
1000
0001
,
0100
0001
0010
0001
,
0010
0100
0010
0001
,
1000
0100
1000
0010
,
0100
0001
1000
0001
,
1000
0000
0010
0000
,
1000
0000
0001
0000
,
1000
0001
1000
0001
,
0100
0010
0100
0010
,
1000
0100
1000
0100
,
0010
0001
0010
0001
,
0100
0000
0010
0000
,
1000
0000
0001
0000
,
0100
0000
0001
0000
,
1000
0000
0001
0000
,
1000
0100
1000
0100
,
0010
0001
0010
0001
,
0110
0000
1001
0000
,
1000
0001
1000
0010
,
0001
1000
0001
0010
,
1000
0000
0000
0000
0000
1000
0000
0000
1000
0000
0000
0000
0000
0001
0000
0000
,
0001
0000
0010
0000
0100
1000
0100
0000
,
0010
0000
0001
0000
0100
0010
1000
0000
,
0001
0100
0010
1000
,
0001
0000
0000
0000
0000
0100
0000
0000
0100
0000
0000
0000
0000
0010
0000
0000
,
0010
0000
1000
0000
0001
1000
0010
0000
,
1000
0000
0001
0000
0010
0001
0100
0000
,
0001
0000
1000
0010
1000
0000
1000
0000
,
0001
0000
0010
0001
0010
0000
0010
0000
,
0100
1000
0100
0000
0010
0001
0010
0000
,
0100
0010
0100
0000
1000
0001
1000
0000
,
0001
0000
1000
0001
0010
0000
0010
0000
,
0001
0000
0100
0010
1000
0000
1000
0000
,
0001
1000
0010
0000
0100
0001
1000
0000
,
0001
1000
0001
0000
1000
0001
2000
0000
,
3001
0010
0001
0100
,
0010
1000
0001
1000
,
0010
1000
0100
1000
,
0100
0010
0100
1000
,
0001
0010
0001
0100
,
0010
1000
0001
1000
,
0001
0000
0100
0000
,
0001
0000
1000
0010
,
2000
0000
0000
0000
,
3000
0000
0000
0000
,
1000
0010
0100
0001
,
2000
0000
3000
0000
;

//---------------dance-single - ----------------
#NOTES:
     dance-single:
     :
     Easy:
     4:
     0.271,0.308,0.009,0.145,0.000:
1000
0000
0001
0000
,
0100
0000
0010
0000
,
1000
0000
0100
0000
,
1000
0000
0001
0000
,
1000
0001
0100
0001
,
0010
0001
0100
0010
,
1000
0100
1000
0010
,
0100
0001
1000
0001
,
1000
0000
0010
0000
,
1000
0000
0001
0000
,
0100
0010
1000
0001
,
0100
0001
0010
0001
,
0100
0010
1000
0010
,
1000
0000
0001
0000
,
0100
0010
1000
0001
,
0100
0001
1000
0001
,
1000
0010
0100
0010
,
1000
0000
0001
0000
,
1000
0010
1000
0010
,
0100
0001
1000
0001
,
2000
0010
3010
0000
,
0020
1000
1030
0000
,
1000
0001
0100
0001
,
0010
0001
0100
0001
,
2000
0001
3001
0000
,
0020
0100
0130
0000
,
0010
1000
0010
0100
,
0010
0020
0000
0000
,
1030
0000
1000
0000
,
0001
0000
0001
0000
,
0100
0000
0100
0000
,
0010
0000
0010
0000
,
0100
0000
0100
0000
,
0001
0000
0001
0000
,
2000
0000
0000
0000
,
3002
0000
0000
0000
,
0203
0000
0000
0000
,
0000
0000
0000
0000
,
0000
0000
0000
0000
,
0000
0000
0000
0000
,
0310
0000
0000
0000
,
0010
0000
0010
0000
,
0100
0000
0000
0000
,
0100
0000
0100
0000
,
0200
0000
0000
0000
,
0000
0000
0000
0000
,
0301
0000
0001
0000
,
0001
1000
0001
1000
,
0010
0100
0001
0100
,
0001
0000
1000
0000
,
0010
0100
0001
1000
,
0010
1000
0001
1000
,
0001
0100
0010
0100
,
0001
0000
1000
0000
,
0001
0100
0001
0100
,
0010
1000
0001
1000
,
0002
0100
0103
0000
,
0200
0001
0301
0000
,
0001
1000
0010
1000
,
0100
1000
0010
1000
,
0002
1000
1003
0000
,
0200
0010
0310
0000
,
0100
0001
0100
0010
,
0100
0200
0000
0000
,
0301
0000
0001
0000
,
1000
0000
1000
0000
,
0010
0000
0010
0000
,
0100
0000
0100
0000
,
0010
0000
0010
0000
,
1000
0000
1000
0000
,
0001
0000
1000
0000
,
0001
0000
0000
0100
,
0010
0000
0000
0000
,
0000
0000
0000
0000
,
1000
0000
0001
0000
,
0220
0000
0330
0000
;

//---------------dance-single - ----------------
#NOTES:
     dance-single:
     :
     Beginner:
     2:
     0.146,0.171,0.000,0.199,0.005:
0000
0000
1000
0000
,
0000
0000
0001
0000
,
0000
0000
0100
0000
,
0000
0000
0010
0000
,
1000
0000
0010
0000
,
0100
0000
0001
0000
,
1000
0000
0001
0000
,
1000
0000
0010
0000
,
0000
0000
0100
0000
,
0000
0000
0010
0000
,
1000
0000
0000
0000
,
0001
0000
0000
0000
,
0100
0000
0010
0000
,
0100
0000
0000
0000
,
0001
0000
1000
0000
,
0001
0000
0100
0000
,
0010
0000
1000
0000
,
0010
0000
0000
0000
,
0100
0000
0001
0000
,
0100
0000
0001
0000
,
1000
0000
0001
0000
,
1000
0000
0001
0000
,
0200
0000
0000
0000
,
0000
0000
0000
0000
,
0310
0000
1000
0000
,
0001
0000
1000
0000
,
0020
0000
0000
0000
,
0130
0000
0000
0000
,
0002
0000
0000
0000
,
2003
0000
0000
0000
,
3020
0000
0000
0000
,
0230
0000
0000
0000
,
0302
0000
0000
0000
,
2003
0000
0000
0000
,
3002
0000
0000
0000
,
0000
0000
0000
0000
,
2003
0000
0000
0000
,
0000
0000
0000
0000
,
0000
0000
0000
0000
,
0000
0000
0000
0000
,
3000
0000
0000
0000
,
0001
0000
0000
0000
,
0000
0000
0000
0000
,
1000
0000
0000
0000
,
0002
0000
0000
0000
,
0000
0000
0000
0000
,
0103
0000
0100
0000
,
0100
0000
0100
0000
,
0010
0000
0100
0000
,
0010
0000
0000
0000
,
1000
0000
0001
0000
,
1000
0000
0010
0000
,
0100
0000
0001
0000
,
0100
0000
0000
0000
,
0010
0000
1000
0000
,
0010
0000
1000
0000
,
0001
0000
1000
0000
,
0001
0000
1000
0000
,
0020
0000
0000
0000
,
0000
0000
0000
0000
,
0130
0000
0001
0000
,
1000
0000
0001
0000
,
0200
0000
0000
0000
,
0310
0000
0000
0000
,
2000
0000
0000
0000
,
3002
0000
0000
0000
,
0203
0000
0000
0000
,
0320
0000
0000
0000
,
2030
0000
0000
0000
,
3002
0000
0000
0000
,
0003
2000
0000
0000
0000
0000
0000
0000
0000
0000
0000
0000
0000
0000
0000
0000
0000
0000
0000
0000
0000
0000
0000
0000
0000
0000
0000
0000
0000
0000
0000
0000
0000
0000
0000
0000
0000
0000
0000
0000
0000
0000
0000
0000
0000
0000
0000
0000
0000
0000
0000
0000
0000
0000
0000
0000
0000
0000
0000
0000
0000
0000
0000
0000
0000
0000
0000
0000
0000
0000
0000
0000
0000
0000
0000
0000
0000
0000
0000
0000
0000
0000
0000
0000
0000
0000
0000
0000
0000
0000
0000
0000
0000
0000
0000
0000
0000
0000
0000
0000
0000
0000
0000
0000
0000
0000
0000
0000
0000
0000
0000
0000
0000
0000
0000
0000
0000
0000
0000
0000
0000
0000
0000
0000
0000
0000
0000
0000
0000
0000
0000
0000
0000
0000
0000
0000
0000
0000
0000
0000
0000
0000
0000
0000
0000
0000
0000
0000
0000
0000
0000
0000
0000
0000
0000
0000
0000
0000
0000
0000
0000
0000
0000
0000
0000
0000
0000
0000
0000
0000
0000
0000
0000
0000
0000
0000
0000
0000
0000
0000
0000
0000
0000
0000
0000
0000
0000
0000
0000
0000
0000
0000
,
0000
0000
0000
3000
,
0001
0000
0000
0000
,
0000
0000
0000
0000
,
2000
0000
0000
0000
,
0002
0000
3003
0000
;
