#TITLE:Thing Called Love;
#SUBTITLE:(Above & Beyond 2011 Club Mix);
#ARTIST:Above & Beyond feat. Richard Bedford;
#TITLETRANSLIT:;
#SUBTITLETRANSLIT:;
#ARTISTTRANSLIT:;
#CREDIT:;
#BANNER:;
#BACKGROUND:;
#LYRICSPATH:;
#CDTITLE:;
#MUSIC:Thing Called Love (Above & Beyond 2011 Club Mix).mp3;
#OFFSET:-0.126;
#SAMPLESTART:78.590;
#SAMPLELENGTH:14.300;
#SELECTABLE:YES;
#BPMS:0.000=133.930,172.000=133.990;
#STOPS:148.500=0.460
,151.500=0.460
,162.500=0.460
,165.500=0.460
;
#BGCHANGES:;

//---------------dance-single - ----------------
#NOTES:
     dance-single:
     :
     Hard:
     7:
     0.417,0.543,0.391,0.409,0.027: // measure 1
0000
0000
0000
0000
,  // measure 2
0000
0000
0000
0000
,  // measure 3
1000
0001
0100
0000
0010
1000
0000
1100
,  // measure 4
0000
0000
1001
0000
0000
0000
0001
0000
0100
0000
0000
0100
0000
0000
0100
0000
,  // measure 5
0010
0000
1000
0000
0010
0000
0000
0000
1000
0001
0000
1000
0001
0000
0100
0000
,  // measure 6
0010
0000
1000
0000
0100
0000
0000
0000
0010
0001
0000
0010
0100
0000
1000
0000
,  // measure 7
0010
0100
0001
0000
1000
0100
0000
1100
,  // measure 8
0000
1010
0000
0110
0000
0101
0000
0001
,  // measure 9
2001
0000
0000
0000
,  // measure 10
0000
0000
0000
0000
,  // measure 11
0000
0000
0000
0000
,  // measure 12
3000
0000
0000
0000
,  // measure 13
1010
0000
0000
0110
0000
0000
1002
0000
,  // measure 14
0000
0000
0000
0203
0000
0000
0000
0000
,  // measure 15
0000
0000
0000
0320
0000
0000
0000
0000
,  // measure 16
0000
0000
0000
2030
0000
0000
0000
0000
,  // measure 17
3001
0000
0000
1010
0000
0000
0210
0000
,  // measure 18
0000
0000
0000
0302
0000
0000
0000
0000
,  // measure 19
0000
0000
0000
2003
0000
0000
0000
0000
,  // measure 20
0000
0000
0000
3020
0000
0000
0130
0010
,  // measure 21
2000
0000
0000
3002
0000
0000
0203
0000
,  // measure 22
0000
0300
0000
0000
0000
0010
1000
0002
,  // measure 23
0000
0000
0000
0000
0000
0000
1003
0020
,  // measure 24
0000
0000
0000
0130
0000
0001
1000
0001
,  // measure 25
0200
0000
0000
0320
0000
0000
2030
0000
,  // measure 26
0000
0000
3000
0000
0000
0001
0100
0002
,  // measure 27
0000
0000
0000
0000
0000
0000
1003
0200
,  // measure 28
0000
0000
0000
0310
0000
1000
0001
1000
,  // measure 29
0020
0000
0000
2030
0000
0000
3002
0000
,  // measure 30
0000
0000
0000
0000
0003
0000
1000
0002
,  // measure 31
0000
0000
0000
0000
0000
0000
0003
0100
,  // measure 32
0010
1000
0100
1000
0010
0000
0110
0000
,  // measure 33
2002
0000
3003
0220
0000
0330
2002
0000
,  // measure 34
0000
0000
0000
0000
0000
0000
3003
1100
,  // measure 35
0000
0000
0000
0000
0020
0000
0000
2000
0000
0000
0000
0000
3030
0000
0001
0000
,  // measure 36
0100
0001
0010
0001
0100
0000
0110
0000
,  // measure 37
1010
1000
0100
1010
0000
0010
1000
0100
,  // measure 38
1000
1001
0001
0100
0001
0010
0100
1100
,  // measure 39
0010
0100
0010
1000
0100
1000
0010
0110
,  // measure 40
0000
1001
0000
0001
0101
0001
1000
1010
,  // measure 41
0000
0010
1000
0100
0010
0011
0001
0100
,  // measure 42
0010
1000
0010
0110
0010
1000
0100
1000
,  // measure 43
0001
0010
0001
0101
0000
1001
1000
0010
,  // measure 44
1010
0000
0100
0110
0000
0010
1010
0000
,  // measure 45
0010
0100
0000
0000
0010
1000
0001
0200
,  // measure 46
0010
0000
0001
0000
0310
0000
0010
2000
,  // measure 47
0001
0000
0010
0000
3010
0100
0010
1000
,  // measure 48
0002
0000
0103
0020
0000
1030
0002
0000
,  // measure 49
0100
0000
0010
0000
0103
0010
1000
0002
,  // measure 50
1000
0000
0100
0000
0013
0000
0001
0200
,  // measure 51
0010
0000
1000
0000
0310
1000
0100
0001
,  // measure 52
0200
0000
1300
0200
0000
0301
0200
0000
,  // measure 53
1000
0000
0010
0000
1300
0000
0001
2002
,  // measure 54
0000
0000
0000
0000
0000
0000
3003
0110
,  // measure 55
0010
1000
0100
0010
0001
0000
0101
0000
,  // measure 56
1001
0000
0000
1100
0000
0000
1000
0001
,  // measure 57
1000
0001
0000
0000
0010
1000
0010
0110
,  // measure 58
0000
0000
1001
1001
0000
0000
0000
0010
,  // measure 59
0100
0010
1000
0010
0100
0000
1001
0000
,  // measure 60
0000
0220
0000
0000
0000
0000
0330
0000
;

//---------------dance-single - ----------------
#NOTES:
     dance-single:
     :
     Challenge:
     9:
     0.558,0.815,0.864,0.555,0.045: // measure 1
0000
0000
0000
0000
,  // measure 2
0000
0000
0000
0000
,  // measure 3
1000
0100
1000
0000
0001
0110
0000
1010
,  // measure 4
0000
0000
1100
0000
0000
0000
1000
0000
0001
0000
0000
1000
0000
0000
0001
0000
,  // measure 5
1000
0000
0001
0000
1000
0000
0000
0000
0010
0100
0000
0010
1000
0100
0010
0001
,  // measure 6
0100
0000
0010
0000
1000
0000
0000
0000
1000
0001
0000
1000
0001
0100
0001
0100
,  // measure 7
0010
1000
0010
0000
1100
1100
0000
0110
,  // measure 8
0000
1001
0000
0011
0000
0101
0000
1010
,  // measure 9
2010
0001
0010
0100
,  // measure 10
0010
0001
0010
0001
,  // measure 11
0200
0000
0000
0000
,  // measure 12
3300
0000
0000
0000
,  // measure 13
2020
0000
3030
0220
0000
0330
2002
0000
,  // measure 14
0000
0000
3003
0110
0000
0000
0000
0000
,  // measure 15
0000
0000
0000
1010
0000
0000
0000
0000
,  // measure 16
0000
0000
0000
1100
0000
0000
0000
0000
,  // measure 17
2002
0000
3003
0022
0000
0033
2002
0000
,  // measure 18
0000
0000
3003
1010
0000
0000
0000
0000
,  // measure 19
0000
0000
0000
1001
0000
0000
0000
0000
,  // measure 20
0000
0000
0000
0202
0000
0303
0001
1000
,  // measure 21
1002
0000
0000
0203
0000
0000
0320
0000
,  // measure 22
0000
0000
0000
0000
0000
1030
0001
2000
,  // measure 23
0000
0000
0000
0000
0000
3000
0001
0002
,  // measure 24
0000
0000
0000
2003
0000
3001
0100
0001
,  // measure 25
2200
0000
3300
2020
0000
3030
0202
0000
,  // measure 26
0000
0000
0000
0000
0303
0001
1000
2200
,  // measure 27
0000
0000
0000
0000
0000
3300
1001
0220
,  // measure 28
0000
0000
0330
1001
0000
0001
0100
0001
,  // measure 29
2200
0000
3300
0220
0000
0330
2002
0000
,  // measure 30
0000
0000
0000
0000
0000
3003
1010
0220
,  // measure 31
0000
0000
0000
0000
0000
0000
0330
1000
,  // measure 32
0100
0010
0001
0100
0110
0000
1010
0000
,  // measure 33
2002
0000
3003
2020
0000
3030
0202
0000
,  // measure 34
0000
0000
0000
0000
0000
0000
0303
2002
,  // measure 35
0000
0000
3003
0000
0200
0000
0000
0002
0000
0000
0000
0000
0303
0000
0010
0000
,  // measure 36
1000
0010
0100
0001
0010
0000
0101
0000
,  // measure 37
0101
0001
0100
1010
0100
0010
0011
0101
,  // measure 38
1001
0110
1010
0110
1001
0011
0101
1001
,  // measure 39
1100
0010
0100
0001
0010
0001
0100
0010
,  // measure 40
0000
1010
0000
0101
0011
0100
0010
1100
,  // measure 41
1000
0010
0101
1010
0110
1001
0110
0011
,  // measure 42
1100
0101
0011
1001
0101
0010
1000
0100
,  // measure 43
0010
0001
0100
0110
0000
1010
0010
0100
,  // measure 44
0011
0001
0100
1010
0010
0100
1010
1000
,  // measure 45
0100
0010
0002
0000
0103
0010
1000
0100
,  // measure 46
0010
0001
2000
0000
3010
0100
0010
1000
,  // measure 47
0001
0100
0001
0010
0000
0100
0001
0010
,  // measure 48
1001
1000
0010
0110
0010
1000
1001
0010
,  // measure 49
1000
0001
0200
0000
0310
1000
0001
0010
,  // measure 50
0100
0010
0002
0000
0103
0010
1000
0010
,  // measure 51
0100
0001
0010
0100
0000
1000
0010
0100
,  // measure 52
1001
0100
0010
1001
0010
0100
1001
1000
,  // measure 53
0100
0010
2000
0000
3010
0001
0110
0011
,  // measure 54
1000
0001
0100
0010
2000
0000
0000
3001
,  // measure 55
0100
0001
1000
0100
0010
0000
0101
0000
,  // measure 56
1001
0000
0100
1100
0000
0010
0110
1000
,  // measure 57
0001
1000
0002
0000
0103
0010
1000
1001
,  // measure 58
0000
0000
0101
0101
0000
0000
0000
1010
,  // measure 59
0010
0100
0001
1000
1100
0000
0202
0000
,  // measure 60
0303
2002
0000
0000
0000
0000
3003
0000
;

//---------------dance-single - ----------------
#NOTES:
     dance-single:
     :
     Medium:
     5:
     0.310,0.435,0.045,0.136,0.014: // measure 1
0000
0000
0000
0000
,  // measure 2
0000
0000
0000
0000
,  // measure 3
0010
1000
0010
0000
0000
0100
0000
0100
,  // measure 4
0000
0000
0010
0000
0000
0000
0010
0000
1000
0000
0000
0100
0000
0000
1000
0000
,  // measure 5
0000
0000
0101
0000
0001
1000
0001
0000
,  // measure 6
1000
0100
1000
0000
0010
0100
0010
0000
,  // measure 7
1000
0100
1000
0000
0001
0100
0000
0010
,  // measure 8
0000
1000
0000
0100
0000
1000
0000
0010
,  // measure 9
2000
0000
0000
0000
,  // measure 10
0000
0000
0000
0000
,  // measure 11
0000
0000
0000
0000
,  // measure 12
3000
0000
0000
0000
,  // measure 13
0000
0000
0000
0000
,  // measure 14
0000
0220
0000
0000
0000
0000
0000
0000
0000
0000
0000
0000
0000
0000
0000
0000
0000
0000
0000
0000
0000
0000
0000
0000
0000
0000
0000
0000
0000
0000
0000
0000
0000
0000
0000
0000
0000
0000
0000
0000
0000
0000
0000
0000
0000
0000
0000
0000
0330
0000
0000
0000
0000
0000
0000
0000
0000
0000
0000
0000
0000
0000
0000
0000
0000
0000
0000
0000
0000
0000
0000
0000
0010
0000
0000
0000
0000
0000
0000
0000
0000
0000
0000
0000
0000
0000
0000
0000
0000
0000
0000
0000
0000
0000
0000
0000
0000
0000
0000
0000
0000
0000
0000
0000
0000
0000
0000
0000
0000
0000
0000
0000
0000
0000
0000
0000
0000
0000
0000
0000
0000
0000
0000
0000
0000
0000
0000
0000
0000
0000
0000
0000
0000
0000
0000
0000
0000
0000
0000
0000
0000
0000
0000
0000
0000
0000
0000
0000
0000
0000
0000
0000
0000
0000
0000
0000
0000
0000
0000
0000
0000
0000
0000
0000
0000
0000
0000
0000
0000
0000
0000
0000
0000
0000
0000
0000
0000
0000
0000
0000
0000
0000
0000
0000
0000
0000
0000
0000
0000
0000
0000
0000
,  // measure 15
0000
0000
0000
1000
0000
0000
0000
0000
,  // measure 16
0000
0000
0000
1001
0000
0000
0000
0000
,  // measure 17
2000
0000
0000
3020
0000
0000
0200
0000
,  // measure 18
0000
0000
0330
1000
0000
0000
0000
0000
,  // measure 19
0000
0000
0000
0010
0000
0000
0000
0000
,  // measure 20
0000
0000
0000
0110
0000
0000
0010
1000
,  // measure 21
0010
0000
0000
1000
0000
0000
0002
0000
,  // measure 22
0000
0000
0000
0000
0000
0003
1000
0001
,  // measure 23
0000
0000
0000
0000
0000
0000
0100
0010
,  // measure 24
0000
0000
0000
1000
0000
0000
0001
0100
,  // measure 25
0001
0000
0000
0010
0000
0000
0200
0000
,  // measure 26
0000
0000
0000
0000
0000
0300
1000
0010
,  // measure 27
0000
0000
0000
0000
0000
0000
0100
0001
,  // measure 28
0000
0000
0000
0010
0000
0000
0100
1000
,  // measure 29
0001
0000
0000
0100
0000
0000
0002
0000
,  // measure 30
0000
0000
0000
0000
0000
0000
0103
0020
,  // measure 31
0000
0000
0000
0000
0000
0000
0000
1030
,  // measure 32
0001
1000
0001
1000
0001
0000
0100
0000
,  // measure 33
0010
0000
0000
1000
0000
0000
0200
0000
,  // measure 34
0000
0000
0000
0000
0000
0000
0300
1000
,  // measure 35
0000
0000
0000
0000
0001
0000
0000
0001
0000
0000
0000
0000
0000
0000
1000
0000
,  // measure 36
0010
0100
0010
0100
0010
0000
1000
0000
,  // measure 37
0001
0010
0100
1000
0000
0001
0100
0010
,  // measure 38
0100
0010
1000
0001
1000
0001
1000
0001
,  // measure 39
0010
0100
0010
0100
0010
0100
0010
0100
,  // measure 40
0000
1000
0000
0001
0100
0000
0001
1000
,  // measure 41
0000
0001
1000
0010
1000
0010
0100
0001
,  // measure 42
0100
0001
0100
0001
0010
0001
0010
0001
,  // measure 43
0010
0001
0010
0001
0000
1000
0000
0001
,  // measure 44
1000
0000
0010
0100
0000
0010
0100
0000
,  // measure 45
0010
0000
1000
0000
0001
0000
0100
0001
,  // measure 46
1000
0000
0010
0000
1000
0000
0100
1000
,  // measure 47
0010
0000
0100
0001
1000
0000
0001
0100
,  // measure 48
0001
0000
1000
0010
0000
1000
0010
0000
,  // measure 49
0100
0000
0001
0000
0010
0000
0001
0010
,  // measure 50
0100
0000
1000
0010
0100
0000
0010
1000
,  // measure 51
0001
0000
0100
0001
1000
0000
0010
0100
,  // measure 52
0010
0000
1000
0100
0000
0010
0001
0000
,  // measure 53
0010
0000
0100
0000
1000
0000
0010
0100
,  // measure 54
0010
1000
0001
0100
,  // measure 55
0001
0010
0100
1000
0100
0000
0010
0000
,  // measure 56
0001
0000
0100
0010
0000
1000
0001
0000
,  // measure 57
0010
0000
0001
0000
0100
0000
0010
2000
,  // measure 58
0000
0000
3010
0020
0000
0000
0000
0000
,  // measure 59
1030
0100
1000
0100
1000
0000
0001
0000
,  // measure 60
0000
0220
0000
0000
0000
0000
0330
0000
;

//---------------dance-single - ----------------
#NOTES:
     dance-single:
     :
     Easy:
     3:
     0.209,0.244,0.000,0.018,0.000: // measure 1
0000
0000
0000
0000
,  // measure 2
0000
0000
0000
0000
,  // measure 3
1000
0000
1000
0000
0000
0010
0000
0010
,  // measure 4
0000
0010
0000
0010
1000
0000
0001
0000
,  // measure 5
1000
0100
0010
0000
,  // measure 6
0010
0100
1000
0000
,  // measure 7
0001
0000
0100
0000
0000
0001
0000
1000
,  // measure 8
0000
0010
0000
0100
0000
0010
0000
1000
,  // measure 9
2000
0000
0000
0000
,  // measure 10
0000
0000
0000
0000
,  // measure 11
0000
0000
0000
0000
,  // measure 12
3000
0000
0000
0000
,  // measure 13
0010
0000
0000
0010
0000
0000
0010
0000
,  // measure 14
0000
0000
0000
1000
0000
0000
0000
0000
,  // measure 15
0000
0000
0000
0001
0000
0000
0000
0000
,  // measure 16
0000
0000
0000
1000
0000
0000
0000
0000
,  // measure 17
0001
0000
0000
0001
0000
0000
0001
0000
,  // measure 18
0000
0000
0000
0100
0000
0000
0000
0000
,  // measure 19
0000
0000
0000
0100
0000
0000
0000
0000
,  // measure 20
0000
0000
0000
0100
0000
0000
0000
0000
,  // measure 21
0010
0000
0000
0010
0000
0000
0010
0000
,  // measure 22
0000
0000
0000
1000
,  // measure 23
0001
0000
0000
0100
,  // measure 24
0010
0000
0000
1000
,  // measure 25
0100
0000
0000
0100
0000
0000
0100
0000
,  // measure 26
0000
0000
0000
0010
,  // measure 27
0001
0000
0000
0100
,  // measure 28
0010
0000
0000
0001
,  // measure 29
1000
0000
0000
1000
0000
0000
1000
0000
,  // measure 30
0000
0000
0000
0010
,  // measure 31
0010
0000
0000
0000
,  // measure 32
1000
0010
1000
0010
,  // measure 33
0100
0000
0000
0100
0000
0000
0100
0000
,  // measure 34
0000
0000
0000
0000
0000
0000
0000
0001
,  // measure 35
0000
1000
1000
0000
,  // measure 36
0010
0100
0010
1000
,  // measure 37
0001
0000
0000
1000
0000
0000
0001
0000
,  // measure 38
0001
1000
1000
1000
,  // measure 39
0010
0010
0010
0010
,  // measure 40
0100
0000
0001
0000
0100
0000
0000
0100
,  // measure 41
0000
0100
0100
0001
,  // measure 42
0001
0001
1000
1000
,  // measure 43
1000
0010
0100
0010
,  // measure 44
1000
0100
1000
0100
,  // measure 45
0100
0010
0001
0001
,  // measure 46
0001
1000
0010
0010
,  // measure 47
0010
1000
0010
0100
,  // measure 48
0010
1000
0001
1000
,  // measure 49
1000
0010
0100
0100
,  // measure 50
0100
0010
1000
1000
,  // measure 51
1000
1000
0001
0100
,  // measure 52
0010
1000
0010
0100
,  // measure 53
0100
0001
1000
1000
,  // measure 54
1000
0010
0100
0100
,  // measure 55
0100
0100
0001
0010
,  // measure 56
0001
0100
0001
1000
,  // measure 57
1000
0001
0010
0010
,  // measure 58
0000
0001
0100
0000
,  // measure 59
0010
1000
0010
0100
,  // measure 60
0000
0002
0000
0000
0000
0000
0003
0000
;

//---------------dance-single - ----------------
#NOTES:
     dance-single:
     :
     Beginner:
     2:
     0.145,0.218,0.000,0.018,0.000: // measure 1
0000
0000
0000
0000
,  // measure 2
0000
0000
0000
0000
,  // measure 3
1000
0000
1000
0000
,  // measure 4
0010
0000
0010
0000
,  // measure 5
0100
0000
0100
0000
,  // measure 6
0010
0000
0010
0000
,  // measure 7
1000
0000
1000
0000
,  // measure 8
0001
0000
0001
0000
,  // measure 9
0200
0000
0000
0000
,  // measure 10
0000
0000
0000
0000
,  // measure 11
0000
0000
0000
0000
,  // measure 12
0300
0000
0000
0000
,  // measure 13
0010
0000
1000
0000
,  // measure 14
0010
0000
0000
0000
,  // measure 15
0100
0000
0001
0000
,  // measure 16
0100
0000
0000
0000
,  // measure 17
0001
0000
1000
0000
,  // measure 18
0001
0000
0000
0000
,  // measure 19
1000
0000
0100
0000
,  // measure 20
1000
0000
1000
0000
,  // measure 21
0010
0000
0100
0000
,  // measure 22
0001
0000
0000
0000
,  // measure 23
0100
0000
0010
0000
,  // measure 24
1000
0000
0000
0000
,  // measure 25
0001
0000
0100
0000
,  // measure 26
0001
0000
0000
0000
,  // measure 27
1000
0000
0001
0000
,  // measure 28
0100
0000
0000
0000
,  // measure 29
0010
0000
0100
0000
,  // measure 30
0001
0000
0000
0000
,  // measure 31
1000
0000
0010
0000
,  // measure 32
0100
0000
0000
0000
,  // measure 33
0010
0000
1000
0000
,  // measure 34
0100
0000
0000
0000
,  // measure 35
0001
0000
0001
0000
,  // measure 36
0001
0000
0001
0001
,  // measure 37
0001
0000
0000
1000
,  // measure 38
1000
0010
0010
0010
,  // measure 39
0100
0100
0100
0000
,  // measure 40
0000
0000
0001
0000
,  // measure 41
0000
0100
0100
0001
,  // measure 42
0001
0001
1000
1000
,  // measure 43
1000
0000
0010
0000
,  // measure 44
0100
0000
0100
0100
,  // measure 45
0100
0000
0001
0001
,  // measure 46
0001
0000
1000
1000
,  // measure 47
1000
0000
0000
0000
,  // measure 48
0001
0000
1000
1000
,  // measure 49
1000
0000
0001
0001
,  // measure 50
0001
0000
0100
0100
,  // measure 51
0100
0000
0010
0000
,  // measure 52
1000
0000
0001
0000
,  // measure 53
1000
0000
0001
0000
,  // measure 54
0100
0000
0010
0000
,  // measure 55
1000
0000
0100
0000
,  // measure 56
1000
0000
0001
0000
,  // measure 57
0100
0000
0001
0000
,  // measure 58
0010
0000
0001
0000
,  // measure 59
1000
0000
0100
1000
,  // measure 60
0200
0000
0000
0000
,  // measure 61
0300
0000
0000
0000
;
