#TITLE:The legend of MAX tribute;
#SUBTITLE:;
#ARTIST:;
#TITLETRANSLIT:;
#SUBTITLETRANSLIT:;
#ARTISTTRANSLIT:ZZ;
#CREDIT:;
#BANNER:The legend of MAX tribute-bn.png;
#BACKGROUND:The legend of MAX tribute-bg.png;
#LYRICSPATH:;
#CDTITLE:kykaCD.png;
#MUSIC:The legend of MAX tribute.mp3;
#OFFSET:-0.027;
#SAMPLESTART:22.520;
#SAMPLELENGTH:15.000;
#SELECTABLE:YES;
#BPMS:0.000=90.000,32.000=180.000,36.000=359.998,292.000=179.999,324.000=90.000,340.000=359.999;
#STOPS:;
#BGCHANGES:;

//---------------dance-single - ----------------
#NOTES:
     dance-single:
     :
     Challenge:
     11:
     0.972,1.000,1.000,0.216,0.202: // measure 1
1100
0000
0000
0110
0000
0000
1001
0000
0000
0000
0000
0000
0000
0000
0000
0000
0000
0000
0000
0000
0000
0000
0110
0000
1001
0000
0000
0101
0000
0000
1001
0000
,  // measure 2
1100
0000
0000
0110
0000
0000
1001
0000
0000
0000
0000
0000
0000
0000
0000
0000
0000
0000
0000
0000
0000
0000
0110
0000
1001
0000
0000
1100
0000
0000
0110
0000
,  // measure 3
1001
1001
0000
0000
1100
1100
0000
0000
,  // measure 4
1001
1001
0000
0000
1100
0110
1001
0000
,  // measure 5
1100
0000
0000
0110
0000
0000
1100
0000
0101
0000
0000
0000
0000
0000
0000
0000
1001
0000
0000
0000
0000
0000
1100
0000
0110
0000
0000
1010
0000
0000
1001
0000
,  // measure 6
0101
0000
0000
1001
0000
0000
1010
0000
1001
0000
0000
0000
0000
0000
0000
0000
1001
0000
0000
0000
0000
0000
1100
0000
0110
0000
0000
1001
0000
0000
0101
0000
,  // measure 7
1001
1100
0110
1001
0101
1001
1100
0110
,  // measure 8
1100
0000
0110
0000
1001
0000
0101
0000
1001
0000
1100
0000
0110
0000
1001
0000
0101
0000
1001
0000
1001
0000
1100
0000
1000
0100
0010
0100
1000
0010
0100
2002
,  // measure 9
0000
0000
0000
0000
0000
0000
0000
3003
,  // measure 10
1100
0100
0010
0001
,  // measure 11
0100
0000
0010
0000
1000
0001
1000
0000
,  // measure 12
0010
0100
0001
1100
,  // measure 13
0110
0000
0000
1001
0000
0000
0101
0000
,  // measure 14
1001
0000
1000
0000
0010
0100
0010
0000
,  // measure 15
1001
0000
0000
1100
0000
0000
0110
0000
,  // measure 16
1001
0000
1000
0000
0010
0100
1010
0000
,  // measure 17
1001
0000
0000
0101
0000
0000
1001
0000
,  // measure 18
1100
0000
0010
0000
0100
0001
0100
0000
,  // measure 19
1001
0000
0000
1100
0000
0000
0110
0000
,  // measure 20
1001
0000
0100
0000
0001
1000
0001
0000
,  // measure 21
1100
0000
0000
0110
0000
0000
1001
0000
,  // measure 22
0101
1000
0010
0100
,  // measure 23
1010
0110
0010
1001
,  // measure 24
1100
0010
0100
0101
,  // measure 25
1001
0000
1100
0000
0010
0100
0010
0000
,  // measure 26
1100
0000
1100
0000
0001
0000
0100
0001
,  // measure 27
0000
1000
0001
0000
0100
0000
0010
0000
,  // measure 28
1100
0000
0101
0000
0001
0000
1000
0100
,  // measure 29
0000
0010
0001
0000
0100
0000
0010
0000
,  // measure 30
1001
1000
0100
1100
,  // measure 31
0010
0100
1001
0001
,  // measure 32
0100
1001
0010
1000
,  // measure 33
0110
0000
1001
0000
,  // measure 34
0011
0000
0011
0000
1000
0000
0010
1000
,  // measure 35
0000
0001
1000
0000
0010
0000
0100
0000
,  // measure 36
0011
0000
1010
0000
1000
0000
0001
0010
,  // measure 37
0000
0100
1000
0000
0010
0000
0100
0000
,  // measure 38
1001
0001
0010
0011
,  // measure 39
0100
0010
1001
1000
,  // measure 40
0010
1001
0100
0001
,  // measure 41
0110
0000
1100
0000
0001
1000
0001
0000
,  // measure 42
1100
0110
1001
0001
,  // measure 43
0100
0101
1000
1100
,  // measure 44
0100
0110
1001
0001
,  // measure 45
0012
1003
0210
0310
,  // measure 46
0101
1001
0110
0010
,  // measure 47
0001
0011
0100
0101
,  // measure 48
0001
1001
0110
0010
,  // measure 49
1020
0130
1002
1003
,  // measure 50
1010
1001
0110
0100
,  // measure 51
1000
1100
0010
1010
,  // measure 52
1000
1001
0110
0100
,  // measure 53
0201
0310
2001
3001
,  // measure 54
1001
1010
0101
0100
,  // measure 55
1000
1100
0001
1001
,  // measure 56
1000
1010
0101
0110
,  // measure 57
0010
1000
0001
0000
0010
1000
0010
0001
,  // measure 58
0011
0110
1001
1000
,  // measure 59
0010
1010
0001
0011
,  // measure 60
0010
0110
1001
1000
,  // measure 61
2100
3001
0120
0130
,  // measure 62
1010
1001
0110
0100
,  // measure 63
1000
1100
0010
1010
,  // measure 64
1000
1001
0110
0100
,  // measure 65
0201
0310
2001
3001
,  // measure 66
0101
1001
0110
0010
,  // measure 67
0001
0011
0100
0101
,  // measure 68
0001
1001
0110
0010
,  // measure 69
1020
0130
1002
1003
,  // measure 70
1001
0101
1010
0010
,  // measure 71
0001
0011
1000
1001
,  // measure 72
0001
0101
1010
0110
,  // measure 73
0220
0000
0000
0330
,  // measure 74
1000
0100
2000
0000
0000
0010
0000
3010
,  // measure 75
0100
0100
0000
0000
,  // measure 76
0100
0001
2000
0000
0000
0001
0000
3001
,  // measure 77
0100
0000
0100
0000
0100
0010
1000
0010
,  // measure 78
0100
0001
0020
0000
0000
0100
0000
0130
,  // measure 79
1000
1000
0000
0000
,  // measure 80
1000
0001
0200
0000
0000
0001
0000
0001
,  // measure 81
0000
0000
0001
0000
0001
0000
0001
0000
0301
0000
0000
1000
0000
0000
0001
0000
,  // measure 82
1001
0000
0000
1100
0000
0000
0000
0000
0110
0000
0000
1001
0000
0000
0000
0000
,  // measure 83
1100
0000
0000
0011
0000
0000
0101
0000
1001
0000
0000
1100
0000
0000
0110
0000
,  // measure 84
1001
0000
0000
0101
0000
0000
0000
0000
1001
0000
0000
1100
0000
0000
0000
0000
,  // measure 85
0110
0000
0000
1001
0000
0000
1100
0000
0101
0000
0000
1100
0000
0000
0000
0000
,  // measure 86
1001
0000
0000
1100
0000
0000
0000
0000
,  // measure 87
0101
0000
0000
1001
0000
0000
0000
0000
,  // measure 88
1100
0000
0000
0110
0000
0000
1001
0000
,  // measure 89
0101
0000
0000
1001
0000
0000
1100
0000
,  // measure 90
0110
0000
0000
1001
0000
0000
0000
0000
,  // measure 91
1100
0000
0000
0011
0000
0000
0000
0000
,  // measure 92
0101
0000
0000
1001
0000
0000
1100
0000
,  // measure 93
1001
0000
0000
1100
0000
0000
1001
0000
,  // measure 94
0101
0000
0000
1001
0000
0000
0000
0000
,  // measure 95
1100
0000
0000
0110
0000
0000
0000
0000
,  // measure 96
1001
0000
0000
0101
0000
0000
1001
0000
,  // measure 97
1100
0000
0000
0110
0000
0000
1001
0000
,  // measure 98
0101
0000
0000
1001
0000
0000
0000
0000
,  // measure 99
1100
0000
0000
0101
0000
0000
0000
0000
,  // measure 100
1001
0000
0000
1100
0000
0000
0110
0000
,  // measure 101
1000
0100
0010
0001
0100
0001
1000
0001
,  // measure 102
0200
0000
0020
0000
,  // measure 103
0000
0000
0000
0000
,  // measure 104
0330
0000
0000
0000
;

//---------------dance-single - ----------------
#NOTES:
     dance-single:
     :
     Hard:
     10:
     0.761,1.000,1.000,0.079,0.133: // measure 1
0000
0000
0000
0000
,  // measure 2
0000
0000
0000
0000
,  // measure 3
1010
1010
0000
0000
0101
0101
0000
0000
,  // measure 4
0110
0110
0000
0000
0110
0110
2001
0000
,  // measure 5
3001
0000
0000
1000
0000
0000
0001
0000
0100
0000
0000
0000
0000
0000
0000
0000
0100
0000
0000
0000
0000
0000
0010
0000
1000
0000
0000
0010
0000
0000
0100
0000
,  // measure 6
0010
0000
0000
1000
0000
0000
0010
0000
0100
0000
0000
0000
0000
0000
0000
0000
0001
0000
0000
0000
0000
0000
1000
0000
0010
0000
0000
0100
0000
0000
0010
0000
,  // measure 7
1000
0001
0100
0001
1000
0001
0100
0001
,  // measure 8
1000
0100
1000
0100
0010
0001
0010
0001
0100
0010
0100
0010
1000
0001
1000
2002
,  // measure 9
0000
0000
0000
0000
0000
0000
0000
3003
,  // measure 10
1000
0100
1000
0010
,  // measure 11
0100
0000
0001
0000
1000
0010
1000
0000
,  // measure 12
0001
0100
0001
1001
,  // measure 13
1100
0000
0000
0110
0000
0000
1001
0000
,  // measure 14
0101
0000
0001
0000
1000
0010
0100
0000
,  // measure 15
0101
0000
0000
1001
0000
0000
1100
0000
,  // measure 16
0110
1000
0010
0101
,  // measure 17
1001
0000
0000
1100
0000
0000
0101
0000
,  // measure 18
1001
1000
0010
0100
,  // measure 19
0011
0000
0000
1100
0000
0000
0011
0000
,  // measure 20
0101
0001
0100
0001
,  // measure 21
1100
0000
0000
0110
0000
0000
1001
0000
,  // measure 22
0101
1000
0001
0100
,  // measure 23
0002
1000
0003
2000
,  // measure 24
0001
0000
3000
0101
,  // measure 25
0101
0000
1001
0000
1000
0100
1000
0000
,  // measure 26
0101
0000
0001
0000
0000
0000
1000
0100
,  // measure 27
0000
1000
0100
0000
0010
0000
0001
0000
,  // measure 28
0100
0000
0100
0000
0000
0000
0010
1000
,  // measure 29
0000
0010
1000
0000
0010
0000
0100
0000
,  // measure 30
0101
0000
0000
1100
,  // measure 31
0000
0000
0101
0000
,  // measure 32
0000
1100
0000
0000
,  // measure 33
0101
0000
1100
0000
,  // measure 34
0001
0000
0001
0000
0000
0000
1000
0100
,  // measure 35
0000
0010
0100
0000
0010
0000
0001
0000
,  // measure 36
1000
0000
1000
0000
0000
0000
0010
0100
,  // measure 37
0000
0010
1000
0000
0001
0000
0100
0000
,  // measure 38
1001
0000
0000
1100
,  // measure 39
0000
0000
1001
0000
,  // measure 40
0000
0101
0000
0000
,  // measure 41
1000
0000
0001
0000
1000
0001
1000
0000
,  // measure 42
0101
0110
1001
0000
,  // measure 43
0000
1100
0000
0110
,  // measure 44
0000
1001
0101
1001
,  // measure 45
1001
0000
1100
0000
,  // measure 46
1010
0110
1001
0000
,  // measure 47
0000
0011
0000
0110
,  // measure 48
0000
1001
1010
1001
,  // measure 49
1001
0000
0011
0000
,  // measure 50
0011
1001
0110
0000
,  // measure 51
0000
0101
0000
1001
,  // measure 52
0000
0110
0011
0110
,  // measure 53
0110
0000
0101
0000
,  // measure 54
1010
0110
1001
0000
,  // measure 55
0000
0011
0000
0110
,  // measure 56
0000
1001
1010
1001
,  // measure 57
1000
0001
1000
0000
0001
1000
0001
1000
,  // measure 58
0001
0110
1001
0000
,  // measure 59
0000
0011
0000
0110
,  // measure 60
0000
1001
1010
1001
,  // measure 61
1001
0000
0011
0000
,  // measure 62
0101
0110
1001
0000
,  // measure 63
0000
1100
0000
0110
,  // measure 64
0000
1001
0101
1001
,  // measure 65
1001
0000
1100
0000
,  // measure 66
1100
1001
0110
0000
,  // measure 67
0000
1010
0000
1001
,  // measure 68
0000
0110
1100
0110
,  // measure 69
0110
0000
1010
0000
,  // measure 70
0101
0110
1001
0000
,  // measure 71
0000
1100
0000
0110
,  // measure 72
0000
1001
0101
1001
,  // measure 73
2002
0000
0000
0000
0000
0000
0000
3003
,  // measure 74
1000
0001
1000
0000
0000
0101
0000
0101
,  // measure 75
0101
0101
0000
0000
,  // measure 76
0010
1000
0010
0000
0000
0110
0000
0110
,  // measure 77
0110
0000
0110
0000
1000
0001
1000
0001
,  // measure 78
1000
0001
0100
0000
0000
0011
0000
0011
,  // measure 79
0011
0011
0000
0000
,  // measure 80
0100
0001
1000
0000
0000
1001
0000
1001
,  // measure 81
0000
0000
1000
0000
0001
0000
0100
0000
0010
0000
0000
0010
0000
0000
0010
0000
,  // measure 82
0110
0000
0000
1010
0000
0000
0000
0000
1010
0000
0000
0110
0000
0000
0000
0000
,  // measure 83
0110
0000
0000
1001
0000
0000
0101
0000
1001
0000
0000
1100
0000
0000
0110
0000
,  // measure 84
1001
0000
0000
0101
0000
0000
0000
0000
0101
0000
0000
1001
0000
0000
0000
0000
,  // measure 85
1001
0000
0000
1100
0000
0000
0110
0000
1001
0000
0000
0110
0000
0000
0000
0000
,  // measure 86
1001
0000
0000
0011
0000
0000
0000
0000
,  // measure 87
1010
0000
0000
1001
0000
0000
0000
0000
,  // measure 88
0011
0000
0000
0110
0000
0000
1001
0000
,  // measure 89
1010
0000
0000
1001
0000
0000
0011
0000
,  // measure 90
0110
0000
0000
1001
0000
0000
0000
0000
,  // measure 91
0011
0000
0000
1100
0000
0000
0000
0000
,  // measure 92
1010
0000
0000
1001
0000
0000
0011
0000
,  // measure 93
1001
0000
0000
0011
0000
0000
1001
0000
,  // measure 94
1010
0000
0000
1001
0000
0000
0000
0000
,  // measure 95
0011
0000
0000
0110
0000
0000
0000
0000
,  // measure 96
1001
0000
0000
1010
0000
0000
1001
0000
,  // measure 97
0011
0000
0000
0110
0000
0000
1001
0000
,  // measure 98
1010
0000
0000
1001
0000
0000
0000
0000
,  // measure 99
0011
0000
0000
1010
0000
0000
0000
0000
,  // measure 100
1001
0000
0000
0011
0000
0000
0110
0000
,  // measure 101
0001
0010
0001
0010
0100
1000
0100
1000
,  // measure 102
0020
0000
0000
0000
,  // measure 103
0000
0000
0000
0000
,  // measure 104
0030
0000
0000
0000
;

//---------------dance-single - ----------------
#NOTES:
     dance-single:
     :
     Medium:
     9:
     0.506,1.000,0.383,0.049,0.103: // measure 1
0000
0000
0000
0000
,  // measure 2
0000
0000
0000
0000
,  // measure 3
1000
0001
0000
0000
0001
1000
0000
0000
,  // measure 4
1000
0001
0000
0000
0001
1000
0002
0000
,  // measure 5
0003
0000
0000
0000
0000
0000
0010
0000
0100
0000
0000
0000
0000
0000
0000
0000
0001
0000
0000
0000
0000
0000
1000
0000
0100
0000
0000
0010
0000
0000
0001
0000
,  // measure 6
1000
0000
0000
0000
0000
0000
0001
0000
0100
0000
0000
0000
0000
0000
0000
0000
0010
0000
0000
0000
0000
0000
1000
0000
0100
0000
0000
0010
0000
0000
0001
0000
,  // measure 7
0100
0001
0100
0001
0100
0001
0100
0001
,  // measure 8
0100
0010
0100
0000
0010
1000
0010
0000
1000
0100
1000
0000
0010
0100
0010
0000
,  // measure 9
0002
0000
0000
0000
0000
0000
0000
0003
,  // measure 10
1000
0010
1000
0000
,  // measure 11
0100
0010
0100
0000
,  // measure 12
1000
0001
1000
0100
,  // measure 13
0100
0000
0000
0100
0000
0000
0100
0000
,  // measure 14
0010
0001
0100
0010
,  // measure 15
1000
0000
0000
1000
0000
0000
1000
0000
,  // measure 16
0001
0010
0001
0100
,  // measure 17
0100
0000
0000
0100
0000
0000
0100
0000
,  // measure 18
0001
1000
0010
0100
,  // measure 19
0001
0000
0000
0001
0000
0000
0001
0000
,  // measure 20
1000
0001
0010
0100
,  // measure 21
1000
0000
0000
1000
0000
0000
1000
0000
,  // measure 22
0010
0100
0010
1000
,  // measure 23
0001
0001
0000
0100
,  // measure 24
0100
0000
0000
0001
,  // measure 25
0001
0001
0000
0010
,  // measure 26
0100
0001
0000
1000
,  // measure 27
0000
0010
0000
0000
1000
0000
0000
0000
,  // measure 28
0010
0100
0000
0010
,  // measure 29
0000
1000
0000
0000
0001
0000
0100
0000
,  // measure 30
0001
0000
0000
0001
,  // measure 31
0000
0000
0001
0000
,  // measure 32
0000
0001
0000
0000
,  // measure 33
0001
0000
0001
0000
,  // measure 34
0100
0010
0000
1000
,  // measure 35
0000
0001
0000
0000
0100
0000
0001
0000
,  // measure 36
1000
0010
0000
0100
,  // measure 37
0000
0010
0000
0000
1000
0000
0001
0000
,  // measure 38
0100
0000
0000
0100
,  // measure 39
0000
0000
0001
0000
,  // measure 40
0000
0001
0000
0000
,  // measure 41
1000
0001
0100
0001
,  // measure 42
0001
0010
0001
0000
,  // measure 43
0000
0100
0000
0010
,  // measure 44
0000
0001
1000
0001
,  // measure 45
1000
0000
0100
0000
,  // measure 46
0010
0010
0001
0000
,  // measure 47
0000
0001
0000
0010
,  // measure 48
0000
0001
0010
0001
,  // measure 49
1000
0000
0001
0000
,  // measure 50
1000
0001
0010
0000
,  // measure 51
0000
0001
0000
0001
,  // measure 52
0000
0010
0001
0010
,  // measure 53
1000
0000
0001
0000
,  // measure 54
1000
0010
0001
0000
,  // measure 55
0000
0001
0000
0010
,  // measure 56
0000
0001
0010
0001
,  // measure 57
1000
0001
1000
0000
0001
1000
0001
1000
,  // measure 58
0001
0010
0001
0000
,  // measure 59
0000
0001
0000
0010
,  // measure 60
0000
0001
0010
0001
,  // measure 61
1000
0000
0001
0000
,  // measure 62
0001
0010
0001
0000
,  // measure 63
0000
0100
0000
0010
,  // measure 64
0000
0001
0100
0001
,  // measure 65
1000
0000
0100
0000
,  // measure 66
0100
0001
0010
0000
,  // measure 67
0000
0010
0000
0001
,  // measure 68
0000
0010
0100
0010
,  // measure 69
0010
0000
0010
0000
,  // measure 70
0001
0010
0001
0000
,  // measure 71
0000
0100
0000
0010
,  // measure 72
0000
1000
0001
1000
,  // measure 73
0002
0000
0000
0000
0000
0000
0000
0003
,  // measure 74
1000
0100
1000
0000
0000
0010
0000
0010
,  // measure 75
0100
0100
0000
0000
,  // measure 76
0001
1000
0001
0000
0000
0100
0000
0100
,  // measure 77
0010
0000
0010
0000
1000
0010
1000
0010
,  // measure 78
0100
0010
0100
0000
0000
0001
0000
0001
,  // measure 79
1000
1000
0000
0000
,  // measure 80
0010
1000
0010
0000
0000
0100
0000
0001
,  // measure 81
0000
0000
0100
0000
0001
0000
1000
0000
0001
0000
0000
1000
0000
0000
0001
0000
,  // measure 82
1000
0000
0000
0001
0000
0000
0000
0000
0100
0000
0000
0010
0000
0000
0000
0000
,  // measure 83
1000
0000
0000
0100
0000
0000
0010
0000
0100
0000
0000
1000
0000
0000
0010
0000
,  // measure 84
0100
0000
0000
0001
0000
0000
0000
0000
0010
0000
0000
0001
0000
0000
0000
0000
,  // measure 85
0100
0000
0000
0001
0000
0000
1000
0000
0001
0000
0000
1100
0000
0000
0000
0000
,  // measure 86
1001
0000
0000
1100
0000
0000
0000
0000
,  // measure 87
0101
0000
0000
1001
0000
0000
0000
0000
,  // measure 88
1100
0000
0000
0110
0000
0000
1001
0000
,  // measure 89
0101
0000
0000
1001
0000
0000
1100
0000
,  // measure 90
0110
0000
0000
1001
0000
0000
0000
0000
,  // measure 91
1100
0000
0000
0011
0000
0000
0000
0000
,  // measure 92
0101
0000
0000
1001
0000
0000
1100
0000
,  // measure 93
1001
0000
0000
1100
0000
0000
1001
0000
,  // measure 94
0101
0000
0000
1001
0000
0000
0000
0000
,  // measure 95
1100
0000
0000
0110
0000
0000
0000
0000
,  // measure 96
1001
0000
0000
0101
0000
0000
1001
0000
,  // measure 97
1100
0000
0000
0110
0000
0000
1001
0000
,  // measure 98
0101
0000
0000
1001
0000
0000
0000
0000
,  // measure 99
1100
0000
0000
0101
0000
0000
0000
0000
,  // measure 100
1001
0000
0000
1100
0000
0000
0110
0000
,  // measure 101
1000
0010
0100
0001
,  // measure 102
0220
0000
0000
0000
,  // measure 103
0000
0000
0000
0000
,  // measure 104
0330
0000
0000
0000
;

//---------------dance-single - ----------------
#NOTES:
     dance-single:
     :
     Easy:
     7:
     0.372,0.709,0.010,0.049,0.025: // measure 1
0000
0000
0000
0000
,  // measure 2
0000
0000
0000
0000
,  // measure 3
1000
0100
0000
0000
0010
0001
0000
0000
,  // measure 4
0100
0001
0000
0000
1000
0100
1000
0000
,  // measure 5
0010
0100
0001
1000
,  // measure 6
0100
1000
0010
0100
,  // measure 7
0010
1000
0010
0000
0100
0010
0100
0000
,  // measure 8
0010
1000
0001
0100
0001
1000
0002
0000
,  // measure 9
0003
0000
0000
0000
,  // measure 10
1000
0000
0010
0000
,  // measure 11
0100
0000
0001
0000
,  // measure 12
1000
0000
0000
0010
,  // measure 13
1000
0000
0000
0010
0000
0000
1000
0000
,  // measure 14
0010
0000
0000
0000
,  // measure 15
0100
0000
0000
0001
0000
0000
0100
0000
,  // measure 16
0001
0000
0000
1000
,  // measure 17
0001
0000
0000
1000
0000
0000
0010
0000
,  // measure 18
0100
0000
0000
0000
,  // measure 19
0010
0000
0000
1000
0000
0000
0001
0000
,  // measure 20
0100
0000
0000
0001
,  // measure 21
1000
0000
0000
0100
0000
0000
1000
0000
,  // measure 22
0010
0000
0000
0000
,  // measure 23
1000
0100
0000
0100
,  // measure 24
1000
0000
0000
0001
,  // measure 25
1000
0001
0000
0001
,  // measure 26
1000
0001
0000
1000
,  // measure 27
0001
0000
0100
0000
,  // measure 28
0001
1000
0000
0000
,  // measure 29
0001
0000
0100
0000
,  // measure 30
0010
0000
0000
0010
,  // measure 31
0000
0000
0010
0000
,  // measure 32
0000
0010
0000
0000
,  // measure 33
0010
0000
0010
0000
,  // measure 34
1000
0100
0000
0000
,  // measure 35
0001
0000
0100
0000
,  // measure 36
0001
1000
0000
0000
,  // measure 37
0010
0000
0100
0000
,  // measure 38
0001
0000
0000
0001
,  // measure 39
0000
0000
0001
0000
,  // measure 40
0000
0001
0000
0000
,  // measure 41
0001
0000
0001
0000
,  // measure 42
1000
0100
1000
0000
,  // measure 43
0000
0010
0000
0100
,  // measure 44
0000
1000
0001
1000
,  // measure 45
0001
0000
0010
0000
,  // measure 46
0001
0100
1000
0000
,  // measure 47
0000
1000
0000
0100
,  // measure 48
0000
1000
0100
1000
,  // measure 49
0001
0000
1000
0000
,  // measure 50
0001
1000
0100
0000
,  // measure 51
0000
1000
0000
1000
,  // measure 52
0000
0100
1000
0100
,  // measure 53
0001
0000
1000
0000
,  // measure 54
0001
0100
1000
0000
,  // measure 55
0000
1000
0000
0100
,  // measure 56
0000
1000
0100
1000
,  // measure 57
0001
0001
0001
0001
,  // measure 58
1000
0100
1000
0000
,  // measure 59
0000
1000
0000
0100
,  // measure 60
0000
1000
0100
1000
,  // measure 61
0001
0000
1000
0000
,  // measure 62
1000
0100
1000
0000
,  // measure 63
0000
0010
0000
0100
,  // measure 64
0000
1000
0010
1000
,  // measure 65
0001
0000
0010
0000
,  // measure 66
0010
1000
0100
0000
,  // measure 67
0000
0100
0000
1000
,  // measure 68
0000
0100
0010
0001
,  // measure 69
0100
0000
0100
0000
,  // measure 70
1000
0100
1000
0000
,  // measure 71
0000
0010
0000
0100
,  // measure 72
0000
0001
1000
0001
,  // measure 73
2000
0000
0000
0000
0000
0000
0000
3000
,  // measure 74
1000
0000
0001
0000
0000
0100
0000
0100
,  // measure 75
0010
0010
0000
0000
,  // measure 76
1000
0000
0100
0000
0000
0010
0000
0010
,  // measure 77
0001
0001
2000
0000
,  // measure 78
3000
0000
0100
0000
0000
0001
0000
0001
,  // measure 79
1000
1000
0000
0000
,  // measure 80
0010
0000
1000
0000
0000
0001
0000
0100
,  // measure 81
0000
0001
0000
0000
1000
0000
0001
0000
,  // measure 82
1000
0000
0000
0001
0000
0000
0000
0000
1000
0000
0000
0001
0000
0000
0000
0000
,  // measure 83
1000
0000
0000
0001
1000
0000
0000
0001
,  // measure 84
1000
0000
0000
0010
0000
0000
0000
0000
1000
0000
0000
0010
0000
0000
0000
0000
,  // measure 85
0100
0000
0000
0000
0000
0000
0010
0000
0100
0000
0000
0010
0000
0000
0000
0000
,  // measure 86
1000
0000
0000
1000
0000
0000
0000
0000
,  // measure 87
0010
0000
0000
0010
0000
0000
0000
0000
,  // measure 88
0100
0000
0000
0100
0000
0000
0001
0000
,  // measure 89
1000
0000
0000
1000
0000
0000
1000
0000
,  // measure 90
0001
0000
0000
0001
0000
0000
0000
0000
,  // measure 91
1000
0000
0000
1000
0000
0000
0000
0000
,  // measure 92
0010
0000
0000
0010
0000
0000
0100
0000
,  // measure 93
0010
0000
0000
0010
0000
0000
1000
0000
,  // measure 94
0100
0000
0000
0100
0000
0000
0000
0000
,  // measure 95
0010
0000
0000
0010
0000
0000
0000
0000
,  // measure 96
0100
0000
0000
0100
0000
0000
1000
0000
,  // measure 97
0010
0000
0000
0010
0000
0000
1000
0000
,  // measure 98
0010
0000
0000
0010
0000
0000
0000
0000
,  // measure 99
0100
0000
0000
0100
0000
0000
0000
0000
,  // measure 100
0010
0000
0000
0010
0000
0000
0010
0000
,  // measure 101
1000
0100
0010
0001
,  // measure 102
2002
0000
0000
0000
,  // measure 103
0000
0000
0000
0000
,  // measure 104
3003
0000
0000
0000
;

//---------------dance-single - ----------------
#NOTES:
     dance-single:
     :
     Beginner:
     3:
     0.183,0.347,0.049,0.000,0.000: // measure 1
0000
0000
0000
0000
,  // measure 2
0000
0000
0000
0000
,  // measure 3
1000
0000
0001
0000
,  // measure 4
0100
0000
0001
0000
,  // measure 5
1000
0000
0001
0000
,  // measure 6
0100
0000
0001
0000
,  // measure 7
1000
0000
0010
0000
,  // measure 8
0100
0000
0100
0010
,  // measure 9
1001
0000
0000
0000
,  // measure 10
1000
0000
0000
0000
,  // measure 11
0001
0000
0000
0000
,  // measure 12
0100
0000
0000
0000
,  // measure 13
0010
0000
1000
0000
,  // measure 14
0010
0000
0000
0000
,  // measure 15
0100
0000
0001
0000
,  // measure 16
1000
0000
0000
0000
,  // measure 17
0001
0000
1000
0000
,  // measure 18
0010
0000
0000
0000
,  // measure 19
1000
0000
0001
0000
,  // measure 20
0100
0000
0000
0000
,  // measure 21
0001
0000
1000
0000
,  // measure 22
0010
0000
0000
0000
,  // measure 23
0100
0000
0000
0000
,  // measure 24
0001
0000
0000
0000
,  // measure 25
1000
0000
0000
0000
,  // measure 26
0001
0000
0000
0000
,  // measure 27
0001
0000
0000
0000
,  // measure 28
1000
0000
0000
0000
,  // measure 29
1000
0000
0000
0000
,  // measure 30
0010
0000
0000
0000
,  // measure 31
0000
0000
0010
0000
,  // measure 32
0000
0000
0000
0000
,  // measure 33
0010
0000
0000
0000
,  // measure 34
1000
0000
0000
0000
,  // measure 35
0001
0000
0000
0000
,  // measure 36
0100
0000
0000
0000
,  // measure 37
0001
0000
0000
0000
,  // measure 38
1000
0000
0000
0000
,  // measure 39
0000
0000
0001
0000
,  // measure 40
0000
0000
0000
0000
,  // measure 41
0001
0000
0000
0000
,  // measure 42
1000
0000
0000
0000
,  // measure 43
0001
0000
0000
0000
,  // measure 44
0100
0000
0000
0000
,  // measure 45
0010
0000
0000
0000
,  // measure 46
1000
0000
0000
0000
,  // measure 47
0001
0000
0000
0000
,  // measure 48
0100
0000
0000
0000
,  // measure 49
0001
0000
0000
0000
,  // measure 50
0010
0000
0000
0000
,  // measure 51
0001
0000
0000
0000
,  // measure 52
0100
0000
0000
0000
,  // measure 53
0001
0000
0000
0000
,  // measure 54
1000
0000
0000
0000
,  // measure 55
0001
0000
0000
0000
,  // measure 56
1000
0000
0000
0000
,  // measure 57
0100
0000
0100
0000
,  // measure 58
1000
0000
0000
0000
,  // measure 59
0010
0000
0000
0000
,  // measure 60
0100
0000
0000
0000
,  // measure 61
0010
0000
0000
0000
,  // measure 62
1000
0000
0000
0000
,  // measure 63
0001
0000
0000
0000
,  // measure 64
0100
0000
0000
0000
,  // measure 65
0001
0000
0000
0000
,  // measure 66
1000
0000
0000
0000
,  // measure 67
0100
0000
0000
0000
,  // measure 68
1000
0000
0000
0000
,  // measure 69
0010
0000
0000
0000
,  // measure 70
0100
0000
0000
0000
,  // measure 71
0010
0000
0000
0000
,  // measure 72
1000
0000
0000
0000
,  // measure 73
1001
0000
0000
0000
,  // measure 74
0001
0000
1000
0000
,  // measure 75
0010
0000
0100
0000
,  // measure 76
0001
0000
1000
0000
,  // measure 77
0001
0000
0100
0010
,  // measure 78
1000
0000
0001
0000
,  // measure 79
0100
0000
0001
0000
,  // measure 80
1000
0000
0001
0000
,  // measure 81
1000
0000
1001
0000
,  // measure 82
1000
0000
0001
0000
,  // measure 83
0100
0000
0001
1000
,  // measure 84
0010
0000
0100
0000
,  // measure 85
0001
0000
1001
0000
,  // measure 86
1000
0000
0000
0000
,  // measure 87
0001
0000
0000
0000
,  // measure 88
0100
0000
0000
0000
,  // measure 89
0001
0000
0000
0000
,  // measure 90
1000
0000
0000
0000
,  // measure 91
0100
0000
0000
0000
,  // measure 92
1000
0000
0000
0000
,  // measure 93
0010
0000
0000
0000
,  // measure 94
0100
0000
0000
0000
,  // measure 95
0001
0000
0000
0000
,  // measure 96
1000
0000
0000
0000
,  // measure 97
0001
0000
0000
0000
,  // measure 98
0100
0000
0000
0000
,  // measure 99
0001
0000
0000
0000
,  // measure 100
0010
0000
0000
0000
,  // measure 101
0001
0000
0000
0000
,  // measure 102
0110
0000
0000
0000
;
