#TITLE:Angry Beavers;
#SUBTITLE:;
#ARTIST:Charlie Brissette;
#TITLETRANSLIT:;
#SUBTITLETRANSLIT:;
#ARTISTTRANSLIT:;
#CREDIT:;
#BANNER:beavers.png;
#BACKGROUND:beavers-bg.png;
#LYRICSPATH:;
#CDTITLE:kykaCD.png;
#MUSIC:The Angry Beavers Theme Song.mp3;
#OFFSET:-0.060;
#SAMPLESTART:31.340;
#SAMPLELENGTH:18.920;
#SELECTABLE:YES;
#BPMS:0.000=165.910,36.000=82.945,40.000=165.910,76.000=82.955,80.000=165.910;
#STOPS:;
#BGCHANGES:0.000=Angry Beavers.avi=1.000=1=1=0,
120.000=beavers-bg.png=1.000=0=0=1,
99999=-nosongbg-=1.000=0=0=0 // don't automatically add -songbackground-
;

//---------------dance-single - ----------------
#NOTES:
     dance-single:
     :
     Beginner:
     1:
     0.109,0.190,0.021,0.021,0.000:
1001
0000
0000
0000
,
0000
0000
0000
0000
,
1000
0000
0000
0000
,
0001
0000
0000
0000
,
0100
0000
0000
0000
,
0010
0000
0000
0000
,
1000
0000
0000
0000
,
0001
0000
0000
0000
,
0100
0000
0000
0000
,
0001
0000
1000
0000
,
0001
0000
0000
0000
,
0100
0000
0000
0000
,
0010
0000
0000
0000
,
1000
0000
0000
0000
,
0001
0000
0000
0000
,
0100
0000
0000
0000
,
0001
0000
0000
0000
,
1000
0000
0000
0000
,
0100
0000
0000
0000
,
0020
0000
0000
0000
,
0031
0000
0000
0000
,
1000
0000
0000
0000
,
0001
0000
0000
0000
,
0100
0000
0000
0000
,
0001
0000
0000
0000
,
1000
0000
0000
0000
,
0001
0000
0000
0000
,
1000
0000
0000
0000
,
0001
0000
0000
0000
,
0100
0100
0100
0100
,
0100
0000
0000
0000
;

//---------------dance-single - ----------------
#NOTES:
     dance-single:
     :
     Easy:
     3:
     0.235,0.316,0.148,0.021,0.000:
1000
0000
0000
0000
0001
0000
0000
0101
,
0000
0000
0000
0000
0000
1000
0001
0000
,
1000
0000
0010
0000
,
0100
0000
0001
0000
,
0100
0000
0001
0000
,
1000
0000
0100
0010
,
0001
0000
0100
0000
,
0001
0000
1000
0000
,
1010
0000
1010
0000
,
1010
0000
0110
0000
,
1000
0000
0001
0000
,
0100
0000
0001
1000
,
0001
0000
0100
0000
,
0010
0000
1000
0100
,
1000
0001
0000
0100
,
0000
0010
0000
1000
,
0010
0000
0000
0000
,
0100
0000
0000
0000
,
0010
0000
0000
0000
,
1100
0000
0000
0000
,
0001
0000
0100
0000
,
0001
0000
1000
0100
,
1000
0000
0010
0000
,
0100
0000
0001
1000
,
0001
0000
0100
0000
,
0010
0000
1000
0100
,
1000
0001
0100
0001
,
2000
0000
0000
0000
,
3001
0010
0100
1000
,
0010
0100
0010
0100
,
0110
0000
0000
0000
;

//---------------dance-single - ----------------
#NOTES:
     dance-single:
     :
     Medium:
     6:
     0.401,0.380,0.232,0.042,0.011:
1000
0000
0100
0000
0010
0001
0000
1001
,
0000
0000
1100
0000
0000
1000
0100
0010
,
0001
1000
1000
0001
,
0001
0100
0000
0101
0000
0000
0000
0000
,
0000
1000
0010
0000
0100
0000
0001
0000
,
1000
0001
0000
0001
0000
0001
0100
0001
,
1000
0100
0010
0100
,
1000
0000
0000
0101
0000
0000
0000
0000
,
1000
0010
0100
0001
,
1001
0000
0000
1000
0100
1000
0000
0000
,
0001
0000
0010
0000
,
0100
0000
0000
1000
0000
0000
0110
0000
,
0110
0000
0000
0001
0100
0000
0001
0000
,
1000
0000
0000
0100
0000
0000
0000
0010
,
0200
0000
0320
0001
,
0031
0010
0000
0100
0000
1000
0010
0000
,
0000
1000
0001
1000
0001
0000
1000
0000
,
0000
0001
0100
0001
0100
0000
0001
0000
,
0000
0100
0010
0100
0010
0000
0100
0000
,
1001
0000
0000
0000
0000
0000
0000
0100
0000
0000
0100
0000
0000
0000
0000
0000
,
1000
0100
0110
0001
,
1000
0000
0000
0001
0000
0000
0000
0000
,
0000
1000
0100
0000
0010
0000
0100
0000
,
1000
0010
0000
0100
0000
0001
1000
0001
,
0100
0010
1000
0100
,
0010
0001
0000
0101
0000
0000
0000
0000
,
1000
0100
1000
0100
1000
0000
0010
0100
,
0010
0000
0000
0000
,
1000
0000
0010
1000
0010
0000
0100
0001
,
1000
1000
1000
1000
,
1001
0000
0000
0000
;

//---------------dance-single - ----------------
#NOTES:
     dance-single:
     :
     Hard:
     7:
     0.579,0.665,0.253,0.169,0.179:
1000
0100
1000
0100
1000
0200
0000
1300
,
0000
0000
0000
0000
1001
0000
0000
0000
0000
0000
1000
0001
1000
0000
0001
0000
,
1000
0000
0001
0010
0001
0000
1000
0010
,
1000
0001
0000
0002
0000
0000
0000
0000
,
0000
1003
0010
0100
0001
0000
1000
0010
,
1000
0000
0010
0000
0000
0000
0010
0000
0000
0000
0100
0010
0100
0000
0001
0000
,
1000
0000
1000
0100
0010
0000
0001
0010
,
0100
1000
0000
1000
0000
0000
0000
0000
,
0100
0000
0010
1000
0010
0000
1000
0001
,
1000
0000
0000
0000
0001
0000
0000
0000
0010
0000
0000
0000
0100
0000
0000
0000
1000
0000
0000
0000
0020
0000
0000
0000
0000
0000
0000
0000
0000
0000
0031
0010
,
0001
0000
0000
1000
0010
0000
0100
0000
,
0001
0000
0010
0000
0000
0000
0100
0000
0000
0000
1000
0000
0100
0000
1000
0001
,
1000
0000
0000
0010
0100
0000
0001
0000
,
0010
0000
0100
0010
0000
0000
0000
0001
,
0001
1010
1001
0011
,
0001
0100
0000
1001
0000
0010
0001
0000
,
0000
0000
0001
0010
0001
0000
0010
0001
0020
0000
0000
0000
0130
0000
0000
0000
,
0000
0000
0001
1000
0001
0000
1000
0001
2000
0000
0000
0000
3010
0000
0000
0000
,
0000
0000
0010
0100
0010
0000
0100
0010
0100
0000
0000
0000
0110
0000
0000
0000
,
2002
0000
0000
0000
0000
0000
0000
0000
0000
0000
3003
0000
0001
0000
0010
0000
0000
0000
0100
0000
1000
0000
0000
0000
0000
0000
0001
0100
0001
0000
0100
0000
,
0001
0000
1000
0001
1000
0000
0010
0100
,
0001
2000
0000
3010
0000
0000
0000
0000
,
0000
0001
0010
0100
1000
0000
1000
0100
,
0010
0000
0001
0000
0000
0000
0101
0000
0000
0000
0001
1000
0010
0000
1000
0000
,
0001
0000
0100
0010
0100
0000
0001
1000
,
0001
1000
0000
1001
0000
0000
0000
0000
,
0011
0100
0010
0100
0010
0000
0100
1000
,
0100
1000
0100
0010
,
0110
0000
0100
0001
0100
0000
0010
0001
,
0010
0001
0100
0010
0100
0001
1000
0010
,
1001
0000
0000
0000
;

//---------------dance-single - ----------------
#NOTES:
     dance-single:
     :
     Challenge:
     8:
     0.630,0.665,0.591,0.127,0.190: // measure 1
1000
0100
1000
0100
0010
0001
0000
0101
,  // measure 2
0000
0000
0000
0000
1001
0000
0000
0000
0000
0000
1000
0100
1000
0000
0010
0000
,  // measure 3
1001
0000
1000
0100
1000
0000
0001
0100
,  // measure 4
0001
1000
0000
2001
0000
0000
0000
0000
,  // measure 5
0000
3001
0100
0010
1000
0000
0001
0100
,  // measure 6
0001
0000
0100
0000
0000
0000
0100
0000
0000
0000
0010
0100
0010
0000
0010
0000
,  // measure 7
1000
0000
0001
0010
0100
0000
1000
0100
,  // measure 8
0010
0001
0000
0101
0000
0000
0000
0000
,  // measure 9
1010
0001
0100
0001
0100
0000
0001
1000
,  // measure 10
0001
0000
0000
0000
1000
0000
0000
0000
0100
0000
0000
0000
0010
0000
0000
0000
0001
0000
0000
0000
0200
0000
0000
0000
0000
0000
0000
0000
0300
0000
1000
0100
,  // measure 11
1000
0000
0000
0001
0100
0000
0010
0000
,  // measure 12
1000
0000
0100
0000
0000
0000
0010
0000
0000
0000
0001
0000
0110
0000
0001
1000
,  // measure 13
0101
0000
0000
0100
0010
0000
1000
0000
,  // measure 14
0100
0000
0010
0110
0000
0000
0000
1100
,  // measure 15
1100
0000
0000
0101
1001
0000
1100
0000
,  // measure 16
1100
0110
0000
1001
0000
0101
1001
0000
,  // measure 17
0000
0000
1000
0100
1000
0000
0100
1000
0200
0000
0000
0000
0310
0000
0000
0000
,  // measure 18
0000
0000
1000
0001
1000
0000
0001
1000
0002
0000
0000
0000
0103
0000
0000
0000
,  // measure 19
0000
0000
0100
0010
0100
0000
0010
0100
0010
0000
0000
0000
0110
0000
0000
0000
,  // measure 20
2000
0000
0002
0000
0000
0000
0000
0000
0000
0000
3003
0000
1000
0000
0100
0000
0000
0000
0010
0000
0001
0000
0000
0000
0000
0000
1000
0010
1000
0000
0010
0000
,  // measure 21
1000
0000
0001
1000
0001
0000
0100
0010
,  // measure 22
1000
0101
0000
0101
0000
0000
0000
0000
,  // measure 23
0000
1000
0100
0010
0001
0000
0001
0010
,  // measure 24
0100
0000
1000
0000
0000
0000
1010
0000
0000
0000
1000
0001
0100
0000
0001
0000
,  // measure 25
1100
0000
0010
0100
0010
0000
1000
0001
,  // measure 26
1000
0001
0000
1001
0000
0000
0000
0000
,  // measure 27
1100
0010
0100
0010
0100
0000
0010
0001
,  // measure 28
0010
0010
0010
0010
,  // measure 29
0110
0001
0010
1000
0010
0000
0100
1000
,  // measure 30
0100
0001
0010
0100
1000
0010
0001
0100
,  // measure 31
1001
0000
0000
0000
;
