#TITLE:Tetris 99';
#SUBTITLE:(Happy Hardcore Mix);
#ARTIST:DJ Scribble;
#TITLETRANSLIT:;
#SUBTITLETRANSLIT:;
#ARTISTTRANSLIT:;
#CREDIT:;
#BANNER:tetris.png;
#BACKGROUND:tetris-bg.png;
#LYRICSPATH:;
#CDTITLE:kykaCD.png;
#MUSIC:Tetris 99' (Happy Hardcore Mix).mp3;
#OFFSET:-2.180;
#SAMPLESTART:42.187;
#SAMPLELENGTH:13.320;
#SELECTABLE:YES;
#BPMS:0.000=144.000,302.000=142.000,306.000=125.000,308.000=120.000,309.500=100.000,311.000=85.000,312.000=82.000,314.000=78.000,315.000=65.000,316.000=55.000,317.000=45.000;
#STOPS:;
#BGCHANGES:0.000=tetris.avi=1.000=1=1=0,
322.000=tetris-bg.png=1.000=0=0=1,
99999=-nosongbg-=1.000=0=0=0 // don't automatically add -songbackground-
;

//---------------dance-single - ----------------
#NOTES:
     dance-single:
     :
     Easy:
     3:
     0.242,0.309,0.141,0.155,0.000: // measure 1
0100
0010
1000
0001
,  // measure 2
0100
0001
0010
0001
,  // measure 3
1000
0000
0010
0100
,  // measure 4
0001
1000
0001
0000
,  // measure 5
1000
0100
1000
0100
,  // measure 6
0010
0000
0001
0100
,  // measure 7
0010
0000
1000
0000
,  // measure 8
0010
0100
0001
0000
,  // measure 9
1000
1100
0000
0011
,  // measure 10
0000
0101
0000
1001
,  // measure 11
0000
1100
0000
0110
,  // measure 12
0000
1001
0000
0101
,  // measure 13
0000
1001
0000
1100
,  // measure 14
0000
1010
0000
0110
,  // measure 15
0000
1001
0000
0101
,  // measure 16
0000
1001
0000
1100
,  // measure 17
2000
0000
3020
0000
,  // measure 18
0230
0000
0302
0000
,  // measure 19
2003
0000
3002
0000
,  // measure 20
0203
0000
0000
0300
,  // measure 21
0020
0000
2030
0000
,  // measure 22
3200
0000
2300
0000
,  // measure 23
3002
0000
0203
0000
,  // measure 24
0302
0000
0000
0003
,  // measure 25
1000
0010
0100
0001
,  // measure 26
0010
0001
0100
0001
,  // measure 27
1000
0000
0010
1000
,  // measure 28
0100
1000
0010
0000
,  // measure 29
0100
0001
1000
0001
,  // measure 30
1000
0000
0010
1000
,  // measure 31
0001
0000
0100
0000
,  // measure 32
0010
1000
0100
1000
,  // measure 33
0001
0100
0000
0000
0000
0010
0000
0000
,  // measure 34
0000
1000
0000
0000
0000
0001
0000
0000
,  // measure 35
0000
0100
0000
0000
0000
0010
0000
0000
,  // measure 36
0000
1000
0000
0000
0000
0001
0000
0000
,  // measure 37
0000
0100
0000
0000
0000
0001
0000
0000
,  // measure 38
0000
1000
0000
0000
0000
0100
0000
0000
,  // measure 39
0000
1000
0000
0000
0000
0001
0000
0000
,  // measure 40
0000
0100
0000
0000
0000
0010
0000
0000
,  // measure 41
1000
0000
0010
0100
,  // measure 42
0001
0000
1000
0100
,  // measure 43
1000
0000
0010
0100
,  // measure 44
0001
0000
0010
0001
,  // measure 45
0100
0000
0010
1000
,  // measure 46
0100
0000
1000
0001
,  // measure 47
0100
0000
0001
1000
,  // measure 48
0001
0000
1000
0100
,  // measure 49
1000
0000
0010
0000
,  // measure 50
0100
0000
0001
0000
,  // measure 51
1000
0000
0001
0000
,  // measure 52
0100
0000
0001
0000
,  // measure 53
1000
0000
0100
0000
,  // measure 54
1000
0000
0010
0000
,  // measure 55
0100
0000
0001
0000
,  // measure 56
0100
0000
0001
0000
,  // measure 57
1000
0000
0010
0000
,  // measure 58
1000
0000
0001
0000
,  // measure 59
0100
0000
0001
0000
,  // measure 60
0010
0000
0001
0000
,  // measure 61
0100
0000
0010
0000
,  // measure 62
1000
0000
0100
0000
,  // measure 63
1000
0000
0010
0000
,  // measure 64
0100
0000
0001
0000
,  // measure 65
2000
0000
3001
0000
,  // measure 66
0200
0000
0301
0000
,  // measure 67
0020
0000
0031
0000
,  // measure 68
2000
0000
3100
0000
,  // measure 69
2000
0000
3010
0000
,  // measure 70
0200
0000
0301
0000
,  // measure 71
2000
0000
3001
0000
,  // measure 72
0200
0000
0301
0000
,  // measure 73
1000
0001
0100
0001
,  // measure 74
1000
0100
1000
0010
,  // measure 75
0100
0000
0001
1000
,  // measure 76
0001
1000
0001
0000
,  // measure 77
1000
0000
0010
0000
,  // measure 78
0100
0000
0010
0000
,  // measure 79
1000
0000
0001
1001
,  // measure 80
0110
1001
1010
0001
;

//---------------dance-single - ----------------
#NOTES:
     dance-single:
     :
     Hard:
     9:
     0.509,0.620,0.169,0.240,0.085: // measure 1
1000
0000
0100
1000
0010
0000
0100
0001
,  // measure 2
0010
0000
0001
1000
0001
0000
1000
0100
,  // measure 3
1000
0000
0000
0010
0100
0000
0010
0000
,  // measure 4
1010
0101
1001
0000
,  // measure 5
0000
1001
0000
0001
0100
0000
0010
1000
,  // measure 6
0200
0000
0000
0310
0001
0000
1000
0001
,  // measure 7
0010
0000
0001
1000
0100
0000
1000
0000
,  // measure 8
1010
0101
0011
0000
,  // measure 9
1000
0000
1001
0001
0100
0000
1010
0010
,  // measure 10
1000
0000
1100
1000
0100
0000
0011
0001
,  // measure 11
0100
0000
0000
0010
1000
0000
0010
0000
,  // measure 12
0100
0000
0001
0000
1001
0000
0010
1000
,  // measure 13
0010
1000
0000
0010
0100
0000
0010
1000
,  // measure 14
0001
0000
0000
1000
0100
0000
0010
0001
,  // measure 15
0100
0000
0010
1000
0001
0000
0100
0000
,  // measure 16
1001
0000
0110
0000
1001
0000
1000
1000
,  // measure 17
0002
1003
0020
0130
,  // measure 18
0002
0000
1003
0000
0002
0000
0013
0010
,  // measure 19
0002
0103
0020
1030
,  // measure 20
0020
0000
0100
0000
1000
0000
0031
0001
,  // measure 21
0020
1030
0200
1300
,  // measure 22
0002
0000
0103
0000
0002
0000
1003
1000
,  // measure 23
0002
0000
1003
0020
0200
0030
0010
0300
,  // measure 24
2001
0000
0001
0000
3010
0000
1000
1000
,  // measure 25
0001
0000
0100
0010
1000
0000
0001
0100
,  // measure 26
0001
0000
1000
0100
1000
0000
0010
0100
,  // measure 27
0010
0000
0000
1000
0001
0000
0100
0000
,  // measure 28
0011
0000
1100
0000
0101
0000
0010
0010
,  // measure 29
1000
1001
0000
0001
0100
0000
0010
1000
,  // measure 30
0001
0000
0000
0100
0001
0000
1000
0100
,  // measure 31
1000
0000
0010
0100
0001
0000
1000
0000
,  // measure 32
0001
0010
0100
1000
0001
0100
0010
1000
0001
0010
0100
1000
0001
0100
0010
1000
,  // measure 33
0001
0000
1000
0010
0000
0000
1000
0000
0001
0000
1000
0010
0000
0000
1000
0000
,  // measure 34
0001
0000
1000
0010
0000
0000
1000
0000
0010
0000
1000
0100
0000
0000
1000
0000
,  // measure 35
0001
0000
1000
0001
0000
0000
1000
0000
0100
0000
1000
0010
0000
0000
1000
0000
,  // measure 36
0001
0000
1000
0100
0000
0000
1000
0000
0010
0000
1000
0001
0000
0000
1000
0000
,  // measure 37
0010
0000
1000
0001
0000
0000
1000
0000
0010
0000
1000
0001
0000
0000
1000
0000
,  // measure 38
0001
0000
1000
0010
0000
0000
1000
0000
0010
0000
1000
0100
0000
0000
1000
0000
,  // measure 39
0001
0000
1000
0001
0000
0000
1000
0000
0100
0000
1000
0010
0000
0000
1000
0000
,  // measure 40
0001
0000
1000
0100
0000
0000
1000
0000
0010
0000
1000
0001
1000
0000
1000
0000
,  // measure 41
0001
1000
0000
0010
0100
0001
1000
0001
,  // measure 42
0100
0010
0000
1000
0001
0100
0001
1000
,  // measure 43
0100
1000
0000
0010
0100
0001
0010
0001
,  // measure 44
1000
0100
0000
1000
0010
0100
0001
1000
,  // measure 45
0010
1000
0000
0001
0100
0001
0010
1000
,  // measure 46
0010
0001
0000
1000
0100
0010
0001
0100
,  // measure 47
0010
1000
0000
0001
0100
0001
1000
0100
,  // measure 48
1000
0010
0000
0100
0010
1000
0001
0100
,  // measure 49
0001
1000
0000
0010
0100
0000
0010
1000
,  // measure 50
0001
0100
0000
0001
0010
0000
0001
1000
,  // measure 51
0100
1000
0000
0010
0100
0000
0001
1000
,  // measure 52
0100
1000
0000
0010
0100
0000
0001
0010
,  // measure 53
0001
1000
0000
0100
1000
0000
0010
0100
,  // measure 54
0010
1000
0000
0001
0100
0000
0010
1000
,  // measure 55
0001
0100
0000
0001
1000
0000
0001
0010
,  // measure 56
0001
1000
0000
0100
1000
0000
0010
0100
,  // measure 57
0001
1000
0000
0100
1000
0000
0010
0100
,  // measure 58
0001
0010
0000
0001
1000
0000
0010
0100
,  // measure 59
0001
1000
0000
0100
1000
0000
0001
0010
,  // measure 60
0100
1000
0000
0001
0100
0000
0001
0010
,  // measure 61
0001
1000
0000
0100
1000
0000
0010
0100
,  // measure 62
0001
0010
0000
0001
1000
0000
0100
1000
,  // measure 63
0010
0100
0000
0001
0010
0000
0001
0100
,  // measure 64
0010
1000
0000
0100
1000
0000
0010
0100
,  // measure 65
0002
0000
0000
1000
2003
0000
0000
0000
,  // measure 66
3020
0000
0000
0100
0230
0000
0000
0000
,  // measure 67
0302
0000
0000
1000
2003
0000
0000
0000
,  // measure 68
3020
0000
0000
1000
2000
0000
3030
0000
,  // measure 69
0002
0000
0000
0100
0203
0000
0000
0000
,  // measure 70
0320
0000
0000
1000
2030
0000
0000
0000
,  // measure 71
3002
0000
0000
2000
3203
0000
0000
0000
,  // measure 72
0302
0000
0000
1000
1000
0000
0003
0000
,  // measure 73
1000
0000
0100
1000
0001
0000
0010
0001
,  // measure 74
0100
0000
0001
1000
0100
0000
1000
0010
,  // measure 75
0100
0000
0000
0001
1000
0000
0001
0000
,  // measure 76
0101
0011
1001
0000
,  // measure 77
0000
0100
0000
0010
1000
0000
0001
0100
,  // measure 78
0001
0000
0000
1000
0100
0000
0010
0001
,  // measure 79
0100
0000
0010
1000
0001
0000
0100
0000
,  // measure 80
0010
1000
1002
2000
,  // measure 81
3003
0000
0000
0000
;

//---------------dance-single - ----------------
#NOTES:
     dance-single:
     :
     Medium:
     7:
     0.392,0.395,0.211,0.113,0.056: // measure 1
0100
0000
0001
1000
0001
0000
1000
0001
,  // measure 2
1000
0000
0001
1000
0001
0000
1000
0001
,  // measure 3
1000
0000
0010
0100
,  // measure 4
0010
0010
0010
0000
,  // measure 5
0000
1000
0000
0001
1000
0000
0001
0100
,  // measure 6
0001
0000
0000
1000
0100
0000
1000
0100
,  // measure 7
1000
0000
0001
0100
0001
0000
1000
0000
,  // measure 8
0001
0010
1100
0000
,  // measure 9
0010
1100
0001
0101
,  // measure 10
0001
0000
0011
0000
0001
0000
1001
1000
,  // measure 11
0001
1100
0010
0110
,  // measure 12
0001
0000
1001
0000
1000
0000
1100
0100
,  // measure 13
1000
1010
0100
0110
,  // measure 14
0001
1001
1000
1100
,  // measure 15
0001
0101
0001
1001
,  // measure 16
1000
1100
0010
0110
,  // measure 17
2000
0000
3020
0000
,  // measure 18
0230
0000
0302
0000
,  // measure 19
2003
0000
3020
0000
,  // measure 20
0230
0000
0000
0300
,  // measure 21
0002
0000
2003
0000
,  // measure 22
3020
0000
0230
0000
,  // measure 23
0302
0000
0000
1003
0020
0000
0000
0000
,  // measure 24
0230
0000
0000
0300
,  // measure 25
0010
0000
1000
0001
1000
0000
0001
1000
,  // measure 26
0001
0000
1000
0001
1000
0000
0001
1000
,  // measure 27
0001
0000
0100
0010
,  // measure 28
0100
0100
0100
0000
,  // measure 29
0000
0001
0000
1000
0001
0000
1000
0010
,  // measure 30
1000
0000
0000
0001
0010
0000
0001
0010
,  // measure 31
0001
0000
1000
0010
1000
0000
0001
0000
,  // measure 32
1001
0110
0011
1001
,  // measure 33
0100
0000
0000
0010
0000
0000
1000
0000
0001
0000
0000
0100
0000
0000
0001
0000
,  // measure 34
1000
0000
0000
0100
0000
0000
1000
0000
0100
0000
0000
1000
0000
0000
0100
0000
,  // measure 35
0010
0000
0000
0001
0000
0000
0010
0000
0001
0000
0000
0100
0000
0000
0001
0000
,  // measure 36
0100
0000
0000
0010
0000
0000
1000
0000
0010
0000
0000
0100
0000
0000
0001
0000
,  // measure 37
1000
0000
0000
0001
0000
0000
0100
0000
0001
0000
0000
0010
0000
0000
0001
0000
,  // measure 38
0100
0000
0000
0010
0000
0000
1000
0000
0100
0000
0000
1000
0000
0000
0010
0000
,  // measure 39
0100
0000
0000
0001
0000
0000
0010
0000
0001
0000
0000
1000
0000
0000
0010
0000
,  // measure 40
0100
0000
0000
0001
0000
0000
1000
0000
0001
0000
0000
0010
0000
0000
0001
0000
,  // measure 41
0100
0010
0000
1000
0001
1000
0000
0001
,  // measure 42
0100
0001
0000
1000
0100
1000
0000
0010
,  // measure 43
0100
0010
0000
1000
0001
1000
0000
0001
,  // measure 44
0100
0001
0000
0010
0001
0010
0000
0001
,  // measure 45
0100
0001
0000
1000
0100
1000
0000
0010
,  // measure 46
0100
0010
0000
1000
0001
1000
0000
0001
,  // measure 47
0100
0001
0000
1000
0100
1000
0000
0010
,  // measure 48
0100
0010
0000
1000
0001
1000
0000
0001
,  // measure 49
0100
0010
0000
0100
0010
0000
0000
0000
,  // measure 50
1000
0010
0000
1000
0010
0000
0000
0000
,  // measure 51
0100
0001
0000
0100
0001
0000
0000
0000
,  // measure 52
1000
0001
0000
1000
0001
0000
0000
0000
,  // measure 53
0100
0010
0000
0100
0010
0000
0000
0000
,  // measure 54
1000
0001
0000
0100
0001
0000
0000
0000
,  // measure 55
1000
0100
0000
1000
0010
0000
0000
0000
,  // measure 56
0100
0001
0000
1000
0001
0000
0000
0000
,  // measure 57
1000
0010
0000
0100
0010
0000
0000
0000
,  // measure 58
0100
0010
0000
1000
0010
0000
0000
0000
,  // measure 59
1000
0001
0000
0100
0001
0000
0000
0000
,  // measure 60
0010
0001
0000
1000
0001
0000
0000
0000
,  // measure 61
1000
0010
0000
0100
0010
0000
0000
0000
,  // measure 62
0010
0001
0000
0100
0001
0000
0000
0000
,  // measure 63
1000
0001
0000
1000
0010
0000
0000
0000
,  // measure 64
1000
0001
0000
1000
0001
0000
0000
0000
,  // measure 65
0101
0000
0000
0100
0001
0000
0000
0000
,  // measure 66
1100
0000
0000
1000
0100
0000
0000
0000
,  // measure 67
0011
0000
0000
0100
0001
0000
0000
0000
,  // measure 68
1001
0000
0000
0100
0010
0000
0000
0000
,  // measure 69
1100
0000
0000
1000
0100
0000
0000
0000
,  // measure 70
0011
0000
0000
0010
0001
0000
0000
0000
,  // measure 71
0110
0000
0000
1000
0010
0000
0000
0000
,  // measure 72
1001
0000
0000
0100
0001
0000
0000
0000
,  // measure 73
0100
0000
0001
1000
0001
0000
1000
0001
,  // measure 74
1000
0000
0001
1000
0001
0000
1000
0001
,  // measure 75
1000
0000
0010
0100
,  // measure 76
0010
0010
0010
0000
,  // measure 77
0000
1000
0000
0001
1000
0000
0001
0100
,  // measure 78
0001
0000
0000
1000
0100
0000
1000
0100
,  // measure 79
1000
0000
0001
0100
0001
0000
1000
0000
,  // measure 80
0001
0010
2100
0200
,  // measure 81
3300
0000
0000
0000
;

//---------------dance-single - ----------------
#NOTES:
     dance-single:
     :
     Beginner:
     1:
     0.140,0.197,0.000,0.063,0.000: // measure 1
0100
0000
0100
0000
,  // measure 2
0010
0000
0010
0000
,  // measure 3
1000
0000
0001
0000
,  // measure 4
0100
0100
0100
0000
,  // measure 5
0010
0000
1000
0000
,  // measure 6
0001
0000
0100
0000
,  // measure 7
0001
0000
0010
0000
,  // measure 8
0001
0001
0001
0000
,  // measure 9
0000
1000
0000
1000
,  // measure 10
0000
0010
0000
0010
,  // measure 11
0000
0100
0000
0100
,  // measure 12
0000
0001
0000
0001
,  // measure 13
0000
0100
0000
0100
,  // measure 14
0000
0010
0000
0010
,  // measure 15
0000
1000
0000
1000
,  // measure 16
0000
0001
0000
0001
,  // measure 17
1000
0000
1000
0000
,  // measure 18
1000
0000
1000
0000
,  // measure 19
1000
0000
1000
0000
,  // measure 20
1000
0000
0000
0000
,  // measure 21
0001
0000
0001
0000
,  // measure 22
0001
0000
0001
0000
,  // measure 23
0001
0000
0001
0000
,  // measure 24
0001
0000
0000
0000
,  // measure 25
0100
0000
0010
0000
,  // measure 26
1000
0000
0001
0000
,  // measure 27
0100
0000
0010
0000
,  // measure 28
1000
1000
1000
0000
,  // measure 29
0001
0000
0100
0000
,  // measure 30
0001
0000
0010
0000
,  // measure 31
0001
0000
0100
0000
,  // measure 32
0010
0010
0010
0010
,  // measure 33
1000
0000
0001
0000
,  // measure 34
1000
0000
0001
0000
,  // measure 35
0100
0000
0010
0000
,  // measure 36
1000
0000
0001
0000
,  // measure 37
0100
0000
0001
0000
,  // measure 38
0010
0000
0001
0000
,  // measure 39
0100
0000
0010
0000
,  // measure 40
1000
0000
0100
0000
,  // measure 41
1000
0000
0000
0000
,  // measure 42
0001
0000
0000
0000
,  // measure 43
1000
0000
0000
0000
,  // measure 44
0010
0000
0000
0000
,  // measure 45
0100
0000
0000
0000
,  // measure 46
0001
0000
0000
0000
,  // measure 47
1000
0000
0000
0000
,  // measure 48
0001
0000
0000
0000
,  // measure 49
0100
0000
0000
0000
,  // measure 50
0001
0000
0000
0000
,  // measure 51
0010
0000
0000
0000
,  // measure 52
0001
0000
0000
0000
,  // measure 53
0100
0000
0000
0000
,  // measure 54
0001
0000
0000
0000
,  // measure 55
1000
0000
0000
0000
,  // measure 56
0100
0000
0000
0000
,  // measure 57
1000
0000
0000
0000
,  // measure 58
0010
0000
0000
0000
,  // measure 59
0100
0000
0000
0000
,  // measure 60
0001
0000
0000
0000
,  // measure 61
1000
0000
0000
0000
,  // measure 62
0001
0000
0000
0000
,  // measure 63
0100
0000
0000
0000
,  // measure 64
0010
0000
0000
0000
,  // measure 65
2000
0000
3000
0000
,  // measure 66
0002
0000
0003
0000
,  // measure 67
0200
0000
0300
0000
,  // measure 68
0020
0000
0030
0000
,  // measure 69
2000
0000
3000
0000
,  // measure 70
0002
0000
0003
0000
,  // measure 71
0200
0000
0300
0000
,  // measure 72
0020
0000
0030
0000
,  // measure 73
0100
0000
0100
0000
,  // measure 74
0001
0000
0001
0000
,  // measure 75
1000
0000
1000
0000
,  // measure 76
0001
0000
0001
0000
,  // measure 77
1000
0000
0000
0000
,  // measure 78
0001
0000
0000
0000
,  // measure 79
1000
0000
0001
0000
,  // measure 80
0100
0100
0200
0300
;
