#TITLE:Team;
#SUBTITLE:;
#ARTIST:Krewella;
#TITLETRANSLIT:;
#SUBTITLETRANSLIT:;
#ARTISTTRANSLIT:;
#CREDIT:;
#BANNER:team.png;
#BACKGROUND:team-bg.png;
#LYRICSPATH:;
#CDTITLE:kyka2016.png;
#MUSIC:team.mp3;
#OFFSET:-0.086;
#SAMPLESTART:42.450;
#SAMPLELENGTH:15.000;
#SELECTABLE:YES;
#BPMS:0.000=101.970;
#STOPS:;
#BGCHANGES:0.000=team.avi=1.000=1=1=0,
175.500=team-bg.png=1.000=0=0=0,
99999=-nosongbg-=1.000=0=0=0 // don't automatically add -songbackground-
;

//---------------dance-single - ----------------
#NOTES:
     dance-single:
     :
     Challenge:
     9:
     0.590,0.527,0.178,0.169,0.671: // measure 1
0000
0000
0000
0000
,  // measure 2
0000
0000
0000
0000
,  // measure 3
1000
0000
0000
0000
0100
0000
1000
0000
0010
0000
0000
0010
0000
0000
0010
0000
,  // measure 4
0100
0000
0010
0000
0100
0000
0001
0000
0010
0000
0001
0000
0100
0000
0010
0000
0000
0000
0100
0000
0000
0001
0000
0000
,  // measure 5
1000
0000
0000
0000
0010
0000
0100
0000
0001
0000
0000
1000
0000
0000
0001
1000
,  // measure 6
0100
0000
1000
0000
0010
0000
0100
0000
0001
0000
0010
0000
0001
0000
1000
0000
0001
0000
0100
0000
0000
0010
0000
0000
,  // measure 7
0100
0000
0000
0000
0001
0000
0010
0000
0001
0000
0000
0100
0000
0000
0010
0000
,  // measure 8
0100
0010
0100
0001
0010
0001
0100
0010
1000
0100
0010
0001
,  // measure 9
0100
0000
0000
0000
0010
0000
1000
0000
0001
0000
0000
0001
0200
0000
0000
0000
,  // measure 10
0310
0000
0000
1000
0001
0000
0100
0000
0010
0000
0000
0000
1000
0100
1000
0100
,  // measure 11
1000
0000
0001
0100
0001
0100
0001
0000
0000
0000
0000
0000
1000
0100
1000
0100
,  // measure 12
0010
0000
0100
1000
0100
1000
0010
0000
0000
0000
0000
1000
0001
1000
0001
1000
,  // measure 13
0001
0000
0000
0100
0010
0100
0010
0000
0000
0000
0000
0000
1000
0001
0100
0010
,  // measure 14
1000
0000
0001
0100
0000
0001
0000
0200
0000
0000
0000
0000
0301
0010
0001
0100
,  // measure 15
0010
0000
1000
0001
0100
0000
0010
0000
2000
0000
0000
0000
3010
0100
0010
0100
,  // measure 16
0001
0000
0010
0100
1000
0000
0010
0000
0200
0000
0000
0301
2000
0000
0000
0000
,  // measure 17
3001
0000
0010
0001
0010
0000
0100
0000
1000
0010
1000
0000
0100
0000
0000
1000
,  // measure 18
0010
1000
0010
0100
0001
0100
0001
1000
0010
0200
0000
0000
,  // measure 19
0301
0010
0100
1000
0001
0000
0100
0000
0010
0000
1000
0000
0010
0100
0001
0010
,  // measure 20
0001
0100
0010
1000
0100
0000
0010
0000
0001
0000
0100
0000
0010
1000
0001
0000
,  // measure 21
1000
0010
0100
0010
0100
0000
0001
0000
0010
0000
0001
0000
0100
0010
1000
0001
,  // measure 22
1000
0000
0010
0100
0010
0000
1000
0000
0001
0100
0001
0000
0020
0000
0032
0000
,  // measure 23
0103
0010
1000
0010
0100
0000
0001
0000
0010
0000
0001
0000
0100
0001
0010
0001
,  // measure 24
0100
0010
1000
0001
0100
0000
0010
0000
1000
0000
0100
0000
1000
0010
1000
0000
,  // measure 25
0001
0000
0100
0010
1000
0000
0001
0000
0010
0001
0100
0000
0101
0000
0000
0010
,  // measure 26
1000
0000
0100
0000
1000
0000
0001
0000
0010
0000
0001
0000
0100
0000
0010
0000
1000
0000
0001
0000
0000
1001
0000
0000
,  // measure 27
0010
0000
1000
0100
1000
0010
0100
0000
0001
0000
1000
0010
1000
0000
0001
0000
,  // measure 28
0200
0000
0000
0320
0000
0000
0130
0000
0002
0000
0000
0000
0000
0000
0000
0000
,  // measure 29
0003
0010
0001
1000
0001
0000
0010
0100
0010
0000
0001
0100
0010
0000
1000
0000
,  // measure 30
0110
0000
0000
1010
0000
0000
0220
0000
0000
0000
0000
0330
1001
0000
1100
0000
,  // measure 31
1010
0000
0100
0001
0010
0001
1000
0000
0100
0000
1000
0001
0100
0000
0001
0000
,  // measure 32
0012
0000
0000
0203
0000
0000
0310
0000
2000
0000
0000
0000
3010
0100
0010
0100
,  // measure 33
0001
0000
1000
0001
0010
0000
0001
0000
0100
0010
1000
0000
0110
0000
0000
0010
,  // measure 34
1000
0100
1000
0001
0100
0001
0010
0100
1000
0010
0000
0000
,  // measure 35
1100
0000
0000
0101
0000
0000
0110
0000
0000
0000
0000
0000
1010
0000
0110
0000
,  // measure 36
1001
0000
0000
0011
0000
0000
0101
0000
0000
0000
1000
0000
0001
0000
1000
0000
,  // measure 37
0001
1000
0100
1000
0001
0000
0100
0000
0010
0000
1000
0000
0010
0100
0010
1000
,  // measure 38
0001
0010
0001
0100
0010
0000
1000
0000
0001
0000
0100
0000
0010
1000
0100
0000
,  // measure 39
0010
0001
0100
0010
1000
0000
0100
0000
1000
0000
0010
0000
0100
0010
1000
0001
,  // measure 40
1000
0000
0010
0100
0010
0000
1000
0000
0001
0100
0001
0000
1000
0000
0010
0000
,  // measure 41
0100
0001
1000
0001
0010
0000
0001
0000
0100
0000
0001
0000
0010
0001
0100
0010
,  // measure 42
1000
0100
1000
0010
0100
0000
0001
0000
0100
0000
0010
0000
1000
0100
1000
0000
,  // measure 43
0010
0000
1000
0100
1000
0000
0010
0000
0100
0001
0100
0000
0001
0000
0000
1000
,  // measure 44
0001
0000
0100
0000
0010
0000
1000
0000
0100
0000
0010
0000
0001
0000
0100
0000
0010
0000
1000
0000
0000
2002
0000
0000
,  // measure 45
0000
0000
0000
0000
0000
0000
0000
3003
;

//---------------dance-single - ----------------
#NOTES:
     dance-single:
     :
     Hard:
     8:
     0.539,0.484,0.056,0.103,0.662:
0000
0000
0000
0000
,
0000
0000
0000
0000
,
1000
0000
0000
0000
0001
0000
0100
0000
0100
0000
0000
0010
0000
0000
1000
0000
,
0001
0000
1000
0000
0001
0000
1000
0000
0001
0000
1000
0000
0001
0000
1000
0000
0000
0000
0001
0000
0000
0100
0000
0000
,
0010
0000
0000
0000
1000
0000
0001
0000
1000
0000
0000
0010
0000
0000
1000
0000
,
0001
0000
0100
0000
0001
0000
0100
0000
0001
0000
0100
0000
0001
0000
0100
0000
0001
0000
0100
0000
0000
0010
0000
0000
,
1000
0000
0000
0000
0010
0000
0100
0000
0010
0000
0000
0100
0000
0000
0010
0000
,
1000
0010
1000
0010
1000
0010
1000
0010
1000
0010
1000
0010
,
1000
0000
0001
0100
0001
0000
2000
0000
,
3010
0000
0000
0100
0000
0000
0001
0000
1000
0000
0000
0000
0001
0100
0001
0100
,
0001
0000
1000
0010
1000
0010
2000
0000
3000
0000
0000
0000
0010
0100
0010
0100
,
0010
0000
1000
0001
1000
0001
2000
0000
3000
0000
0000
0000
0010
0100
0010
0100
,
0010
0000
0000
1000
0010
1000
0010
0000
0000
0000
0000
0000
0100
0001
0100
0001
,
0100
0000
0010
1000
0000
0010
0000
2000
0000
0000
3000
0000
0001
0010
0001
0010
,
0001
0000
1000
0001
1000
0000
0010
0000
0100
0000
0000
0000
0010
1000
0010
1000
,
0010
0000
0100
0001
0100
0000
0001
0000
1000
0000
0000
0001
2000
0000
0000
0000
,
3000
0000
0001
0100
0001
0000
1000
0000
0010
0100
0010
0000
1000
0000
0000
0001
,
0100
0010
0100
0010
0100
0010
1000
0010
1000
0010
0000
0000
,
0000
0100
0001
0100
0001
0000
0100
0000
0010
0000
1000
0000
0010
1000
0010
1000
,
0000
0010
0100
0010
0100
0000
0001
0000
0010
0000
0001
0000
0100
0001
0100
0000
,
0000
0001
0100
0001
0100
0000
0010
0000
0100
0000
0001
0000
0010
0001
0010
0001
,
0000
0000
1000
0010
1000
0000
0001
0000
0100
0010
0100
0000
0001
0000
1000
0000
,
0000
0010
1000
0010
0100
0000
0001
0000
0100
0000
0001
0000
1000
0100
0010
0100
,
0000
0010
0001
0010
0100
0000
1000
0000
0010
0000
1000
0000
0001
0100
0001
0000
,
0000
1000
0100
0010
0001
0000
0100
0000
0010
1000
0010
0000
1000
0000
0000
0100
,
0010
0000
0100
0000
0010
0000
0001
0000
0010
0000
0100
0000
0010
0000
0001
0000
0100
0000
0001
0000
0000
1000
0000
0000
,
0100
0000
0010
0001
0010
0001
0100
0000
0010
0000
1000
0001
1000
0000
0010
0000
,
0100
0000
0000
0010
0000
0000
1000
0000
0002
0000
0000
0000
0000
0000
0000
0000
,
0003
0000
1000
0100
1000
0010
0100
0000
0001
0000
0100
0010
0100
0010
1000
0000
,
0001
0000
0000
1000
0000
0000
2020
0000
0000
0000
3030
0000
0001
0000
0100
0000
,
0001
0000
1000
0010
1000
0010
1000
0000
0100
0000
0010
0001
0010
0000
0001
0000
,
0100
0000
0000
0001
0000
0000
1000
0000
0200
0000
0000
0000
1300
0010
1000
0010
,
0000
0000
0100
0001
0100
0000
0010
0000
0100
0010
0100
0000
0001
0000
0000
0010
,
0001
0010
0001
0100
0010
0100
0010
1000
0010
1000
0000
0000
,
0001
0000
0000
1000
0000
0000
1100
0000
0000
0000
0000
0000
0001
0000
0100
0000
,
0011
0000
0000
0101
0000
0000
1001
0000
0000
0000
0001
0000
0100
0000
0001
0000
,
0000
1000
0010
1000
0010
0000
0100
0000
0001
0000
0010
0000
0001
0100
0001
0100
,
0000
0010
0100
0010
1000
0000
0010
0000
0100
0000
0001
0000
0010
0001
0010
0000
,
0000
0001
1000
0001
1000
0000
0010
0000
0100
0000
0010
0000
1000
0010
1000
0001
,
1000
0000
0010
0100
0010
0000
1000
0000
0010
0100
0010
0000
1000
0000
0100
0000
,
0000
0010
0001
0010
0001
0000
0100
0000
0010
0000
1000
0000
0001
0100
0001
0100
,
0000
0010
1000
0010
1000
0000
0010
0000
0100
0000
0001
0000
1000
0001
1000
0000
,
0000
0000
0010
0100
0010
0000
1000
0000
0010
0100
0010
0000
1000
0000
0000
0001
,
0100
0000
0001
0000
0100
0000
0010
0000
1000
0000
0010
0000
0100
0000
0001
0000
0100
0000
0010
0000
0000
0220
0000
0000
,
0000
0000
0000
0000
0000
0000
0000
0330
;

//---------------dance-single - ----------------
#NOTES:
     dance-single:
     :
     Medium:
     6:
     0.308,0.295,0.066,0.075,0.089:
0000
0000
0000
0000
,
0000
0000
0000
0000
,
1000
0000
0000
0000
0001
0000
1000
0000
0001
0000
0000
0001
0000
0000
0001
0000
,
0100
0000
0000
0000
0000
0000
0010
0000
0000
0000
0000
0000
1000
0000
0001
0000
0000
0000
0100
0000
0000
0010
0000
0000
,
0100
0000
0000
0000
0010
0000
1000
0000
0010
0000
0000
0010
0000
0000
0010
0000
,
0100
0000
0000
0000
0000
0000
0010
0000
0000
0000
0000
0000
1000
0000
0100
0000
1000
0000
0100
0000
0000
0010
0000
0000
,
0001
0000
0000
0000
0100
0000
0001
0000
0100
0000
0000
0100
0000
0000
0100
0000
,
0010
0000
0000
1000
0000
0000
0010
0000
0000
1000
0001
1000
,
0001
1000
0000
2000
,
3020
0000
0030
0020
0000
0030
1000
0000
,
1000
0001
0000
0001
0000
0000
0010
0000
,
0010
0100
0000
0100
0000
0000
1000
0000
,
0001
0000
0000
1001
0000
0000
0010
0000
,
1000
0000
0000
0000
0000
0000
0000
1010
0000
0000
0000
0000
0001
0000
0000
0000
,
0001
0000
0100
0010
0100
0000
0010
0000
,
1000
0000
0100
1000
0100
0000
1000
0000
,
0001
0100
0001
0000
1000
0100
1000
0000
,
0010
0000
0000
0010
0000
0000
0100
0010
0100
0010
0000
0000
,
1000
0000
0010
0100
0010
0000
0100
0001
,
0000
1000
0010
0000
1000
0000
0001
0010
,
0000
0001
0100
0000
0010
0000
0100
0001
,
0000
0100
0010
0010
0100
0100
0001
1000
,
0010
0000
0100
0001
0100
0000
0010
1000
,
0000
0010
1000
0000
0010
0000
0100
0010
,
0000
0100
0001
0000
1000
0000
0010
0000
,
1000
0000
0000
0010
0000
0000
1000
0010
1000
0010
0000
0000
,
1000
0010
1000
0000
0001
0000
0100
0010
,
0100
0000
0000
0010
0200
0000
0000
0000
,
0300
0010
1000
0000
0001
0000
0100
0010
,
1000
0000
0000
1000
0000
0000
2000
0000
0000
0000
0000
0000
3001
0000
0010
0000
,
0001
0000
0100
0000
0010
0000
1000
0100
,
1000
0000
0000
1000
0000
0000
1000
0000
0002
0000
0000
0000
0103
0000
0100
0000
,
0000
0010
0100
0010
0100
0010
0100
0000
,
0001
0000
0000
1000
0000
0000
0001
0100
0001
0100
0000
0000
,
1010
0000
0000
0110
0000
0000
1001
0000
,
0011
0000
0000
0101
0000
0000
0010
1000
,
0010
0000
1000
0000
0010
0000
0100
0010
,
1000
0000
0001
0000
0010
0000
0001
0100
,
0010
0000
1000
0000
0001
0000
0010
0001
,
0000
0100
0001
0000
0100
0010
0100
0000
,
0010
0000
1000
0000
0001
0010
0001
0000
,
0100
0000
0010
0000
1000
0100
1000
0000
,
0010
1000
0010
0000
0100
0001
0100
0000
,
0001
0000
0000
0000
0000
0000
1000
0000
0000
0000
0000
0000
0001
0000
1000
0000
0001
0000
2000
0000
0000
0002
0000
0000
,
0000
0000
0000
0000
0000
0000
0000
3003
;

//---------------dance-single - ----------------
#NOTES:
     dance-single:
     :
     Easy:
     4:
     0.177,0.211,0.000,0.009,0.000:
0000
0000
0000
0000
,
0000
0000
0000
0000
,
1000
1000
0000
0000
,
0001
0000
0100
0001
,
0100
0100
0000
0000
,
0010
0000
1000
0001
,
1000
1000
0000
0000
,
0010
0000
0100
0010
,
1000
1000
0000
0001
,
0001
0000
0100
0010
,
1000
0100
0000
1000
,
0010
1000
0000
0001
,
0100
0000
0010
1000
,
0010
0100
0001
0000
,
1000
0100
1000
0010
,
0100
0001
0100
0010
,
1000
1000
1000
1000
,
0010
1000
0010
1000
,
0001
0001
0001
1000
,
0100
0100
0100
0010
,
0001
0001
0001
1000
,
0001
0100
0001
0010
,
0001
0001
0001
0100
,
0010
0010
0010
1000
,
0100
0100
0100
0100
,
0010
0000
0010
0000
0010
0100
0010
0000
,
0001
0000
0001
0000
,
1000
0000
0010
0100
,
0001
0000
0001
0000
,
1000
0100
1000
0000
,
0010
0000
0010
0000
,
0100
0000
0001
1000
,
0001
0000
1000
0000
,
0010
0000
0100
0001
,
1000
0000
0000
1000
,
0001
0000
0000
0001
,
1000
0010
1000
0000
,
0010
0100
0010
1000
,
0001
0000
0010
0001
,
0100
0000
0100
0010
,
1000
0000
0010
0100
,
0001
0000
0010
0001
,
1000
0000
1000
0000
,
0010
0010
0010
0020
,
0000
0000
0000
0000
0000
0000
0000
0030
;

//---------------dance-single - ----------------
#NOTES:
     dance-single:
     :
     Beginner:
     2:
     0.139,0.147,0.000,0.056,0.000:
0000
0000
0000
0000
,
0000
0000
0000
0000
,
1000
0000
1000
0000
,
0001
0000
0001
0000
,
0010
0000
0010
0000
,
0001
0000
0001
0000
,
0100
0000
0100
0000
,
0010
0000
0010
0000
,
1000
0000
1000
0000
,
0001
0000
0001
0001
,
1000
0000
0000
1000
,
0001
0000
0000
0001
,
0100
0000
0000
0100
,
0010
0000
0000
0010
,
1000
0000
1000
0000
,
0001
0000
0001
0000
,
0100
0000
0100
0000
,
0010
0000
0010
0000
,
0100
0100
0100
0000
,
0010
0010
0010
0000
,
1000
1000
1000
0000
,
0001
0000
0001
0000
,
1000
1000
1000
0000
,
0100
0100
0100
0000
,
1000
0000
1000
0000
,
0010
0000
0010
0000
,
0100
0000
0010
0000
,
2000
0000
0002
3003
,
0001
0000
1000
0000
,
0001
1000
0002
0000
,
0103
0000
0010
0000
,
0200
0000
0020
0330
,
0010
0000
1000
0000
,
0001
0000
1000
1000
,
1000
0000
1000
0000
,
0001
0000
0001
0000
,
0100
0100
0100
0000
,
0001
0001
0001
0000
,
0010
0010
0010
0000
,
0100
0000
1000
0000
,
0010
0010
0010
0000
,
0100
0100
0100
0000
,
0001
0000
0001
0000
,
1000
0000
1000
2000
,
0000
0000
0000
0000
0000
0000
0000
3000
;
