#TITLE:Sonic 1 Mixdown;
#SUBTITLE:;
#ARTIST:Sonic Team;
#TITLETRANSLIT:;
#SUBTITLETRANSLIT:;
#ARTISTTRANSLIT:;
#CREDIT:Song from Sonic the Hedgehog. Copyright 1991 Sega.;
#BANNER:sm.PNG;
#BACKGROUND:sm-bg.png;
#LYRICSPATH:;
#CDTITLE:kyka06.png;
#MUSIC:s1mix.mp3;
#OFFSET:-0.550;
#SAMPLESTART:28.649;
#SAMPLELENGTH:12.000;
#SELECTABLE:YES;
#BPMS:0.000=147.000,84.000=140.500,124.000=140.000,172.000=135.000,204.000=129.600,212.000=100.000,228.000=112.500;
#STOPS:;
#BGCHANGES:0.000=screen.avi=1.000=0=0=1,
36.000=greenhill.avi=1.000=0=0=1,
84.000=labyrinth.avi=1.000=0=0=1,
106.000=marble.avi=1.000=0=0=1,
136.000=starlight.avi=1.000=0=0=1,
172.000=scrapbrain.avi=1.000=0=0=1,
212.000=springyard.avi=1.000=0=0=1,
232.000=sonic.avi=1.000=0=0=1,
262.000=black-bg.png=1.000=0=0=1,
99999=-nosongbg-=1.000=0=0=0 // don't automatically add -songbackground-
;

//---------------dance-solo - BASIC----------------
#NOTES:
     dance-solo:
     BASIC:
     Easy:
     1:
     0.000,0.000,0.000,0.000,0.000:
000000
000000
000000
000000
,;

//---------------dance-single - Easy----------------
#NOTES:
     dance-single:
     Easy:
     Easy:
     4:
     0.288,0.345,0.237,0.057,0.049: // measure 1
0000
0000
0000
0000
,  // measure 2
1000
0000
0000
0010
0000
0000
1000
0000
,  // measure 3
0010
0000
0000
0100
0000
0000
0001
0000
,  // measure 4
0100
0000
0000
0010
0000
0000
1000
0000
,  // measure 5
0001
0100
0000
0000
0010
1000
0000
0000
,  // measure 6
0001
0000
0000
0100
0000
0000
0010
0000
,  // measure 7
1000
0000
0000
0100
0000
0000
0010
0000
,  // measure 8
0001
0000
0000
0100
0000
0000
0010
0000
,  // measure 9
1000
1000
0001
0001
,  // measure 10
1000
0000
0000
0000
0001
0000
0000
0100
,  // measure 11
0000
0000
0010
0000
0000
1100
0000
0000
,  // measure 12
0000
0000
0000
1000
0001
0000
0000
0100
,  // measure 13
0000
0000
0010
0000
0000
1100
0000
0000
,  // measure 14
0000
0000
0000
0000
0100
0000
0000
0001
,  // measure 15
0000
0000
1000
0000
0000
1010
0000
0000
,  // measure 16
0000
0000
0000
1000
0010
0000
0000
0100
,  // measure 17
0000
0000
0001
0000
0000
1100
0000
0000
,  // measure 18
1100
0000
0000
1100
0000
0000
0101
0000
,  // measure 19
0000
0101
0000
0000
1000
0000
0001
0000
,  // measure 20
1100
0000
0000
1100
0000
0000
0000
0000
,  // measure 21
0000
0000
0000
0000
,  // measure 22
1000
0000
0001
0000
0100
0000
0000
0010
,  // measure 23
0000
0000
1000
0000
0100
0000
0000
0000
0010
0000
0000
0001
0000
0000
0100
0000
,  // measure 24
0000
0001
0100
0000
0010
0000
0000
1000
,  // measure 25
0000
0010
0100
0000
0001
0000
1000
0000
,  // measure 26
0002
1003
0001
1000
,  // measure 27
0010
0000
2000
0000
,  // measure 28
3001
2000
3010
0200
,  // measure 29
0310
2000
0001
0010
,  // measure 30
3001
0000
0000
0110
0000
0000
0000
0000
,  // measure 31
1000
0010
0100
0001
,  // measure 32
1000
0000
0000
0002
,  // measure 33
0103
0000
0000
2000
,  // measure 34
3010
0000
0000
0100
0000
0000
0001
0000
,  // measure 35
1100
0001
0001
0001
,  // measure 36
1000
0000
0000
1000
0000
0000
0000
0000
,  // measure 37
0001
0000
0000
0001
0000
0000
0000
0000
,  // measure 38
0100
0000
0000
0100
0010
0000
0000
0010
,  // measure 39
0100
0000
0000
0100
0010
0000
0000
0010
,  // measure 40
1000
0000
0000
0001
0000
0000
0000
0100
,  // measure 41
0001
1000
0010
1000
,  // measure 42
0101
0000
1001
0000
,  // measure 43
1100
1001
0000
0000
,  // measure 44
1000
0000
0000
0000
0000
0001
0100
0000
,  // measure 45
1001
0000
0000
1100
0000
0000
0010
0000
,  // measure 46
1000
0000
0000
1000
,  // measure 47
0101
0000
0000
1100
0000
0000
1010
0000
,  // measure 48
0101
0000
0000
0000
0000
1000
0010
0000
,  // measure 49
1100
0000
0000
0110
0000
0000
1001
0000
,  // measure 50
0101
0000
0000
1001
0000
1000
0010
1000
,  // measure 51
0000
0000
0101
0000
,  // measure 52
1000
0001
0100
0010
,  // measure 53
1000
0100
0010
0001
,  // measure 54
1000
0000
0000
0100
0000
0000
0010
0000
0000
0100
0000
0000
1000
0000
0000
0100
0000
0000
0010
0000
0000
0000
0000
0001
,  // measure 55
0000
0000
0001
0000
0000
0000
1000
0000
0000
0000
0000
0000
0000
0000
0000
0000
0000
0000
0001
0000
1000
0000
0000
0100
,  // measure 56
0000
0000
0100
0000
0000
0000
0000
0000
0000
0000
0000
0000
1000
0000
0010
0000
0000
0010
0000
0000
0000
0000
0000
0000
,  // measure 57
0000
0000
0110
0000
0000
0000
0000
0000
0000
0000
0000
0000
0000
0000
0000
0000
0000
0000
0000
0000
0000
0000
0000
0001
,  // measure 58
1000
0000
0001
0000
1000
0010
1000
0010
,  // measure 59
1000
0001
0000
1000
0001
0000
0000
0000
,  // measure 60
1000
0001
1000
0001
1000
0000
0000
0000
,  // measure 61
0010
1000
0000
0001
0100
0000
0000
0000
,  // measure 62
1000
0010
1000
0010
1000
0000
0000
0000
,  // measure 63
0000
0000
0001
0000
0100
0000
0010
0000
1000
0000
0000
0100
0000
0000
0010
0000
,  // measure 64
0001
0000
0000
0000
,  // measure 65
1000
0000
0000
0000
0010
0000
0000
0000
0000
1000
0000
0000
0001
0000
0001
0000
;

//---------------dance-single - Medium----------------
#NOTES:
     dance-single:
     Medium:
     Medium:
     7:
     0.470,0.584,0.377,0.016,0.201: // measure 1
0000
0000
0000
0000
,  // measure 2
1100
0000
0000
0110
0000
0000
1001
0000
,  // measure 3
0101
0000
0000
1100
0000
0000
0110
0000
,  // measure 4
1001
0000
0000
0110
0000
0000
1001
0000
,  // measure 5
0001
0001
0100
0010
1000
1000
0010
0100
,  // measure 6
0101
0000
0000
1001
0000
0000
1100
0000
,  // measure 7
0110
0000
0000
1001
0000
0000
1100
0000
,  // measure 8
0110
0000
0000
1001
0000
0000
0101
0000
,  // measure 9
1000
0100
0010
0001
1000
0010
0100
0001
,  // measure 10
1000
0000
0001
0000
1000
1000
0000
0010
,  // measure 11
0010
0000
0000
0000
0100
0000
0100
0000
0000
0000
0001
1000
0001
0000
1000
0000
,  // measure 12
0000
0000
0000
0001
0001
0001
0000
0100
,  // measure 13
0100
0000
0010
0010
0000
1010
0000
0000
,  // measure 14
0000
0000
0000
0000
0010
0010
0000
0100
,  // measure 15
0100
0000
0000
0000
0001
0000
0001
0000
0000
0000
1000
0010
1000
0000
0010
0000
,  // measure 16
0000
0000
0000
1000
1000
1000
0000
0010
,  // measure 17
0010
0000
0100
0100
0000
0101
0000
0000
,  // measure 18
1000
1000
1000
0010
0010
0010
0100
0100
,  // measure 19
0100
0010
0010
0010
1000
1000
0001
0001
,  // measure 20
0100
0100
0100
0010
0010
0010
0010
0010
,  // measure 21
0010
1000
0010
0100
0001
0010
0100
1000
,  // measure 22
0000
0000
0001
0000
0100
0000
0010
0000
1000
0000
0000
1000
0000
0000
1000
0000
,  // measure 23
0000
0000
0001
0000
0100
0000
0010
0000
0100
0000
0000
0001
0000
1000
0001
0000
,  // measure 24
0000
0000
1000
0000
0100
0000
0010
0000
0001
0000
0000
0001
0000
0000
0001
0000
,  // measure 25
0000
0000
0100
0000
0010
0000
1000
0000
0100
0000
0010
0100
0010
0000
0001
0000
,  // measure 26
1000
0000
0100
0000
1000
0000
0100
0000
0000
0010
0000
0000
0001
0000
0000
0000
0000
0000
0100
0000
0000
0000
0000
0000
,  // measure 27
1001
0000
0000
0000
1000
0100
0010
0001
,  // measure 28
1000
0000
0010
0100
0010
0000
1000
0100
,  // measure 29
1000
0000
0001
0100
0010
1000
0100
1000
,  // measure 30
0010
0000
0100
0200
0000
0000
0000
0000
,  // measure 31
0301
0010
0000
0000
0100
1000
0000
0000
0010
0100
0000
0000
0001
1000
0000
0000
,  // measure 32
0110
0000
0000
1100
,  // measure 33
1100
0000
0000
0101
,  // measure 34
0101
0000
0000
1001
0000
0000
1100
0000
,  // measure 35
0120
0100
0100
0130
,  // measure 36
1000
0000
0000
1000
0000
0000
1000
0000
0000
0000
0000
0000
0000
0000
0100
0000
,  // measure 37
0001
0000
0000
0001
0000
0000
0001
0000
0100
0000
0000
0000
0100
0000
0000
0000
,  // measure 38
0010
0000
0000
0010
0000
0000
0010
0000
1000
0000
0000
1000
0000
0000
1000
0000
,  // measure 39
0001
0000
0000
0001
0000
0000
0001
0000
0100
0000
0000
0000
0110
0000
0000
0000
,  // measure 40
0010
0000
0000
0010
0000
0000
0010
0000
0000
0000
0000
0000
0000
0000
1000
0100
,  // measure 41
1000
0000
0000
0010
0000
0000
0100
0000
0001
0000
0000
0000
1000
0000
0000
0000
,  // measure 42
0000
0000
0001
1000
0001
1000
0000
0100
0010
0100
0010
0000
1000
0000
0001
0100
,  // measure 43
0001
1100
0000
0000
,  // measure 44
0100
0000
0000
0000
0010
0000
0000
0010
0000
0000
0001
0000
0100
0000
0010
0000
,  // measure 45
1000
0000
1000
0001
0000
1000
0001
1000
,  // measure 46
0000
0000
0000
0000
0010
0000
0000
0010
0000
0000
1000
0000
0001
0000
0100
0000
,  // measure 47
0010
0000
1000
0100
0000
0000
0110
0000
,  // measure 48
1001
0000
0000
0000
1000
0000
0000
0010
0000
0000
1000
0000
0100
0000
1000
0000
,  // measure 49
0010
0000
0100
0001
0000
0001
1000
0010
,  // measure 50
0000
0000
0000
0000
1000
0000
0000
1000
0000
0000
0010
0000
0100
0000
0010
0000
,  // measure 51
1000
0000
0000
0001
0000
0000
1000
0000
,  // measure 52
0001
0010
0100
1000
0010
0100
0001
0000
,  // measure 53
1000
0100
0010
0001
1000
0010
0100
0000
,  // measure 54
0001
0000
0000
0001
0000
0000
0100
0000
0000
0100
0000
0000
0010
0000
0000
0010
0000
0000
1000
0000
0000
1000
0000
0001
,  // measure 55
0000
0000
0001
0000
0000
0000
1000
0000
0000
0100
0000
0000
0010
0000
0000
0000
0000
0000
0001
0000
0100
0000
0000
0010
,  // measure 56
0000
0000
0010
0000
0000
0000
1000
0000
0000
0010
0000
0000
0100
0000
0010
0000
0000
1100
0000
0000
0000
0000
0000
0000
,  // measure 57
0000
0000
0101
0000
0000
0000
1000
0000
0000
0001
0000
0000
1000
0000
0000
0001
0000
0000
1000
0000
0010
1000
0000
0101
,  // measure 58
0000
0000
1100
0000
1001
0110
1001
0110
,  // measure 59
1000
0000
0001
0000
0000
0000
0100
0000
0010
0000
0000
1100
0000
0000
0000
0000
,  // measure 60
1000
0000
0100
0000
1000
0000
0010
0000
0100
0000
0000
0101
0000
0000
0000
0000
,  // measure 61
0001
0000
0100
0000
0000
0000
0010
0000
1000
0000
0000
0110
0000
0000
0000
0000
,  // measure 62
0001
0000
0010
0000
0100
0000
0010
0000
0001
0000
0000
1001
0000
0000
0000
0000
,  // measure 63
0000
0000
1000
0000
0010
0000
0100
0000
0010
0000
0000
1000
0000
0010
0100
0000
,  // measure 64
0001
0000
1000
0000
0000
1000
0000
0000
1000
0000
0000
1000
0000
0000
1000
0000
,  // measure 65
0001
0000
0010
0000
0001
0000
0100
0000
0000
0010
0000
0000
0100
0000
1001
0000
;

//---------------dance-single - ----------------
#NOTES:
     dance-single:
     :
     Challenge:
     10:
     0.854,0.917,1.000,0.336,0.377: // measure 1
1000
0010
0100
0001
1000
0000
0010
0100
0000
0010
1000
0000
0001
0000
0100
0000
,  // measure 2
1010
1000
0100
0110
0001
1000
1100
0010
,  // measure 3
0101
0010
1000
1100
0010
0100
0101
0100
,  // measure 4
1010
0010
0100
1001
0010
1000
0101
0010
,  // measure 5
1100
1100
0010
0100
0101
0101
0010
1000
,  // measure 6
0101
0001
0010
0110
1000
0001
0011
0100
,  // measure 7
1010
0100
0001
0011
0100
0010
1010
0010
,  // measure 8
0101
0100
0010
1001
0100
0001
1010
0100
,  // measure 9
0010
0001
0100
0010
1000
0100
0010
0001
0100
0010
1000
0100
0010
0100
1000
0010
,  // measure 10
1100
0001
1000
0010
1100
1100
0001
0101
,  // measure 11
0101
0000
0010
0000
1100
0000
1100
0000
0010
0000
0110
0010
0001
0000
1000
0000
,  // measure 12
0010
1000
0001
1100
1100
1100
0010
0101
,  // measure 13
0101
0000
0010
0000
1100
0000
1100
0000
0001
0000
0101
0100
0010
0000
1000
0000
,  // measure 14
0101
1000
0100
0001
1100
1100
0100
1010
,  // measure 15
0110
0000
0100
0000
0110
0000
1010
0000
1000
0000
0110
0010
0100
0000
0001
0000
,  // measure 16
0100
0010
1000
1001
0011
1100
1000
1001
,  // measure 17
1010
0100
0011
1100
0001
1010
0100
0100
,  // measure 18
2010
0010
3010
0210
0010
0310
2100
0100
,  // measure 19
3100
1002
1000
1003
1010
1010
0101
0101
,  // measure 20
2010
0010
3010
0102
0100
0100
0010
1000
,  // measure 21
0100
0010
1000
0010
0100
0010
1000
0010
,  // measure 22
1003
0000
0001
0000
1000
0000
0010
0000
1001
0000
0000
0101
0000
0000
1001
0000
,  // measure 23
0000
0000
1001
0000
1000
0000
0010
0000
0100
0000
0000
0101
0000
1000
0010
0000
,  // measure 24
0000
0000
1100
0000
0001
0000
1000
0000
1010
0000
0000
1100
0000
0000
0101
0000
,  // measure 25
0000
0000
1010
0000
0001
0000
0100
0000
0010
0000
1000
0100
1000
0000
0001
0000
,  // measure 26
1000
0000
0100
0000
0010
0000
0001
0000
0000
1000
0000
0000
0010
0000
0000
0100
0000
0000
0001
0000
0000
1000
0000
0000
,  // measure 27
0001
0000
0000
0000
0100
1000
0010
0100
,  // measure 28
1001
0000
1000
0100
1100
0000
0010
0100
,  // measure 29
0110
0000
0001
0100
0001
1000
0010
0100
,  // measure 30
1001
0000
1000
2200
0000
0000
0000
3300
,  // measure 31
0010
0100
0001
1000
0001
0010
0100
1000
0010
0100
0001
1000
0100
0010
0001
0100
,  // measure 32
2020
0000
0000
0000
0000
0000
0000
0000
0000
0000
0000
3030
0202
0000
0303
0000
,  // measure 33
2002
0000
0000
0000
0000
0000
0000
0000
0000
0000
0000
3003
0220
0000
0330
0000
,  // measure 34
2002
0000
0000
0000
3003
0000
2200
0000
0000
0000
0000
0000
3300
0000
0000
1000
,  // measure 35
0001
0101
0011
1100
,  // measure 36
0102
0000
0000
1000
0000
0000
0200
0000
0000
0000
0303
0000
0000
0000
0010
1000
,  // measure 37
1010
0000
0000
0110
0000
0000
0101
0000
1001
0000
0000
0000
1100
0000
0000
0000
,  // measure 38
2010
0000
0000
0010
0000
0000
0001
0000
3010
0000
0002
1000
0023
0000
2030
0000
,  // measure 39
3001
0000
0000
0100
0000
0000
0010
0000
1100
0000
0000
0010
0110
0000
0001
1000
,  // measure 40
1002
0000
0000
1000
0000
0000
0010
0000
0000
0000
0000
0000
0000
0003
1000
0010
,  // measure 41
1000
0000
0000
0001
0000
0000
0100
0000
0010
0000
0000
0000
1100
0000
0000
0000
,  // measure 42
0110
0000
1000
0001
1000
0001
0000
0100
0010
1000
0100
0000
0010
0000
0001
1000
,  // measure 43
0002
0000
0000
0000
2000
0000
0000
3003
0100
0010
1000
0100
0010
0001
1000
0001
,  // measure 44
1000
0000
0001
0000
1100
0000
0000
1100
0000
0000
0001
0000
0010
0000
0100
0000
,  // measure 45
1010
0000
0110
1001
0000
1100
1001
0101
,  // measure 46
0000
0000
0000
0000
1001
0000
0000
1100
0000
0000
1001
0000
1100
0000
0110
0000
,  // measure 47
1000
0001
1100
0110
0001
1000
1100
0010
,  // measure 48
0001
0000
1000
0000
0011
0000
0000
0011
0000
0000
1000
0000
0100
0000
0010
0000
,  // measure 49
0101
0000
0110
1001
0000
0011
1001
1010
,  // measure 50
0000
0000
0000
0000
1001
0000
0000
0011
0000
0000
1001
0000
0011
0000
0110
0000
,  // measure 51
1001
1000
0001
0110
1000
0001
0011
0100
,  // measure 52
1000
0100
0000
0010
0001
0100
0000
0010
1000
0010
0000
0000
1000
0000
0001
1000
,  // measure 53
0001
1000
0001
1000
0010
1000
0100
1000
0100
1000
0001
1000
0010
1000
0100
0010
,  // measure 54
1001
0000
0000
1100
0000
0000
0110
0000
0000
1001
0000
0000
0101
0000
0000
1001
0000
0000
1100
0000
0001
0100
0000
1010
,  // measure 55
0000
0000
0110
0000
0000
0000
1000
0000
0000
0010
0000
0000
1000
0000
0000
0001
0000
0000
1000
0000
1000
0000
0000
0110
,  // measure 56
0000
0000
1100
0000
0000
0000
0110
0000
0000
1001
0000
0000
1100
0000
0110
0000
0000
0101
0000
0000
0000
0000
0000
0000
,  // measure 57
1001
0000
1100
0000
0000
0000
0120
0000
0000
1000
0000
0000
2130
0000
0000
3001
0000
0000
0010
0000
1000
0001
0000
1100
,  // measure 58
0001
0000
0000
1000
0000
0001
0100
0000
0000
0010
0000
1000
0110
0000
0000
1001
0000
0000
1100
0000
0000
0110
0000
0000
,  // measure 59
1001
0000
2002
0000
3003
0000
1100
0000
0220
0000
0330
1001
0000
0000
0000
0000
,  // measure 60
1100
0000
0101
0000
1001
0000
0110
0000
1100
0000
0000
0101
0000
0000
0000
0000
,  // measure 61
1001
0000
0202
0000
0303
0000
1100
0000
2020
0000
3030
1010
0000
0000
0000
0000
,  // measure 62
1010
0000
1010
0000
1100
0000
0011
0000
1001
0000
0000
0011
0000
0000
0000
0000
,  // measure 63
0000
0000
1100
0000
1100
0000
0101
0000
0101
0000
0000
1001
0000
1000
0001
0000
,  // measure 64
1100
0000
0101
0000
0000
1001
0000
0000
1100
0000
0000
0110
0000
0000
1001
0000
,  // measure 65
1100
0000
0011
0000
0101
0000
1001
0000
1000
1100
0000
1000
0110
0000
2002
0000
,  // measure 66
0000
0000
0000
0000
0000
0000
0000
3003
;

//---------------dance-single - ----------------
#NOTES:
     dance-single:
     :
     Beginner:
     2:
     0.136,0.186,0.041,0.008,0.000: // measure 1
0000
0000
0000
0000
,  // measure 2
1000
0000
1000
0000
,  // measure 3
0001
0000
0001
0000
,  // measure 4
0100
0000
0100
0000
,  // measure 5
0010
0000
0010
0000
,  // measure 6
1000
0000
0100
0000
,  // measure 7
0010
0000
0001
0000
,  // measure 8
1000
0000
0010
0000
,  // measure 9
1001
0000
0000
0000
,  // measure 10
1000
0000
1000
0000
,  // measure 11
0001
0000
0100
0000
,  // measure 12
0010
0000
0010
0000
,  // measure 13
1000
0000
0100
0000
,  // measure 14
0010
0000
0001
0000
,  // measure 15
0100
0000
0010
0000
,  // measure 16
1000
0000
0100
0000
,  // measure 17
0010
0000
0001
0000
,  // measure 18
1000
0000
0000
0001
,  // measure 19
0000
0000
1000
0010
,  // measure 20
1000
0000
0000
0000
,  // measure 21
0001
0000
0000
0000
,  // measure 22
1000
0000
0000
0000
,  // measure 23
0001
0000
0000
0000
,  // measure 24
0100
0000
0000
0000
,  // measure 25
0010
0000
0000
0000
,  // measure 26
1000
0000
0100
0000
,  // measure 27
0011
0000
1000
0000
,  // measure 28
0001
0000
1000
0000
,  // measure 29
0010
0000
1000
0000
,  // measure 30
0001
0000
0000
0000
,  // measure 31
1100
0000
0000
0000
,  // measure 32
0001
0000
0000
1000
,  // measure 33
0010
0000
0000
0100
,  // measure 34
0001
0000
0000
0000
,  // measure 35
1000
0000
0000
0000
,  // measure 36
1000
0000
0000
0000
,  // measure 37
0010
0000
0000
0000
,  // measure 38
1000
0000
0100
0000
,  // measure 39
0010
0000
0001
0000
,  // measure 40
0100
0000
0000
0000
,  // measure 41
0010
0000
1000
0000
,  // measure 42
0200
0000
0000
0000
,  // measure 43
0000
0310
0000
0000
,  // measure 44
1001
0000
0000
0000
,  // measure 45
1000
0000
0000
0000
,  // measure 46
0001
0000
0000
0000
,  // measure 47
0100
0000
0000
0000
,  // measure 48
0010
0000
0000
0000
,  // measure 49
1000
0000
0000
0000
,  // measure 50
0001
0000
0000
0000
,  // measure 51
0100
0000
0100
0000
,  // measure 52
0100
0000
0000
0000
,  // measure 53
0001
0000
0000
0000
,  // measure 54
1000
0001
1000
0010
,  // measure 55
0000
1000
0000
0001
,  // measure 56
0000
0100
0000
0010
,  // measure 57
0000
1000
0000
0001
,  // measure 58
1000
0001
0100
0010
,  // measure 59
1000
0000
0001
0000
,  // measure 60
0100
0000
0010
0000
,  // measure 61
1000
0000
0100
0000
,  // measure 62
0010
0000
0001
0000
,  // measure 63
0100
0000
0010
0000
,  // measure 64
1000
1000
1000
1000
,  // measure 65
0001
0000
1000
0000
0000
0000
0000
1001
;

//---------------dance-single - ----------------
#NOTES:
     dance-single:
     :
     Hard:
     9:
     0.612,0.584,0.442,0.172,0.336: // measure 1
1000
0001
1000
0001
1000
0000
0010
0100
0000
0010
1000
0000
0100
0000
0010
0000
,  // measure 2
0001
1000
0010
0100
0001
1000
0100
1000
,  // measure 3
0010
0100
0001
0010
0100
1000
0010
0100
,  // measure 4
0001
1000
0100
0010
0001
1000
0010
0100
,  // measure 5
0001
0001
1000
0100
0010
0010
0001
1000
,  // measure 6
0010
1000
0100
0010
0001
0100
0010
1000
,  // measure 7
0100
1000
0010
1000
0001
0100
0001
0010
,  // measure 8
0100
1000
0010
0100
0001
0010
0001
1000
,  // measure 9
1000
0010
1000
0010
1000
0010
1000
0010
0100
0001
0100
0001
0100
0001
0100
0000
,  // measure 10
0001
0010
0100
0000
1000
2000
0000
0010
,  // measure 11
0020
0000
3000
0000
0100
0000
0200
0030
0000
0000
0301
1000
0100
0000
0010
0000
,  // measure 12
0001
0100
0010
1000
1000
2000
0000
3001
,  // measure 13
0002
0000
0000
0003
0100
0000
0100
0000
0000
0000
0010
1000
0010
0000
1000
0000
,  // measure 14
0001
0000
0010
0000
0100
0000
1000
0000
0001
0000
0002
0000
0000
0003
0100
0000
,  // measure 15
0200
0000
0000
0000
0310
0000
0020
0000
0000
0030
1000
0100
1000
0000
0001
0000
,  // measure 16
0010
0000
0100
0000
1000
0000
0001
0000
0001
0000
0002
0000
0000
0003
0100
0000
,  // measure 17
0200
0000
0000
0300
0010
0000
0020
0000
0000
0000
2000
0000
0000
0000
3030
0000
,  // measure 18
1001
0010
0100
1010
0001
0100
1010
0010
,  // measure 19
0100
0101
0001
0010
0100
1000
0001
0100
,  // measure 20
0101
0010
1000
1001
0100
0010
0001
0100
,  // measure 21
0010
1000
0100
0010
0001
0100
0010
1000
,  // measure 22
0001
0000
0010
0000
0001
0000
1000
0000
0001
0000
0000
0001
0000
0000
0001
0000
,  // measure 23
0000
0000
0100
0000
0010
0000
1000
0000
0100
0000
0000
1000
0000
1000
0001
0000
,  // measure 24
0000
0000
0001
0000
0100
0000
0010
0000
1000
0000
0000
1000
0000
0000
1000
0000
,  // measure 25
0000
0000
0001
0000
0010
0000
0100
0000
1000
0000
0001
0100
0001
0000
0100
0000
,  // measure 26
0001
0000
1000
0000
0001
0000
1000
0000
0000
1000
0000
0000
0010
0000
0000
0100
0000
0000
0001
0000
0000
0010
0000
0000
,  // measure 27
1100
0000
0000
0000
0001
1000
0001
1000
,  // measure 28
0001
0000
0000
0000
0100
0000
0010
0000
0200
0000
0000
0300
0001
0000
0010
0000
,  // measure 29
0002
0000
0000
0003
1000
0000
0010
0000
1000
0000
0010
0000
0100
0000
0001
0000
,  // measure 30
0010
0000
0000
0000
0100
0000
2000
0000
0000
0000
0000
0000
0000
0000
0000
3000
,  // measure 31
0001
1000
0001
1000
0001
0100
0001
0100
0001
0010
0001
0010
0001
0100
0001
0100
,  // measure 32
1001
0000
0000
1010
,  // measure 33
0202
0000
0000
0000
0000
0000
0000
0000
0000
0000
0300
0003
1001
0000
0000
0000
,  // measure 34
0202
0000
0000
0000
0000
0303
0011
0000
0000
0000
0010
0000
1000
0000
0000
0001
,  // measure 35
1000
1001
0110
1001
,  // measure 36
0011
0000
0000
0100
0000
0000
1000
0000
0000
0000
0000
0000
0000
0000
0001
0100
,  // measure 37
0001
0000
0000
1000
0000
0000
0010
0000
0100
0000
0000
0000
0001
0000
0000
0000
,  // measure 38
0011
0000
0000
0100
0000
0000
1000
0000
1100
0000
0000
0010
0000
0000
0100
0000
,  // measure 39
0110
0000
0000
0001
0000
0000
0010
0000
0011
0000
0000
0000
1100
0000
0000
0000
,  // measure 40
1001
0000
0000
0001
0000
0000
0101
0000
0000
0000
0000
0000
0000
0000
0010
1000
,  // measure 41
0010
0000
0000
0100
0000
0000
0001
0000
0010
0000
0000
0000
0100
0000
0000
0000
,  // measure 42
1000
0000
0001
0010
0001
0010
0000
0001
0100
0001
0100
0000
0010
0000
1000
0010
,  // measure 43
1000
0000
0000
0000
0002
0000
0000
0000
0000
0000
0000
0000
0000
0000
0000
0003
,  // measure 44
1000
0000
0000
0000
0110
0000
0000
0110
0000
0000
0001
0000
0100
0000
0001
0000
,  // measure 45
0101
0000
0010
1010
0000
0001
0010
0110
,  // measure 46
0000
0000
0000
0000
1001
0000
0000
1001
0000
0000
0001
0000
0010
0000
0011
0000
,  // measure 47
0000
0000
0100
1100
0000
0000
1000
0000
,  // measure 48
1001
0000
0000
0000
0001
0000
0000
0101
0000
0000
0010
0000
1000
0000
0100
0000
,  // measure 49
0110
0000
0001
0101
0000
0010
1000
1010
,  // measure 50
0000
0000
0000
0000
0110
0000
0000
0110
0000
0000
0001
0000
1000
0000
0101
0000
,  // measure 51
0001
0000
0000
1000
0000
0000
0001
0000
,  // measure 52
1000
0001
0000
0100
0001
0100
0000
0001
0000
1000
0000
0010
0100
0000
0001
0010
,  // measure 53
0100
0000
0100
1000
0001
0000
0001
0100
1000
0000
0010
1000
0100
0000
0100
0010
,  // measure 54
0001
0000
0000
1000
0000
0000
0010
0000
0000
0100
0000
0000
0001
0000
0000
0010
0000
0000
0001
0000
0001
0100
0000
0001
,  // measure 55
0000
0000
1000
0000
0000
0000
0010
0000
0000
0100
0000
0000
0001
0000
0000
0010
0000
0000
0100
0000
1000
0000
0000
1000
,  // measure 56
0000
0000
0001
0000
0000
0000
0100
0000
0000
0010
0000
0000
1000
0000
0100
0000
0000
0020
0000
0000
0000
0000
0000
0000
,  // measure 57
0000
0000
0031
0000
0000
0000
1000
0000
0000
0001
0000
0000
0100
0000
0000
0010
0000
0000
1000
0000
0100
0010
0000
0001
,  // measure 58
0100
0000
0000
0001
0000
1000
0001
0000
0000
1000
0000
0001
1000
0000
0000
0001
0000
0000
1000
0000
0000
0001
0000
0000
,  // measure 59
0100
0000
0001
0000
0000
0000
0010
0000
0110
0000
0000
0110
0000
0000
0000
0000
,  // measure 60
0100
0000
1000
0000
0001
0000
0100
0000
0110
0000
0000
0110
0000
0000
0000
0000
,  // measure 61
0001
0000
0010
0000
0000
0000
0100
0000
1000
0000
0000
1001
0000
0000
0000
0000
,  // measure 62
0001
0000
0100
0000
0010
0000
1000
0000
0110
0000
0000
0110
0000
0000
0000
0000
,  // measure 63
0000
0000
0001
0000
0100
0000
0001
0000
1000
0000
0000
0001
0000
0100
0001
0000
,  // measure 64
0100
0000
0101
0000
0000
1001
0000
0000
1010
0000
0000
0110
0000
0000
1001
0000
,  // measure 65
0001
0000
0010
0000
0100
0000
1000
0000
0100
1000
0000
1000
0001
0000
1001
0000
;
