#TITLE:SO DEEP (PERFECT SPHERE REMIX);
#SUBTITLE:(From Nonstop Megamix);
#ARTIST:SILVERTEAR;
#TITLETRANSLIT:;
#SUBTITLETRANSLIT:;
#ARTISTTRANSLIT:;
#CREDIT:;
#BANNER:SO DEEP (PERFECT SPHERE REMIX).png;
#BACKGROUND:SO DEEP (PERFECT SPHERE REMIX)-bg.png;
#LYRICSPATH:;
#CDTITLE:kykaCD.png;
#MUSIC:SO DEEP (PERFECT SPHERE MIX) [FROM NONSTOP MEGAMIX].mp3;
#OFFSET:-13.798;
#SAMPLESTART:27.530;
#SAMPLELENGTH:12.000;
#SELECTABLE:YES;
#DISPLAYBPM:140.000;
#BPMS:0.000=139.750;
#STOPS:;
#BGCHANGES:;

//---------------dance-single - ----------------
#NOTES:
     dance-single:
     :
     Easy:
     3:
     0.246,0.390,0.208,0.327,0.023: // measure 1
1000
0000
0001
0000
,  // measure 2
0100
0000
0010
0000
,  // measure 3
1000
0000
0001
0000
,  // measure 4
0100
0000
0010
0000
,  // measure 5
1000
0000
0001
0000
,  // measure 6
0100
0000
0001
0000
,  // measure 7
0010
0000
0001
0000
,  // measure 8
0100
0000
0010
0000
,  // measure 9
0100
0000
0000
0001
,  // measure 10
1000
0000
0000
0001
,  // measure 11
0010
0000
0000
0000
,  // measure 12
0100
0000
1000
0010
,  // measure 13
1000
0000
0000
0001
,  // measure 14
0100
0000
0000
0001
,  // measure 15
2000
0000
0000
3000
,  // measure 16
0010
0000
0100
0001
,  // measure 17
0100
0000
0000
0010
,  // measure 18
0100
0000
0001
1000
,  // measure 19
0002
0000
0000
0003
,  // measure 20
1000
0000
0100
0010
,  // measure 21
0100
0000
0000
1000
,  // measure 22
0001
0000
0000
0000
,  // measure 23
2002
0000
0000
3003
,  // measure 24
2002
0000
3003
0100
,  // measure 25
0020
0000
0000
1030
,  // measure 26
0002
0000
0000
0103
,  // measure 27
0020
0000
0000
0030
,  // measure 28
0200
0000
0300
0010
,  // measure 29
2000
0000
0000
3010
,  // measure 30
0200
0000
0000
0301
,  // measure 31
0020
0000
0000
0030
,  // measure 32
0002
0000
0003
0100
,  // measure 33
0022
0000
0033
0100
,  // measure 34
2020
0000
3030
0100
,  // measure 35
0202
0000
0000
0303
,  // measure 36
2200
0000
3300
0001
,  // measure 37
0220
0000
0330
1000
,  // measure 38
0220
0000
0330
0100
,  // measure 39
0011
0000
1100
0000
,  // measure 40
1010
0000
0101
0100
,  // measure 41
0020
0000
0000
1030
,  // measure 42
0002
0000
0000
0103
,  // measure 43
0020
0000
0000
0030
,  // measure 44
0200
0000
0300
0010
,  // measure 45
2000
0000
0000
3010
,  // measure 46
0200
0000
0000
0301
,  // measure 47
0020
0000
0000
0030
,  // measure 48
0002
0000
0003
0100
,  // measure 49
0022
0000
0033
0100
,  // measure 50
2020
0000
3030
0100
,  // measure 51
0202
0000
0000
0303
,  // measure 52
2200
0000
3300
0001
,  // measure 53
0220
0000
0330
1000
,  // measure 54
0220
0000
0330
0100
,  // measure 55
0011
0000
1100
0000
,  // measure 56
1010
0000
0101
0000
,  // measure 57
1000
0000
1000
0000
,  // measure 58
0001
0000
1000
1000
,  // measure 59
0001
0000
0001
0000
,  // measure 60
1000
0000
0001
0001
,  // measure 61
0100
0000
0001
0001
,  // measure 62
1000
0000
0010
0010
,  // measure 63
1000
0000
0001
0000
,  // measure 64
0100
0000
0001
0010
,  // measure 65
0001
0000
1000
1000
,  // measure 66
0001
0000
0100
0100
,  // measure 67
1001
0000
1001
0000
,  // measure 68
0100
0000
0010
0010
,  // measure 69
1000
0001
1000
0001
,  // measure 70
1000
0001
1000
0001
,  // measure 71
2002
3003
2002
3003
,  // measure 72
0100
1000
0001
1001
,  // measure 73
0110
0001
1000
0010
,  // measure 74
0100
0010
1000
0001
,  // measure 75
0100
0001
0010
0001
,  // measure 76
0100
0001
1000
0100
,  // measure 77
1000
0010
0100
0010
,  // measure 78
1000
0001
0100
0001
,  // measure 79
0010
0001
0100
0010
,  // measure 80
0100
0001
1000
0100
,  // measure 81
1000
0000
0000
2000
0000
0000
0000
0000
0000
0000
0000
0000
0000
0000
0000
0000
,  // measure 82
3010
0000
0000
0020
0000
0000
0000
0000
0000
0000
0000
0000
0000
0000
0000
0000
,  // measure 83
0130
0000
0000
0200
0000
0000
0000
0000
0000
0000
0000
0000
0000
0000
0000
0000
,  // measure 84
0301
0000
0000
0002
0000
0000
0000
0000
0000
0000
0000
0000
0000
0000
0000
0000
,  // measure 85
0103
0000
0000
0200
0000
0000
0000
0000
0000
0000
0000
0000
0000
0000
0000
0000
,  // measure 86
0310
0000
0000
0020
0000
0000
0000
0000
0000
0000
0000
0000
0000
0000
0000
0000
,  // measure 87
1030
0000
0000
2000
0000
0000
0000
0000
0000
0000
0000
0000
0000
0000
0000
0000
,  // measure 88
3001
0000
0000
0002
0000
0000
0000
0000
0000
0000
0000
0000
0000
0000
0000
0000
,  // measure 89
1003
1100
0000
0110
,  // measure 90
0000
1001
0000
0101
,  // measure 91
0000
1001
0000
1100
,  // measure 92
0000
0110
0000
1001
,  // measure 93
0000
0110
0000
0000
;

//---------------dance-single - ----------------
#NOTES:
     dance-single:
     :
     Medium:
     5:
     0.403,0.546,0.394,0.349,0.037:
0001
1000
0010
0000
0010
0000
0100
0000
,
0001
1000
0100
0000
0010
0000
0001
0000
,
0100
0010
1000
0000
0010
0000
0010
0000
,
0100
0001
1000
0000
0010
0000
0100
0000
,
0001
1000
0001
0000
1000
0000
1000
0000
,
0010
0100
0010
0000
0100
0000
0100
0000
,
0010
1000
0010
0000
0100
0000
0100
0000
,
0001
1000
0001
0000
1000
0000
1000
0000
,
0001
0001
0000
1100
,
1000
1000
0000
0101
,
0010
0010
0000
1001
,
0010
0001
1000
0100
,
1000
1000
0000
0011
,
0001
0001
0000
1010
,
0100
0100
0000
1001
,
0001
0010
0100
1000
,
0011
1001
0000
0101
,
1010
1001
0000
1100
,
0110
0110
0000
1001
,
0011
1100
1010
0101
,
0110
2002
3003
0110
,
1001
0220
0330
1001
,
1010
0022
0033
1001
,
0110
0000
1001
0000
0110
0000
0010
0001
,
0200
0000
0000
0000
0300
0000
0010
1000
,
0200
0000
0000
0000
0300
0000
1000
0001
,
2002
0000
0000
0000
,
0000
0000
0000
0000
3003
0000
0100
1000
,
0200
0000
0000
0000
0300
0000
0010
0001
,
0200
0000
0000
0000
0300
0000
0001
1000
,
2200
0000
3300
0022
0000
0033
0202
0000
,
0303
2020
0000
3030
1001
0000
0100
0001
,
0020
0000
0000
0000
0030
0000
0100
0001
,
0020
0000
0000
0000
0030
0000
0100
0010
,
0220
0000
0000
0000
,
0000
0000
0000
0000
0330
0000
0100
0001
,
2000
0000
0000
0000
3000
0000
0001
0010
,
0200
0000
0000
0000
0300
0000
1000
0001
,
0022
0000
0033
0202
0000
0303
2200
0000
,
3300
2020
0000
3030
0110
0000
0010
0001
,
0200
0000
0000
0000
0300
0000
0010
1000
,
0200
0000
0000
0000
0300
0000
1000
0001
,
2002
0000
0000
0000
,
0000
0000
0000
0000
3003
0000
0100
1000
,
0200
0000
0000
0000
0300
0000
0010
0001
,
0200
0000
0000
0000
0300
0000
0001
1000
,
2200
0000
3300
0022
0000
0033
0202
0000
,
0303
2020
0000
3030
1001
0000
0100
0001
,
0020
0000
0000
0000
0030
0000
0100
0001
,
0020
0000
0000
0000
0030
0000
0100
0010
,
0220
0000
0000
0000
,
0000
0000
0000
0000
0330
0000
0100
0001
,
2000
0000
0000
0000
3000
0000
0001
0010
,
0200
0000
0000
0000
0300
0000
1000
0001
,
0022
0000
0033
0202
0000
0303
2200
0000
,
3300
2020
0000
3030
0110
0000
1001
0000
,
0010
0001
0010
0000
0010
1000
0010
0000
,
0010
0100
0010
0000
1001
0000
1001
0000
,
0010
1000
0010
0000
0010
0001
0010
0000
,
0010
0100
0010
0000
1001
0000
1001
0000
,
0100
0001
0100
0000
0100
1000
0100
0000
,
0100
0010
0100
0000
1001
0000
1001
0000
,
0100
1000
0100
0000
0100
0001
0100
0000
,
0100
0010
0100
0000
1001
0000
1001
0000
,
0010
1000
0100
0000
0010
0001
0100
0000
,
0010
1000
0100
0000
0010
0001
0100
0000
,
0100
0001
0010
0000
0100
1000
0010
0000
,
0100
0001
0010
0000
0100
1000
0010
0000
,
0100
0001
1010
0000
1000
0010
0101
0000
,
0010
1000
1100
0000
0010
0001
0101
0000
,
1000
0001
0110
0000
0100
0010
1001
0000
,
0010
1000
0100
0010
0001
0100
0010
1000
,
0001
1000
0010
0000
0010
0000
0100
0000
,
0001
1000
0100
0000
0010
0000
0001
0000
,
0100
0010
1000
0000
0010
0000
0010
0000
,
0100
0001
1000
0000
0010
0000
0100
0000
,
0001
1000
0001
0000
1000
0000
1000
0000
,
0010
0100
0010
0000
0100
0000
0100
0000
,
0010
1000
0010
0000
0100
0000
0100
0000
,
0001
1000
0001
0000
0100
0000
0100
0000
,
0010
0000
0000
1000
0000
0000
0010
0000
0100
0000
0000
0000
0001
0000
0000
0000
,
1000
0000
0000
0010
0000
0000
0100
0000
0010
0000
0000
0000
1000
0000
0000
0000
,
0001
0000
0000
0100
0000
0000
0010
0000
1000
0000
0000
0000
0001
0000
0000
0000
,
0100
0000
0000
0001
0000
0000
1000
0000
0010
0000
0000
0000
1000
0000
0000
0000
,
0001
0000
0000
0010
0000
0000
0001
0000
0100
0000
0000
0000
0001
0000
0000
0000
,
1000
0000
0000
0010
0000
0000
0100
0000
0010
0000
0000
0000
1000
0000
0000
0000
,
0010
0000
0000
1000
0000
0000
0001
0000
0100
0000
0000
0000
0001
0000
0000
0000
,
0100
0000
0000
0010
0000
0000
1000
0000
0001
0000
0000
0000
1000
0000
0000
0000
,
0010
0000
0000
1000
0001
0000
0000
0000
0000
0000
0000
0000
0000
0000
0000
0000
,
1000
0000
0000
0001
0100
0000
0000
0000
0000
0000
0000
0000
0000
0000
0000
0000
,
0010
0000
0000
1000
0100
0000
0000
0000
0000
0000
0000
0000
0000
0000
0000
0000
,
0001
0000
0000
0100
1000
0000
0000
0000
0000
0000
0000
0000
0000
0000
0000
0000
,
0010
0000
0000
1000
0001
0000
0000
0000
0000
0000
0000
0000
0000
0000
0000
0000
;

//---------------dance-single - ----------------
#NOTES:
     dance-single:
     :
     Hard:
     9:
     0.717,0.649,0.169,0.000,0.890:
0001
0010
0000
0100
1000
0000
0010
1000
0000
0001
1000
0000
0010
0000
0100
0000
,
0001
0010
0000
0001
0010
0000
0100
1000
0000
0100
1000
0000
0010
0000
0100
0000
,
0001
1000
0000
0010
1000
0000
0100
1000
0000
0010
1000
0000
0001
0000
0100
0000
,
0010
0100
0000
0001
0010
0000
0001
0100
0000
0010
1000
0000
0010
0000
1000
0000
,
0001
0100
0000
0010
0100
0000
0001
1000
0000
0010
1000
0000
0001
0000
0100
0000
,
0010
1000
0000
0100
1000
0000
0010
0100
0000
0001
0010
0000
0001
0000
0100
0000
,
0010
0100
0000
0001
1000
0000
0010
1000
0000
0100
1000
0000
0001
0000
0010
0000
,
0001
0100
0000
0010
0100
0000
0001
0100
0000
0010
0100
0000
0001
0000
1000
0000
,
0001
0010
0000
0010
0001
0000
0001
1000
0000
1000
0001
0000
0100
0000
0100
0000
,
0100
0001
0000
0001
1000
0000
1000
0010
0000
0010
0100
0000
0001
0000
0001
0000
,
0001
0010
0000
0010
0001
0000
0001
1000
0000
1000
0001
0000
0100
0000
0100
0000
,
0100
0001
0000
0001
1000
0000
1000
0010
0000
0010
0100
0000
0001
0000
0001
0000
,
1000
0010
0000
0010
1000
0000
1000
0001
0000
0001
1000
0000
0100
0000
0100
0000
,
0100
1000
0000
1000
0001
0000
0001
0010
0000
0010
0100
0000
1000
0000
1000
0000
,
1000
0010
0000
0010
1000
0000
1000
0001
0000
0001
1000
0000
0100
0000
0100
0000
,
0100
1000
0000
1000
0001
0000
0001
0010
0000
0010
0100
0000
1000
0000
1000
0000
,
0001
1000
0000
1000
0010
0000
0010
0100
0000
0100
0001
0000
1000
0000
1000
0000
,
1000
0001
0000
0001
0010
0000
0010
0100
0000
0100
1000
0000
0001
1000
0001
0000
,
0100
0010
0000
0010
1000
0000
1000
0001
0000
0001
0100
0000
0010
0000
0010
0000
,
0010
0100
0000
0100
0001
0000
0001
1000
0000
1000
0010
0000
0100
0010
0100
0000
,
0001
1000
0000
1000
0010
0000
0010
0100
0000
0100
0001
0000
1000
0000
1000
0000
,
1000
0001
0000
0001
0010
0000
0010
0100
0000
0100
1000
0000
0001
1000
0001
0000
,
0100
0010
0000
0010
1000
0000
1000
0001
0000
0001
0100
0000
0010
0000
0010
0000
,
0010
0100
0000
0100
0001
0000
0001
1000
0000
1000
0010
0000
0100
0010
0100
0000
,
0001
0010
0001
0000
1000
0000
0001
0010
0001
0000
1000
0000
0001
0000
0001
0000
,
1000
0010
0000
0010
1000
0000
1000
0100
0000
0100
1000
0000
0001
0000
0001
0000
,
1000
0100
1000
0000
0001
0000
1000
0100
1000
0000
0001
0000
1000
0000
1000
0000
,
0001
0100
0000
0100
0001
0000
0001
0010
0000
0010
0001
0000
1000
0000
1000
0000
,
0001
0010
0001
0000
1000
0000
0001
0010
0001
0000
1000
0000
0001
0000
0001
0000
,
1000
0010
0000
0010
1000
0000
1000
0100
0000
0100
1000
0000
0001
0000
0001
0000
,
1000
0100
1000
0000
0001
0000
1000
0100
1000
0000
0001
0000
1000
0000
1000
0000
,
0001
0100
0000
0100
0001
0000
0001
0010
0000
0010
0001
0000
1000
0000
1000
0000
,
0001
1000
0001
0000
0010
0000
0001
1000
0001
0000
0100
0000
0001
1000
0001
0000
,
1000
0010
0000
0010
1000
0000
1000
0001
0000
0001
0010
0000
0100
0000
0100
0000
,
1000
0001
1000
0000
0010
0000
1000
0001
1000
0000
0100
0000
1000
0001
1000
0000
,
0001
0010
0000
0010
0001
0000
0001
1000
0000
1000
0010
0000
0100
0000
0100
0000
,
0001
1000
0001
0000
0100
0000
0001
1000
0001
0000
0010
0000
0001
1000
0001
0000
,
1000
0100
0000
0100
1000
0000
1000
0001
0000
0001
0100
0000
0010
0000
0010
0000
,
1000
0001
1000
0000
0100
0000
1000
0001
1000
0000
0010
0000
1000
0001
1000
0000
,
0001
0100
0000
0100
0001
0000
0001
1000
0000
1000
0100
0000
0010
0000
0010
0000
,
0001
0010
0000
0010
0001
0000
0001
1000
0000
1000
0001
0000
0100
0000
0100
0000
,
0100
0001
0000
0001
1000
0000
1000
0010
0000
0010
0100
0000
0001
0000
0001
0000
,
0001
0010
0000
0010
0001
0000
0001
1000
0000
1000
0001
0000
0100
0000
0100
0000
,
0100
0001
0000
0001
1000
0000
1000
0010
0000
0010
0100
0000
0001
0000
0001
0000
,
1000
0010
0000
0010
1000
0000
1000
0001
0000
0001
1000
0000
0100
0000
0100
0000
,
0100
1000
0000
1000
0001
0000
0001
0010
0000
0010
0100
0000
1000
0000
1000
0000
,
1000
0010
0000
0010
1000
0000
1000
0001
0000
0001
1000
0000
0100
0000
0100
0000
,
0100
1000
0000
1000
0001
0000
0001
0010
0000
0010
0100
0000
1000
0000
1000
0000
,
0001
1000
0000
1000
0010
0000
0010
0100
0000
0100
0001
0000
1000
0000
1000
0000
,
1000
0001
0000
0001
0010
0000
0010
0100
0000
0100
1000
0000
0001
1000
0001
0000
,
0100
0010
0000
0010
1000
0000
1000
0001
0000
0001
0100
0000
0010
0000
0010
0000
,
0010
0100
0000
0100
0001
0000
0001
1000
0000
1000
0010
0000
0100
0010
0100
0000
,
0001
1000
0000
1000
0010
0000
0010
0100
0000
0100
0001
0000
1000
0000
1000
0000
,
1000
0001
0000
0001
0010
0000
0010
0100
0000
0100
1000
0000
0001
1000
0001
0000
,
0100
0010
0000
0010
1000
0000
1000
0001
0000
0001
0100
0000
0010
0000
0010
0000
,
0010
0100
0000
0100
0001
0000
0001
1000
0000
1000
0010
0000
0100
0010
0100
0000
,
0000
0010
0000
0010
0100
0000
0100
0000
1000
0001
0000
0001
1000
0000
0001
0000
,
0100
0001
0000
0001
1000
0000
0001
0000
1000
0100
1000
0000
1000
0100
1000
0000
,
0000
0010
0000
0010
0100
0000
0100
0000
0001
1000
0000
1000
0001
0000
1000
0000
,
0100
1000
0000
1000
0001
0000
1000
0000
0001
0100
0001
0000
0001
0100
0001
0000
,
0000
0100
0000
0100
0010
0000
0010
0000
1000
0001
0000
0001
1000
0000
0001
0000
,
0010
0001
0000
0001
1000
0000
0001
0000
1000
0010
1000
0000
1000
0010
1000
0000
,
0000
0100
0000
0100
0010
0000
0010
0000
0001
1000
0000
1000
0001
0000
1000
0000
,
0010
1000
0000
1000
0001
0000
1000
0000
0001
0010
0001
0000
0001
0010
0001
0000
,
1000
0001
0000
1000
0001
0000
0100
0000
0001
1000
0000
0001
1000
0000
0100
0000
,
1000
0001
0000
0001
1000
0000
0010
0000
1000
0100
1000
0000
0001
0100
0001
0100
,
0001
1000
0000
0001
1000
0000
0100
0000
1000
0001
0000
1000
0001
0000
0100
0000
,
0001
1000
0000
1000
0001
0000
0010
0000
0001
0100
0001
0000
1000
0100
1000
0100
,
1000
0001
0000
1000
0001
0000
0010
0000
0001
1000
0000
0001
1000
0000
0010
0000
,
1000
0001
0000
0001
1000
0000
0100
0000
1000
0010
1000
0000
0001
0010
0001
0010
,
0001
1000
0000
0001
1000
0000
0010
0000
1000
0001
0000
1000
0001
0000
0010
0000
,
0001
1000
0000
1000
0001
0000
1001
0000
0001
0010
0001
0010
0100
1000
0100
1000
,
0001
0100
0001
0000
1000
0000
0010
0000
0100
0000
0010
0000
1000
0000
0001
0000
,
0010
0001
0100
0010
1000
0100
1000
0010
,
0100
0010
1000
0001
0100
0001
0010
0001
,
0100
0001
1000
0100
1000
0010
0100
0010
,
1000
0001
0100
0001
1000
0010
0100
0001
,
1000
0001
0100
0001
0010
0001
0100
0010
,
1000
0100
1000
0010
0100
0001
1000
0001
,
1000
0100
1000
0010
0100
0001
1000
0001
,
0010
0001
0000
0011
0000
0000
0000
0000
1100
0000
0000
0000
0110
0000
0000
0000
,
0001
1000
0000
1001
0000
0000
0000
0000
0011
0000
0000
0000
1100
0000
0000
0000
,
0010
0100
0000
0110
0000
0000
0000
0000
1001
0000
0000
0000
0101
0000
0000
0000
,
1000
0010
0000
1010
0000
0000
0000
0000
1001
0000
0000
0000
0110
0000
0000
0000
,
0100
0001
0000
0101
0000
0000
0000
0000
1001
0000
0000
0000
1100
0000
0000
0000
,
0100
0001
0000
0101
0000
0000
0000
0000
1100
0000
0000
0000
0011
0000
0000
0000
,
1000
0100
0000
1100
0000
0000
0000
0000
1001
0000
0000
0000
0011
0000
0000
0000
,
1000
0001
0000
1001
0000
0000
0000
0000
1100
0000
0000
0000
0110
0000
0000
0000
,
1000
0010
0000
0110
0000
0000
0000
0000
0000
0000
0000
0000
0000
0000
0000
0000
,
0001
1000
0000
1100
0000
0000
0000
0000
0000
0000
0000
0000
0000
0000
0000
0000
,
0100
0010
0000
1001
0000
0000
0000
0000
0000
0000
0000
0000
0000
0000
0000
0000
,
1000
0001
0000
0101
0000
0000
0000
0000
0000
0000
0000
0000
0000
0000
0000
0000
,
1000
0100
0000
1100
0000
0000
0000
0000
0000
0000
0000
0000
0000
0000
0000
0000
;

//---------------dance-double - ----------------
#NOTES:
     dance-double:
     :
     Easy:
     2:
     0.092,0.134,0.118,0.028,0.000:
00000000
00000000
00000000
00000000
,
00000000
00000000
00000000
00000000
,
00000000
00000000
00000000
00000000
,
00000000
00000000
00000000
00000000
,
00100000
00000000
00000000
10000000
,
00010000
00000000
00000000
10000000
,
01000000
00000000
00000000
00000000
,
00010000
00000000
00001000
00000010
,
00000001
00000000
00000000
00000100
,
00000001
00000000
00000000
00001000
,
00000010
00000000
00000000
00000000
,
00000000
00000000
00000001
00000010
,
00000100
00000000
00000000
00001000
,
01000000
00000000
10000000
00100000
,
01000000
00000000
00000000
00000000
,
00010000
00000000
10000000
00010000
,
01000000
00000000
00000000
00001000
,
00010000
00000000
00000100
00001000
,
00000001
00000000
00000000
00000000
,
00001000
00000000
00000000
00000010
,
00000100
00000000
00000000
00000010
,
00001000
00000000
00000000
00001000
,
02000000
00000000
00000000
00000000
,
00000000
00000000
03000000
00100000
,
10000000
00000000
00000000
00100000
,
01000000
00000000
00000000
00001000
,
00020000
00000000
00000000
00030000
,
00002000
00000000
00003000
00000000
,
00000011
00000000
00000000
00000000
,
00000101
00000000
00000000
00000000
,
00001010
00000000
00000000
00000000
,
00000001
00000000
00000001
00000000
,
00001100
00000000
00000000
00000000
,
00011000
00000000
00000000
00000000
,
00001000
00000000
00010000
00000000
,
00001000
00000000
01000000
00000000
,
10100000
00000000
00110000
00000000
,
10010000
00000000
00000000
00000000
,
00000011
00000000
00001010
00000000
,
00001001
00000000
00000000
00000000
,
01010000
00000000
11000000
00000000
,
10010000
00000000
00000000
00000000
,
00001100
00000000
00000101
00000000
,
00001001
00000000
00000000
00000000
,
00100000
00100000
10010000
00000000
,
01000000
01000000
10010000
00000000
,
00001000
00000000
00010000
00000000
,
00000010
00000010
00001001
00000000
,
00000001
00000000
00000100
00000000
,
00001000
00000000
00010000
00000000
,
00100000
00000000
10000000
00000000
,
00010000
00000000
10000000
01000000
,
00022000
00000000
00000000
00033000
;

//---------------dance-double - ----------------
#NOTES:
     dance-double:
     :
     Medium:
     6:
     0.188,0.268,0.124,0.045,0.000:
00000000
00000000
00000000
00000000
,
00000000
00000000
00000000
00000000
,
00000000
00000000
00000000
00000000
,
00000000
00000000
00000000
00000000
,
00000010
00000001
00000000
00001100
,
00000010
00001000
00000000
00000101
,
00000010
00000001
00000100
00001000
,
00010000
00100000
10000000
01000000
,
00100000
00010000
00000000
11000000
,
00100000
10000000
00000000
01010000
,
00100000
10000000
01000000
00010000
,
00001000
00000010
00000001
00000100
,
00000010
00001000
00000001
00000110
,
00000001
00000010
00000100
00001001
,
00000001
00000100
00001000
00010000
,
00100000
10000000
00100000
10000000
,
00100000
10000000
00010000
01100000
,
10000000
01000000
00100000
10010000
,
10000000
01000000
00010000
00001000
,
00000010
00000000
00000001
00000000
00000001
00000000
00000100
00001000
,
00010000
00000000
00000000
00000000
00000000
00000000
00100000
10000000
,
01000000
00000000
00000000
00000000
00000000
00000000
00010000
00001000
,
00000010
00000001
00001000
00000001
,
00000100
00000000
00000001
00000000
00001000
00000000
00000001
00000100
,
00001000
00000000
00000000
00000000
00000000
00000000
00010000
00100000
,
10000000
00000000
00000000
00000000
00000000
00000000
01000000
00010000
,
00001000
00000000
00000000
00100000
00000000
00000000
01000000
00000000
,
00000000
10000000
00000000
00000000
00010000
00000000
10000000
01000000
,
00010000
00000000
00000000
00000000
00000000
00000000
00001000
00010000
,
00100000
00000000
00000000
01000000
,
00100000
10000000
00010000
01000000
,
00010000
00000000
10000000
00000000
00010000
00000000
10000000
00010000
,
02000000
00000000
00000000
00000000
00000000
00000000
03001000
00010000
,
00002000
00000000
00000000
00000000
00000000
00000000
00003010
00000001
,
00000200
00000000
00000000
00002300
00000000
00000000
00023000
00000000
,
00000000
00230000
00000000
00000000
10300000
00000000
01010000
00000000
,
00100000
10000000
00100000
00000000
10000000
01000000
10000000
00000000
,
01000000
00010000
01000000
00000000
00010000
00001000
00010000
00000000
,
00001000
00000010
00001000
00000000
00000010
00000001
00000010
00000000
,
00000001
00000100
00000001
00000000
00001001
00000000
00001001
00000000
,
00000010
00000001
00000100
00000000
00000001
00000100
00001000
00000000
,
00000100
00001000
00010000
00000000
00001000
00010000
00100000
00000000
,
00010000
00100000
10000000
00000000
00100000
10000000
01000000
00000000
,
10000000
01000000
00010000
00000000
01100000
00000000
00000000
00000000
,
00100000
10000000
01000000
00000000
01000000
00010000
00001000
00000000
,
00001000
00000010
00000001
00000000
00000001
00000100
00001000
00000000
,
00001000
00010000
00100000
00000000
00100000
10000000
01000000
00000000
,
01000000
00010000
00001000
00000000
00001001
00000000
00000000
00000000
,
00000010
00000001
00000100
00000000
00001000
00010000
00100000
00000000
,
10000000
01000000
00010000
00000000
00001000
00000010
00000001
00000000
,
00001100
00000011
00000101
00001010
,
00011000
01010000
11000000
01100000
,
20020000
00000000
00000000
30030000
;

//---------------dance-double - ----------------
#NOTES:
     dance-double:
     :
     Hard:
     9:
     0.317,0.312,0.051,0.011,0.214:
00000000
00000000
00000000
00000000
,
00000000
00000000
00000000
00000000
,
00000000
00000000
00000000
00000000
,
00000000
00000000
00000000
00000000
,
00000010
00000100
00001000
00000001
00000100
00001000
00010000
00000100
,
00010000
00100000
10000000
01000000
00100000
00010000
10000000
00100000
,
10000000
01000000
00010000
00001000
01000000
00001000
00000010
00000001
,
00000100
00000010
00001000
00000100
00000010
00000001
00000100
00000010
,
00001000
00000100
00010000
00100000
10000000
01000000
00100000
00010000
,
10000000
01000000
00010000
00001000
00000010
00000001
00000100
00000001
,
00001000
00000100
00010000
00100000
10000000
01000000
00100000
00010000
,
01000000
00001000
00010000
00000100
00000010
00000001
00001000
00000100
,
00000010
00000100
00001000
00000001
00000100
00001000
00010000
00000100
,
00010000
00100000
10000000
01000000
00100000
00010000
10000000
00100000
,
10000000
01000000
00010000
00001000
01000000
00001000
00000010
00000001
,
00000100
00000010
00001000
00000100
00000010
00000001
00000100
00000010
,
00001000
00000100
00010000
00100000
10000000
01000000
00100000
00010000
,
10000000
01000000
00010000
00001000
00000010
00000001
00000100
00000001
,
00001000
00000100
00010000
00100000
10000000
01000000
00100000
00010000
,
01000000
00001000
00010000
00000100
00000010
00000001
00001000
00000100
,
00000010
00000001
00000000
00000000
00000001
00000100
00000000
00000000
00000100
00001000
00000000
00000000
00001000
00010000
00000000
00000000
,
00010000
00100000
00000000
00000000
00100000
10000000
00000000
00000000
10000000
01000000
00000000
00000000
01000000
10000000
00000000
00000000
,
10000000
01000000
00000000
00000000
01000000
00010000
00000000
00000000
00010000
00001000
00000000
00000000
00001000
00000010
00000000
00000000
,
00000010
00000001
00000000
00000000
00000001
00000100
00000000
00000000
00000100
00000010
00000000
00000000
00001000
00000001
00000000
00000000
,
00000010
00000001
00000000
00000000
00000001
00000100
00000000
00000000
00000100
00001000
00000000
00000000
00001000
00010000
00000000
00000000
,
00010000
00100000
00000000
00000000
00100000
10000000
00000000
00000000
10000000
01000000
00000000
00000000
01000000
10000000
00000000
00000000
,
10000000
01000000
00000000
00000000
01000000
00010000
00000000
00000000
00010000
00001000
00000000
00000000
00001000
00000010
00000000
00000000
,
00000010
00000001
00000000
00000000
00000001
00000100
00000000
00000000
00000100
00000010
00000000
00000000
00001000
00000001
00000000
00000000
,
00000010
00000001
00000010
00000000
00000100
00000000
00000000
00000000
00001000
00000100
00001000
00000000
00000010
00000000
00000000
00000000
,
00001000
00000001
00001000
00000000
00000010
00000000
00000000
00000000
00000100
00000001
00001000
00000000
00000100
00000000
00000000
00000000
,
00000010
00000001
00001000
00000100
00000010
00000001
00000100
00001000
,
00010000
00100000
10000000
01000000
00100000
00010000
10000000
01000000
,
00100000
00010000
00100000
00000000
11000000
00000000
00000000
00000000
10000000
01000000
10000000
00000000
01010000
00000000
00000000
00000000
,
00010000
01000000
00010000
00000000
10100000
00000000
00000000
00000000
00100000
10000000
00100000
00000000
01010000
00000000
00000000
00000000
,
00100000
01000000
00010000
10000000
00100000
10000000
01000000
00010000
,
00001000
00000010
00000001
00000100
00000010
00001000
00000001
00000100
,
00000001
00000100
00000000
00000100
00000001
00000000
00000000
00000000
00000010
00001000
00000000
00001000
00000010
00000000
00000000
00000000
,
00010000
00001000
00000000
00001000
00010000
00000000
00000000
00000000
00010000
00001000
00010000
00000000
00011000
00000000
00000000
00000000
,
00100000
10000000
00000000
10000000
00100000
00000000
00000000
00000000
00010000
01000000
00000000
01000000
00010000
00000000
00000000
00000000
,
00001000
00010000
00000000
00010000
00001000
00000000
00000000
00000000
00001000
00010000
00001000
00000000
00011000
00000000
00000000
00000000
,
00100000
10000000
00000000
00000000
01000000
00010000
00000000
00000000
00001000
00000010
00000000
00000000
00000001
00000100
00000000
00000000
,
00001000
00010000
00000000
00000000
00100000
10000000
00000000
00000000
01000000
00010000
00000000
00000000
00001000
00000010
00000000
00000000
,
00000001
00001000
00000010
00000100
00001000
01000000
00100000
10000000
,
00010000
00100000
01000000
00010000
00000100
00000010
00000001
00001000
,
00000001
00000100
00000000
00000010
00000000
00000000
00001000
00000000
00000100
00001000
00000000
00000001
00000010
00000000
00000000
00000000
,
00000001
00001000
00000100
00000010
00000001
00000100
00001000
00100000
,
00010000
01000000
00000000
00100000
00000000
00000000
10000000
00000000
01000000
10000000
00000000
00010000
00100000
00000000
00000000
00000000
,
00010000
01000000
00100000
10000000
01000000
00010000
00001000
00000010
,
00000001
00000100
00000000
00000100
00000001
00000000
00000000
00000000
00001000
00000100
00000000
00000100
00001000
00000000
00000000
00000000
,
00000001
00001000
00000100
00000010
00000001
00000100
00001000
00100000
,
01000000
10000000
00000000
10000000
01000000
00000000
00000000
00000000
00110000
00000000
00000000
00000000
11000000
00000000
00000000
00000000
,
10000000
01000000
00010000
00001000
00000010
00000001
00000100
00001000
,
20020000
00000000
00000000
30030000
;

//---------------dance-single - ----------------
#NOTES:
     dance-single:
     :
     Challenge:
     10:
     0.744,0.858,0.152,0.000,0.955:
1000
0001
0000
0100
0001
0000
1000
0010
0000
0100
0010
0000
1000
0000
0100
0000
,
1000
0010
0000
0100
0001
0000
0010
0001
0000
0100
0001
0000
1000
0000
0100
0000
,
0010
0001
0000
1000
0100
0000
0010
0100
0000
0010
0001
0000
0100
0000
0010
0000
,
1000
0001
0000
0010
0100
0000
0010
0001
0000
1000
0100
0000
0010
0000
0100
0000
,
0001
1000
0000
0010
0100
0000
1000
0010
0000
0100
0001
0000
1000
0000
0001
0000
,
1000
0100
0000
1000
0010
0000
0100
0010
0000
0100
0010
0000
1000
0000
0001
0000
,
1000
0010
0000
0100
0001
0000
0010
0001
0000
1000
0100
0000
1000
0000
0010
0000
,
0100
0010
0000
0100
0010
0000
1000
0100
0000
0010
0001
0000
0100
0000
0001
0000
,
1000
0100
0000
0100
1000
0000
0010
0100
0000
0100
0010
0000
1000
0000
0100
0000
,
0010
0001
0000
0001
0010
0000
0100
1000
0000
1000
0100
0000
0010
0000
0100
0000
,
1000
0010
0000
0010
0100
0000
0100
0001
0000
0001
0010
0000
0001
0000
0100
0000
,
0010
1000
0000
1000
0010
0000
0100
0010
0000
0010
1000
0000
0001
0000
0100
0000
,
0001
1000
0000
1000
0001
0000
0100
0010
0000
0010
0100
0000
0010
0000
1000
0000
,
0100
1000
0000
1000
0100
0000
0010
0100
0000
0100
0010
0000
0001
0000
1000
0000
,
0001
1000
0000
1000
0100
0000
0010
0001
0000
0001
0100
0000
0010
0000
1000
0000
,
0001
1000
0000
1000
0010
0000
0100
0110
0000
0010
0110
0000
1000
0000
0001
0000
,
1000
0010
0000
0100
0010
0000
1000
0001
0000
0100
0001
0000
1000
0000
0100
0000
,
0010
0100
0000
0010
0100
0000
1000
0001
0000
1000
0001
0000
1000
0100
1000
0000
,
0010
0100
0000
0010
1000
0000
0010
0100
0000
0001
1000
0000
0001
0000
0100
0000
,
0001
0010
0000
0100
1000
0000
0010
0100
0000
0001
1000
0000
0001
0100
0001
0000
,
1000
0100
0000
1000
0010
0000
0100
0010
0000
1000
0001
0000
0100
0000
0001
0000
,
0010
0001
0000
1000
0100
0000
0010
1000
0000
0001
0100
0000
0010
1000
0001
0000
,
0100
1000
0000
1000
0100
0000
0010
0001
0000
0001
0010
0000
0001
0000
0100
0000
,
0010
1000
0000
1000
0010
0000
0100
0010
0000
0010
0100
0000
0001
1000
0001
0000
,
1000
0100
0000
0010
0001
0000
0100
0001
0000
1000
0100
0000
1000
0000
0010
0000
,
0100
0001
0000
1000
0001
0000
0100
0010
0000
0100
0010
0000
1000
0000
0100
0000
,
1000
0010
0000
0100
0010
0000
1000
0001
0000
0100
0001
0000
0010
0000
0001
0000
,
0100
0010
0000
1000
0100
0000
1000
0010
0000
0100
0010
0000
1000
0000
0001
0000
,
0100
0001
0000
1000
0100
0000
1000
0010
0000
1000
0010
0000
0100
0000
0010
0000
,
1000
0100
0000
1000
0100
0000
0010
0001
0000
0010
0001
0000
0100
0000
0001
0000
,
1000
0100
0000
0100
1000
0000
0010
0100
0000
0100
0010
0000
1000
0000
0001
0000
,
0010
0001
0000
0001
0010
0000
0001
0100
0000
0100
0001
0000
1000
0000
0100
0000
,
1000
0100
0000
0010
0001
0000
0100
0001
0000
1000
0100
0000
1000
0000
0010
0000
,
0100
0001
0000
1000
0001
0000
0100
0010
0000
0100
0010
0000
1000
0000
0100
0000
,
1000
0010
0000
0100
0010
0000
1000
0001
0000
0100
0001
0000
0010
0000
0001
0000
,
0100
0010
0000
1000
0100
0000
1000
0010
0000
0100
0010
0000
1000
0000
0001
0000
,
0100
0001
0000
1000
0100
0000
1000
0010
0000
1000
0010
0000
0100
0000
0010
0000
,
1000
0100
0000
1000
0100
0000
0010
0001
0000
0010
0001
0000
0100
0000
0001
0000
,
1000
0100
0000
0100
1000
0000
0010
0100
0000
0100
0010
0000
1000
0000
0001
0000
,
0010
0001
0000
0001
0010
0000
0001
0100
0000
0100
0001
0000
1000
0000
0100
0000
,
1000
0100
0000
0100
1000
0000
0010
0100
0000
0100
0010
0000
1000
0000
0100
0000
,
0010
0001
0000
0001
0010
0000
0100
1000
0000
1000
0100
0000
0010
0000
0100
0000
,
1000
0010
0000
0010
0100
0000
0100
0001
0000
0001
0010
0000
0001
0000
0100
0000
,
0010
1000
0000
1000
0010
0000
0100
0010
0000
0010
1000
0000
0001
0000
0100
0000
,
0001
1000
0000
1000
0001
0000
0100
0010
0000
0010
0100
0000
0010
0000
1000
0000
,
0100
1000
0000
1000
0100
0000
0010
0100
0000
0100
0010
0000
0001
0000
1000
0000
,
0001
1000
0000
1000
0100
0000
0010
0001
0000
0001
0100
0000
0010
0000
1000
0000
,
0001
1000
0000
1000
0001
0000
0010
0100
0000
1000
0010
0000
1000
0000
0001
0000
,
1000
0010
0000
0100
0010
0000
1000
0001
0000
0100
0001
0000
1000
0000
0100
0000
,
0010
0100
0000
0010
0100
0000
1000
0001
0000
1000
0001
0000
1000
0100
1000
0000
,
0010
0100
0000
0010
1000
0000
0010
0100
0000
0001
1000
0000
0001
0000
0100
0000
,
0001
0010
0000
0100
1000
0000
0010
0100
0000
0001
1000
0000
0001
0100
0001
0000
,
1000
0100
0000
1000
0010
0000
0100
0010
0000
1000
0001
0000
0100
0000
0001
0000
,
0010
0001
0000
1000
0100
0000
0010
1000
0000
0001
0100
0000
0010
1000
0001
0000
,
0100
1000
0000
1000
0100
0000
0010
0001
0000
0001
0010
0000
0001
0000
0100
0000
,
0010
1000
0000
1000
0010
0000
0100
0010
0000
0010
0100
0000
0001
1000
0001
0000
,
0000
1000
0000
1000
0001
0000
0100
0000
0001
1000
0000
0100
1000
0000
0010
0000
,
0100
0010
0000
1000
0001
0000
0100
0000
0001
1000
0010
0000
1000
0000
0001
0000
,
0000
0100
0000
0100
0001
0000
0010
0000
0100
1000
0000
1000
0100
0000
0010
0000
,
0001
1000
0000
1000
0001
0000
0100
0000
0010
0100
0010
0000
0100
0000
0001
0000
,
1001
0100
0000
0100
0010
0000
0100
0000
0110
1000
0000
0001
0100
0000
0010
0000
,
1001
0010
0000
0100
0001
0000
0010
0000
0011
0100
0001
0000
0100
0000
0010
0000
,
1001
0010
0000
0100
0010
0000
0100
0000
0011
0100
0000
1000
0010
0000
1000
0000
,
0101
0010
0000
1000
0001
0000
0100
0000
0011
0100
0010
0000
1000
0000
0001
0000
,
1001
0010
0000
0010
0100
0000
0010
0000
0110
0001
0000
1000
0010
0000
0100
0000
,
1001
0100
0000
0010
1000
0000
0100
0000
1100
0001
1000
0000
0010
0000
0100
0000
,
1001
0100
0000
0010
0100
0000
0010
0000
1100
0010
0000
0001
0100
0000
0001
0000
,
1010
0100
0000
0001
1000
0000
0010
0000
1100
0010
0100
0000
0001
0000
1000
0000
,
0001
0010
0001
0010
0100
1000
0100
1000
0010
1000
0010
1000
0001
1000
0001
1000
,
0001
0010
0001
0010
0100
1000
0100
1000
0010
0100
0010
0100
0001
1000
0001
1000
,
0010
1000
0010
1000
0100
1000
0100
1000
0001
0010
0001
0010
0100
0010
0100
0010
,
0001
0100
0001
0100
0010
0100
0010
0100
0010
1000
0010
1000
0001
1000
0001
1000
,
0001
0100
0010
0000
0100
0000
0001
0000
0100
0000
0001
0000
1000
0000
0010
0000
,
1000
0001
1000
0000
0010
0000
0100
0000
0001
0000
0010
0000
0001
0000
0100
0000
,
0010
0100
0001
0000
0100
0000
0010
0000
1000
0000
0001
0000
1000
0000
0010
0000
,
1000
0100
1000
0000
0001
0000
0010
0000
0001
0000
0100
0000
0010
0000
0100
0000
,
0001
0010
0001
0000
0100
0000
0010
0000
0100
0000
0001
0000
1000
0000
0010
0000
,
0100
0001
0010
0000
0001
0000
0100
0000
0010
0000
0100
0000
0001
0000
1000
0000
,
0010
1000
0100
0000
1000
0000
0001
0000
0010
0000
0001
0000
0100
0000
0010
0000
,
1000
0001
0100
0001
1000
0100
0010
0001
,
1000
0001
0000
1000
0001
0000
0000
0000
0100
0000
0000
0000
0010
0000
0000
0000
,
1000
0100
0000
1000
0100
0000
0000
0000
0010
0000
0000
0000
0001
0000
0000
0000
,
0100
0001
0000
0100
0001
0000
0000
0000
1000
0000
0000
0000
0001
0000
0000
0000
,
1000
0010
0000
1000
0010
0000
0000
0000
0100
0000
0000
0000
0010
0000
0000
0000
,
1000
0001
0000
0001
1000
0000
0000
0000
0010
0000
0000
0000
1000
0000
0000
0000
,
0010
1000
0000
1000
0010
0000
0000
0000
0100
0000
0000
0000
0001
0000
0000
0000
,
0010
0001
0000
0001
0010
0000
0000
0000
0001
0000
0000
0000
1000
0000
0000
0000
,
0010
1000
0000
1000
0010
0000
0000
0000
0100
0000
0000
0000
0001
0000
0000
0000
,
1000
0001
0000
1000
1001
0000
0000
0000
0100
0000
0000
0000
1010
0000
0000
0000
,
1000
0100
0000
1000
0101
0000
0000
0000
0010
0000
0000
0000
0101
0000
0000
0000
,
0100
0001
0000
0100
0011
0000
0000
0000
1000
0000
0000
0000
1001
0000
0000
0000
,
1000
0010
0000
1000
0011
0000
0000
0000
0100
0000
0000
0000
0110
0000
0000
0000
,
1000
0001
0000
0001
1010
0000
0000
0000
0000
0000
0000
0000
0000
0000
0000
0000
;

//---------------dance-single - ----------------
#NOTES:
     dance-single:
     :
     Beginner:
     1:
     0.093,0.130,0.006,0.068,0.000:
1000
0000
0000
0000
,
0001
0000
0000
0000
,
0100
0000
0000
0000
,
0001
0000
0000
0000
,
1000
0000
0000
0000
,
0100
0000
0000
0000
,
1000
0000
0000
0000
,
0010
0000
0000
0000
,
0100
0000
0000
0000
,
0001
0000
0000
0000
,
1000
0000
0000
0000
,
0000
0000
0000
0000
,
0001
0000
0000
0000
,
0100
0000
0000
0000
,
0010
0000
0000
0000
,
1000
0000
0000
0000
,
0001
0000
0000
0000
,
0100
0000
0000
0000
,
0001
0000
0000
0000
,
0000
0000
0000
0000
,
0010
0000
0000
0000
,
0100
0000
0000
0000
,
1000
0000
0000
0000
,
0010
0000
0000
0000
,
0100
0000
0000
0000
,
0001
0000
0000
0000
,
1000
0000
0000
0000
,
0000
0000
0000
0000
,
0001
0000
0000
0000
,
0100
0000
0000
0000
,
0010
0000
0000
0000
,
0000
0000
0000
0000
,
2000
0000
0000
0000
,
3002
0000
0000
0000
,
0203
0000
0000
0000
,
0000
0000
0000
0000
,
0320
0000
0000
0000
,
2030
0000
0000
0000
,
3020
0000
0000
0000
,
0000
0000
0000
0000
,
0130
0000
0000
0000
,
0001
0000
0000
0000
,
1000
0000
0000
0000
,
0000
0000
0000
0000
,
0001
0000
0000
0000
,
0100
0000
0000
0000
,
0010
0000
0000
0000
,
0000
0000
0000
0000
,
2000
0000
0000
0000
,
3002
0000
0000
0000
,
0203
0000
0000
0000
,
0000
0000
0000
0000
,
0320
0000
0000
0000
,
2030
0000
0000
0000
,
3020
0000
0000
0000
,
0000
0000
0000
0000
,
1030
0000
0000
0000
,
0001
0000
0100
0000
,
0010
0000
0000
0000
,
1000
0000
0010
0000
,
0100
0000
0000
0000
,
0100
0000
0000
0000
,
0100
0000
0001
0000
,
1000
0000
0010
0000
,
0100
0000
0000
0000
,
0001
0000
1000
0000
,
0010
0000
0000
0000
,
0100
0000
0001
0000
,
1000
0000
0000
0000
,
0001
0000
0100
0000
,
0001
0000
0000
0000
,
1000
0000
0010
0000
,
0100
0000
0000
0000
,
0010
0000
0000
0000
,
1000
0000
0000
0000
,
0001
0000
0000
0000
,
0100
0000
0000
0000
,
0001
0000
0000
0000
,
1000
0000
0000
0000
,
0001
0000
0000
0000
,
1000
1000
0000
0000
,
0010
0010
0000
0000
,
0100
0100
0000
0000
,
0001
0001
0000
0000
,
1000
1000
0000
0000
,
0010
0010
0000
0000
,
0100
0100
0000
0000
,
0001
0001
0000
0000
,
0000
1000
0000
0010
,
0000
0100
0000
0001
,
0000
1000
0000
0001
,
0000
1000
0000
0100
,
0000
0110
0000
0000
;
