#TITLE:Power Ranger's Theme;
#SUBTITLE:;
#ARTIST:Shuki Levy;
#TITLETRANSLIT:;
#SUBTITLETRANSLIT:;
#ARTISTTRANSLIT:;
#CREDIT:;
#BANNER:powerranger.png;
#BACKGROUND:black-bg.png;
#LYRICSPATH:;
#CDTITLE:kyka06.png;
#MUSIC:Power Rangers - Main theme - Mighty Morphin Power Rangers.mp3;
#OFFSET:1.040;
#SAMPLESTART:20.441;
#SAMPLELENGTH:12.000;
#SELECTABLE:YES;
#BPMS:0.000=188.001;
#STOPS:;
#BGCHANGES:1.000=powerrangers.avi=1.000=0=0=1,
99999=-nosongbg-=1.000=0=0=0 // don't automatically add -songbackground-
;

//---------------dance-single - ----------------
#NOTES:
     dance-single:
     :
     Hard:
     9:
     0.790,0.987,1.000,0.000,0.349:
0000
0000
0000
0000
,
1000
0001
1000
0000
0010
0100
0000
0001
,
1000
0000
0100
0010
0000
0001
0000
0100
,
0000
0010
1000
0000
0100
0010
0000
0001
,
1010
0101
1010
0101
,
1000
0100
1000
0001
0100
0001
0010
0001
,
0100
0010
1000
0100
0010
0001
0100
0001
,
0010
0001
0100
0010
1000
0100
0010
0001
,
0100
0010
1000
0100
0010
0001
0100
0001
,
1000
0001
1000
0000
0010
1000
0010
0000
0100
0010
0100
0000
0001
0010
0001
0000
,
0010
1000
0010
0000
0100
0001
0100
0000
1000
0100
1000
0000
0010
0100
0010
0000
,
0100
0010
0100
0000
0001
1000
0001
0000
0010
0001
0010
0000
0001
0100
0001
0000
,
1000
0001
1000
0000
0010
0100
0010
0000
0100
1000
0100
0000
0001
0010
0001
0000
,
0010
1000
0010
0000
0100
0001
0100
0000
1000
0010
1000
0000
0010
1000
0010
0000
,
0100
0010
0100
0000
0001
1000
0001
0000
0010
0100
0010
0000
0001
0010
0001
0000
,
1000
0001
1000
0010
0100
0010
0100
0001
1000
0001
1000
0001
,
1000
0100
0010
0001
0010
0100
1000
0001
1000
0010
0000
0000
,
1000
0000
0100
0000
1000
0001
0000
1000
,
0000
0001
0000
1001
0000
0000
0110
0000
,
0000
0000
1001
0000
0000
1010
0000
0000
,
0101
0000
0000
0011
0000
0000
0110
0000
,
1000
0000
0001
0000
1000
0010
0000
0010
,
0000
0010
0000
1010
0000
0000
0101
0000
,
0000
0000
1001
0000
0000
0110
0000
0000
,
1100
0000
0000
0011
0000
0000
0101
0000
,
1010
0000
0101
0000
1000
0010
0000
1001
,
0000
0110
0000
0000
0000
0000
1001
0000
,
1000
0100
0000
0011
0000
0101
0000
1010
,
0000
0101
0000
1010
0000
0101
0000
0000
,
1000
0000
0100
0000
0010
0000
0001
0100
,
0000
0010
0000
1000
0100
0000
0010
0001
,
0100
0010
1000
0100
0010
0000
0001
0100
,
0000
0010
0000
1000
0100
0000
0010
0001
,
1000
0001
1000
0001
0100
0010
0100
0010
,
1000
0100
1000
0100
0010
0001
0010
0001
,
0100
0001
1010
0000
0000
0101
0000
0000
,
1010
0000
0000
0101
0000
0000
1010
0000
,
0010
0000
1001
0000
0000
1010
0000
0000
,
1100
0000
0000
0101
0000
0000
0011
0000
,
0010
0000
0101
0000
0000
1010
0000
0000
,
0101
0000
0000
1010
0000
0000
1100
0000
,
0010
0000
0101
0000
0000
1010
0000
0000
,
0101
0000
0000
0110
0000
0000
1010
0000
,
0011
0000
0101
0000
1000
0010
0000
1010
,
0000
0101
0000
0000
0000
0000
1001
0000
,
1000
0010
0000
1001
0000
0110
0000
1001
,
0000
0110
0000
1100
0000
1100
0000
0000
,
1000
0001
1000
0001
1000
0001
1001
0000
0000
0000
0000
0000
;

//---------------dance-single - ----------------
#NOTES:
     dance-single:
     :
     Challenge:
     11:
     1.000,1.000,1.000,0.100,0.548:
0000
0000
0000
0000
,
1000
1000
1100
0000
0001
0110
0000
1000
,
1100
0000
0010
1100
0000
0101
0000
1001
,
0000
0100
1100
0000
0001
0110
0000
0001
,
1100
0010
0101
0010
1100
0010
0101
0010
,
1001
0101
0011
0100
1001
0110
1000
0011
,
0011
1000
0101
0011
0100
1010
0101
1001
,
0010
0101
0011
0100
1001
0110
0100
1010
,
0011
0100
1010
0101
0010
1100
1010
0101
,
0001
0010
0100
1000
0001
0010
0100
1000
0001
0010
0100
1000
0001
0010
0100
1000
,
0001
0100
0010
1000
0001
0100
0010
1000
0001
0100
0010
1000
0001
0100
0010
1000
,
0010
0100
0001
1000
0010
0100
0001
1000
0010
0100
0001
1000
0010
0100
0001
1000
,
0001
0010
0100
1000
0001
0010
0100
1000
0001
0100
0010
1000
0001
0100
0010
1000
,
0001
0010
0001
0010
0001
0010
0001
0010
0001
0010
0001
0010
0001
0010
0001
0010
,
0100
1000
0100
1000
0100
1000
0100
1000
0100
1000
0100
1000
0100
1000
0100
1000
,
0100
0010
0001
0100
0010
1000
0100
0010
0001
0100
0001
0100
,
0010
1000
0100
0010
0001
0100
0010
1000
0100
1100
0000
0000
,
1001
0100
0110
0000
1100
0101
0000
0110
,
0000
1002
0000
0100
0000
0000
0013
0000
,
1000
0100
0110
0001
1000
1100
0010
0100
,
0011
0100
0010
1100
0001
0100
0101
0000
,
1001
0010
0110
0000
0011
1010
0000
0110
,
0000
2001
0000
0010
0000
0000
3001
0000
,
0001
0010
0110
1000
0001
0011
0100
0010
,
1100
0010
0100
0011
1000
0010
1010
0000
,
1001
0100
1100
0000
0110
0011
0000
1001
,
0000
2100
0000
0000
0000
0000
3000
0000
,
1100
0110
0001
1100
0010
0110
1000
0110
,
0001
1100
0001
0110
0001
0011
0100
0010
,
1100
0000
0110
0000
1001
0000
1100
0110
,
0000
1001
0000
0101
1010
0000
0110
1001
,
0101
1100
0110
1100
1001
0000
0110
0011
,
0000
1010
0000
0110
1001
0000
0101
0000
,
1100
0010
1100
0010
1100
0010
1100
0010
,
0011
0100
0011
0100
0011
0100
0011
0100
,
1001
0010
0110
0000
0011
1010
0000
0110
,
0000
2001
0000
0010
0000
0000
3100
0000
,
0001
0010
0110
1000
0001
0011
0100
0010
,
1100
0010
0100
0011
1000
0010
1010
0000
,
1001
0100
0110
0000
1100
0101
0000
0110
,
0000
1002
0000
0100
0000
0000
1003
0000
,
1000
0100
0110
0001
1000
1100
0010
0100
,
0011
0100
0010
1100
0001
0100
0101
0000
,
1001
0010
0011
0000
0110
1100
0000
1001
,
0000
0012
0000
0000
0000
0003
1001
0000
,
0011
0110
1000
0011
0100
0110
0001
0110
,
1000
0011
1000
0110
1000
1100
0010
0100
,
1001
0100
0010
0001
1000
0010
1001
0000
0000
0000
0000
0000
;

//---------------dance-single - ----------------
#NOTES:
     dance-single:
     :
     Medium:
     7:
     0.458,0.671,0.050,0.133,0.000:
0000
0000
0000
0000
,
1000
0010
1000
0000
0000
0001
0000
0000
,
0100
0000
0000
0010
0000
1000
0000
1000
,
0000
0001
0100
0000
0000
0010
0000
0000
,
1000
0100
0010
0001
,
1100
0000
0010
0000
0000
0100
0000
0000
,
0001
0000
0000
1000
0000
0000
0100
1000
,
0000
0000
0010
0000
0000
0100
0000
0000
,
0001
0000
0000
1000
0000
0000
0010
0000
,
1000
0100
1000
0100
1000
0100
1000
0100
,
1000
0010
1000
0010
1000
0010
1000
0010
,
0100
0010
0100
0010
0100
0010
0100
0010
,
0100
0001
0100
0001
0010
0001
0010
0001
,
1000
0001
1000
0001
1000
0001
1000
0001
,
1000
0001
1000
0001
1000
0001
1000
0001
,
1000
0010
0100
0001
,
1000
0010
1000
1100
,
1000
0000
0001
0000
0100
0010
0000
1000
,
0000
0100
0000
0000
0000
0000
0000
0000
,
0000
0000
1000
0000
0000
1000
0000
0000
,
0001
0000
0000
0001
0000
0000
0100
0000
,
0010
0000
1000
0000
0100
0010
0000
0001
,
0000
0100
0000
0000
0000
0000
0000
0000
,
0000
0000
1000
0000
0000
1000
0000
0000
,
0010
0000
0000
0010
0000
0000
0100
0000
,
0001
0000
0010
0000
0100
1000
0000
0010
,
0000
1000
0000
0000
0000
0000
0000
0000
,
0001
1000
0000
0010
0000
1000
0000
0010
,
0000
0100
0000
0001
0000
0010
0000
0000
,
0001
0000
1000
0000
0010
0000
0000
1000
,
0000
0010
0000
1000
0010
0000
0000
0100
,
0001
0000
0000
1000
0010
0000
0000
0100
,
0010
0000
0000
1000
0100
0000
0000
0010
,
0002
2003
3020
0230
,
0302
0023
0230
2300
,
3010
0000
1000
0000
0000
0001
0000
0000
,
1000
0000
0000
0010
0000
0000
0100
0000
,
0000
0000
0001
0000
0000
0001
0000
0000
,
1000
0000
0000
1000
0000
0000
0010
0000
,
0000
0000
1000
0000
0000
0001
0000
0000
,
0100
0000
0000
0010
0000
0000
1000
0000
,
0000
0000
0100
0000
0000
0010
0000
0000
,
0001
0000
0000
0100
0000
0000
0010
0000
,
1000
0000
0010
0000
0100
0001
0000
1000
,
0000
0010
0000
0000
0000
0000
1000
0000
,
1000
0001
0000
0001
0000
1000
0000
1000
,
0000
0010
0000
0010
0000
0100
0000
0000
,
1000
0001
1001
0000
;

//---------------dance-single - ----------------
#NOTES:
     dance-single:
     :
     Easy:
     4:
     0.278,0.474,0.083,0.033,0.000: // measure 1
0000
0000
0000
0000
,  // measure 2
0000
1000
0000
1000
,  // measure 3
0000
1000
0000
0001
,  // measure 4
0000
0100
0000
0010
,  // measure 5
1000
0001
0100
0010
,  // measure 6
1000
0100
0010
0000
,  // measure 7
0001
0100
0010
0000
,  // measure 8
1000
0100
1000
0000
,  // measure 9
0001
0100
0010
0000
,  // measure 10
1000
0100
0010
0001
,  // measure 11
0100
0010
1000
0010
,  // measure 12
0100
0001
0010
0100
,  // measure 13
1100
1000
1010
1000
,  // measure 14
0101
0001
1000
0010
,  // measure 15
0100
0001
1000
0001
,  // measure 16
2002
0000
0000
0000
,  // measure 17
0000
0000
0000
3003
,  // measure 18
1000
0000
0000
0000
,  // measure 19
1000
0000
0001
0000
,  // measure 20
0100
0000
0000
0000
,  // measure 21
0010
0000
1000
0000
,  // measure 22
0100
0000
0000
0000
,  // measure 23
1000
0000
0001
0000
,  // measure 24
0100
0000
0000
0000
,  // measure 25
0010
0000
1000
0000
,  // measure 26
0100
0000
1000
0000
,  // measure 27
0010
0000
1000
0000
,  // measure 28
0000
1000
0000
0001
0000
1000
0000
0010
,  // measure 29
0000
0100
0000
0001
0000
0010
0000
0000
,  // measure 30
0100
0000
0000
0000
0000
0000
0000
1000
,  // measure 31
0000
0000
0000
0000
0000
0000
0000
0001
,  // measure 32
0000
0000
0000
1000
0000
0000
0000
0010
,  // measure 33
0000
0000
0000
0100
0000
0000
0000
0010
,  // measure 34
1000
0001
0100
0010
,  // measure 35
1000
0100
1000
0010
,  // measure 36
0000
1000
0000
0000
,  // measure 37
1000
0000
0000
1000
,  // measure 38
0000
0001
0000
0000
,  // measure 39
0001
0000
0000
0001
,  // measure 40
0000
0100
0000
0000
,  // measure 41
0100
0000
0000
0100
,  // measure 42
0000
0010
0000
0000
,  // measure 43
0010
0000
0000
0010
,  // measure 44
1000
0000
0000
0000
0001
0000
0000
1000
,  // measure 45
0000
0001
0000
0000
0000
0000
0000
0000
,  // measure 46
1000
0000
0000
0010
0000
0100
0000
0001
,  // measure 47
0000
1000
0000
0010
0000
1000
0000
0000
,  // measure 48
1000
0000
1001
0000
;

//---------------dance-single - ----------------
#NOTES:
     dance-single:
     :
     Beginner:
     1:
     0.176,0.237,0.133,0.050,0.000: // measure 1
0000
0000
0000
0000
,  // measure 2
0000
1000
0000
1000
,  // measure 3
0000
1000
0000
1000
,  // measure 4
0000
0001
0000
0001
,  // measure 5
0000
0001
0000
0001
,  // measure 6
1000
0000
0010
0000
,  // measure 7
0100
0000
0001
0000
,  // measure 8
1000
0000
0100
0000
,  // measure 9
0010
0000
0001
0000
,  // measure 10
1001
0000
0000
0000
,  // measure 11
1010
0000
0000
0000
,  // measure 12
0101
0000
0000
0000
,  // measure 13
1000
0000
0010
0000
,  // measure 14
0110
0000
0000
0000
,  // measure 15
0000
0000
0000
0000
,  // measure 16
0110
0000
0000
0000
,  // measure 17
0000
0000
0000
0000
,  // measure 18
1000
0000
0001
0000
,  // measure 19
0100
0000
0000
0000
,  // measure 20
0001
0000
0010
0000
,  // measure 21
0100
0000
0000
0000
,  // measure 22
1000
0000
0010
0000
,  // measure 23
1000
0000
0000
0000
,  // measure 24
0001
0000
0100
0000
,  // measure 25
0001
0000
0000
0000
,  // measure 26
1000
0000
0000
0000
,  // measure 27
1000
0000
0000
0000
,  // measure 28
0001
0000
0001
0000
,  // measure 29
1000
0000
1000
0000
,  // measure 30
0010
0000
0000
0000
,  // measure 31
0100
0000
0000
0000
,  // measure 32
1000
0000
0001
0000
,  // measure 33
0100
0000
0010
0000
,  // measure 34
2000
0000
0000
0000
,  // measure 35
0000
0000
0000
0000
,  // measure 36
3001
0000
0000
0000
,  // measure 37
0100
0000
0000
0000
,  // measure 38
0010
0000
0000
0000
,  // measure 39
1000
0000
0000
0000
,  // measure 40
0001
0000
0000
0000
,  // measure 41
0100
0000
0000
0000
,  // measure 42
0010
0000
0000
0000
,  // measure 43
1000
0000
0000
0000
,  // measure 44
0001
0000
1000
0000
,  // measure 45
0010
0000
1000
0000
,  // measure 46
2002
0000
0000
0000
,  // measure 47
0000
0000
0000
3003
,  // measure 48
0110
0000
1001
0000
;
