#TITLE:Play Hard;
#SUBTITLE:;
#ARTIST:David Guetta feat. Ne-Yo & Akon;
#TITLETRANSLIT:;
#SUBTITLETRANSLIT:;
#ARTISTTRANSLIT:;
#CREDIT:;
#BANNER:play hard.png;
#BACKGROUND:play hard-bg.png;
#LYRICSPATH:;
#CDTITLE:kyka2016.png;
#MUSIC:Play Hard.mp3;
#OFFSET:-0.066;
#SAMPLESTART:83.130;
#SAMPLELENGTH:15.000;
#SELECTABLE:YES;
#BPMS:0.000=130.000;
#STOPS:;
#BGCHANGES:;

//---------------dance-single - ----------------
#NOTES:
     dance-single:
     :
     Challenge:
     9:
     0.714,0.649,1.000,0.236,0.467: // measure 1
0000
0000
0000
0000
,  // measure 2
0000
0000
0000
0000
,  // measure 3
1001
0000
0100
0010
0000
1010
0000
0110
,  // measure 4
0000
0000
1001
0000
0000
0000
0100
0000
0001
0000
0000
0110
0000
0000
1000
0000
,  // measure 5
0101
0000
0010
1000
0000
0011
0000
1100
,  // measure 6
0000
0000
0101
0000
0000
0000
0010
0000
1000
0000
0000
0101
0000
0000
0100
0000
,  // measure 7
1010
0000
0010
1000
0000
0011
0000
0101
,  // measure 8
0000
0000
0110
0000
0000
0000
0010
0000
1000
0000
0000
0011
0000
0000
1001
0000
,  // measure 9
0001
1000
0000
0010
0000
0100
0010
0000
1000
0000
0001
0000
0110
0000
0000
0000
,  // measure 10
1000
0000
0001
0100
0000
0001
0100
0000
0010
0000
1000
0000
0001
0000
0100
0000
,  // measure 11
0100
0000
0001
0100
0000
0100
0010
0000
1000
0000
0100
0000
0010
0000
0100
0000
,  // measure 12
1000
0000
0001
1000
0000
0001
0100
0000
0010
0000
1000
0000
0001
0000
1000
0000
,  // measure 13
0001
0000
1000
0100
0000
0010
0100
0000
0010
0000
0001
0000
1000
0000
0001
0000
,  // measure 14
2001
0000
3000
0102
0000
0000
0103
0000
0010
0000
1000
0000
0001
0100
0010
0000
,  // measure 15
0210
0000
0300
1002
0000
0000
0103
0000
0001
0000
0010
0000
0001
0000
1000
0000
,  // measure 16
0100
0000
0000
0011
0000
1000
0001
0000
0100
0000
0010
0000
1010
0000
1010
0000
,  // measure 17
1010
0000
0000
0000
0000
0000
0010
0100
0001
0000
1000
0020
0000
0000
0130
0001
,  // measure 18
1000
0000
0001
0100
0000
0001
0000
1000
0100
0000
0010
0000
0101
0000
0101
0000
,  // measure 19
0101
0000
0000
0000
0000
0000
1000
0001
0010
0000
0001
2000
0000
0000
3010
0100
,  // measure 20
0001
0000
1000
0010
0000
1000
0000
0001
0100
0000
0001
0000
1001
0000
1001
0000
,  // measure 21
1001
0000
0000
0000
0000
0000
0100
0001
1000
0001
0000
0100
0000
0001
0000
1000
,  // measure 22
0001
0000
0100
0010
0000
1000
0000
0010
0100
0000
0001
0000
0110
0000
0110
0000
,  // measure 23
0110
0000
0000
0000
0000
0000
0010
0000
0100
0000
1000
0001
0000
0100
0000
0001
,  // measure 24
0010
0000
0001
0100
0000
0000
0001
0000
1000
0000
0100
0000
0110
0000
1001
0000
,  // measure 25
0220
0000
0000
0000
0330
0000
0011
0000
0011
0000
0000
1100
0000
0000
0011
0000
,  // measure 26
0011
0000
2200
0000
0000
3300
0001
0100
,  // measure 27
0001
0010
0001
0100
0010
0100
0002
0000
,  // measure 28
1003
0000
0010
0100
0000
0010
0000
1001
,  // measure 29
0110
0000
0010
1000
0000
0010
0100
0000
0001
0000
1000
0000
1002
0000
0000
0000
,  // measure 30
2003
0000
0000
0000
3010
0000
1000
0000
0000
0000
0001
0000
0000
0000
0001
0100
,  // measure 31
0010
0000
0010
1000
0000
1000
0001
0000
0100
0000
0010
0000
2010
0000
0000
0000
,  // measure 32
3001
0000
0000
0000
1000
0000
0100
0000
0000
0000
0011
0000
1001
0000
0001
0100
,  // measure 33
0001
0000
0100
0010
0000
1000
0100
0000
1000
0000
0010
0000
0220
0000
0000
0330
,  // measure 34
1001
0000
0000
0110
0000
0000
1000
0000
0011
0000
0000
1100
0000
0000
0001
0000
,  // measure 35
0101
0000
0000
0110
0000
0000
0010
0000
1100
0000
0000
1010
0000
0000
0101
0000
,  // measure 36
0011
0000
0000
1001
0000
0000
0100
0000
1010
0000
0000
0110
0000
0000
0010
0000
,  // measure 37
1001
0000
0100
0001
0000
1000
0001
0000
0011
0000
0000
1100
0000
0000
0010
0000
,  // measure 38
1001
0000
0000
0110
0000
0000
0010
0000
1100
0000
0000
0011
0000
0000
0001
0000
,  // measure 39
0101
0000
0000
0110
0000
0000
0010
0000
1100
0000
0000
0010
0000
0000
0110
0000
,  // measure 40
1001
0000
0000
0101
0000
0000
1000
0000
1010
0000
0000
0110
0000
0000
0001
0000
,  // measure 41
1100
0000
0010
0100
0000
0001
0100
0000
0011
0000
0000
0101
0000
0000
1010
0000
,  // measure 42
1001
0000
0000
1000
0000
0001
0100
0000
0001
0000
0000
0000
1100
0000
0000
0000
,  // measure 43
0110
0000
0000
0010
0000
1000
0001
0000
0011
0000
0000
0000
0101
0000
0000
0000
,  // measure 44
0110
0000
0000
0010
0000
1000
0100
0000
0011
0000
0000
0100
0000
0001
1000
0000
,  // measure 45
0110
0000
0000
0010
0000
1000
1100
0000
1010
0000
0000
0110
0000
0000
1001
0000
,  // measure 46
1100
0000
0102
0000
0000
0000
1003
0100
,  // measure 47
0010
0001
0100
0010
1000
0001
0200
0000
,  // measure 48
0310
0000
1000
0100
0000
0011
0000
0011
,  // measure 49
0101
0000
0010
1000
0000
0010
0100
0000
0001
0000
0010
0000
0022
0000
0000
0033
,  // measure 50
1100
0000
0000
0000
0001
0000
1000
0000
0000
0000
1100
0000
0000
0000
0001
0100
,  // measure 51
0001
0000
1000
0001
0000
1000
0001
0000
0100
0000
0010
0000
0220
0000
0000
0330
,  // measure 52
0001
0000
0000
0000
1000
0000
0100
0000
0000
0000
1100
0000
0011
0000
0010
0001
,  // measure 53
0100
0000
0001
1000
0000
0001
0010
0000
0001
0000
0100
0000
0012
0000
0000
0000
,  // measure 54
1003
0000
0000
1100
0000
0000
0010
0000
0101
0000
0000
0011
0000
0000
0100
0000
,  // measure 55
0011
0000
0000
1100
0000
0000
0010
0000
1001
0000
0000
0110
0000
0000
0011
0000
,  // measure 56
1100
0000
0000
0011
0000
0000
0100
0000
0110
0000
0000
1010
0000
0000
0101
0000
,  // measure 57
0011
0000
0001
1000
0000
0001
0100
0000
0011
0000
0000
2200
0000
0000
0000
3300
,  // measure 58
1001
0000
0000
0110
0000
0000
0010
0000
1100
0000
0000
0011
0000
0000
0100
0000
,  // measure 59
0011
0000
0000
1010
0000
0000
0010
0000
0101
0000
0000
0011
0000
0000
1100
0000
,  // measure 60
1001
0000
0000
0110
0000
0000
0010
0000
1100
0000
0000
0011
0000
0000
0101
0000
,  // measure 61
1001
0000
0100
0010
0000
0100
0010
0000
1100
0000
0000
0011
0000
0000
1001
0000
,  // measure 62
0220
0000
0000
0000
,  // measure 63
0330
0000
0000
0000
;

//---------------dance-single - ----------------
#NOTES:
     dance-single:
     :
     Hard:
     8:
     0.562,0.541,0.384,0.148,0.476:
0000
0000
0000
0000
,
0000
0000
0000
0000
,
1001
0000
1000
0010
0000
0100
0000
0010
,
0000
0000
1000
0000
0000
0000
0001
0000
0100
0000
0000
0101
0000
0000
0001
0000
,
1000
0000
0010
0100
0000
0001
0000
0010
,
0000
0000
0001
0000
0000
0000
0100
0000
0010
0000
0000
1100
0000
0000
0001
0000
,
0100
0000
0001
0010
0000
0100
0000
1000
,
0000
0000
0010
0000
0000
0000
0100
0000
0001
0000
0000
1000
0001
0000
1000
0000
,
0001
1000
0000
0001
0000
1000
0001
0000
0100
0000
0010
0000
0100
0000
0000
0000
,
0010
0000
1000
0001
0000
1000
0001
0000
0100
0000
0001
0000
0010
0000
0001
0000
,
1000
0000
0001
0100
0000
0001
0100
0000
0001
0000
1000
0000
0001
0000
0100
0000
,
0001
0000
0010
0001
0000
0010
0001
0000
0100
0000
0001
0000
0000
0000
0000
0000
,
1000
0000
0010
0100
0000
0010
0100
0000
0010
0000
1000
0000
0001
0000
0010
0000
,
0002
0000
0000
2003
0000
0000
3001
0000
0100
0000
0010
0000
1000
0010
1000
0000
,
0020
0000
0000
2030
0000
0000
3001
0000
1000
0000
0100
0000
1000
0000
0001
0000
,
1000
0000
0000
0001
0000
1000
0001
0000
1000
0000
0100
0000
1000
0000
0010
0000
,
0110
0000
0000
0000
0000
0000
0010
1000
0010
0000
0100
0001
0000
0000
1000
0100
,
1000
0000
0001
0100
0000
0001
0000
0010
0001
0000
0100
0000
0001
0000
1000
0000
,
1001
0000
0000
0000
0000
0000
0010
0100
0010
0000
1000
0001
0000
0000
0100
0001
,
0100
0000
0001
1000
0000
0001
0000
1000
0100
0000
1000
0000
0010
0000
0100
0000
,
0110
0000
0000
0000
0000
0000
1000
0001
1000
0001
0000
0100
0000
0001
0000
0010
,
0001
0000
0100
0010
0000
0100
0000
0010
1000
0000
0001
0000
0010
0000
0001
0000
,
0011
0000
0000
0000
0000
0000
0001
0010
0100
1000
0000
0001
0000
1000
0000
0010
,
0100
0000
0010
1000
0000
0000
0010
0000
0100
0000
0010
0000
0100
0000
0010
0000
,
2002
0000
0000
0000
3003
0000
1000
0000
0001
0000
0000
0100
0001
0000
1000
0000
,
1001
0000
1001
0000
0110
0000
0010
1000
,
0001
0010
0100
1000
0010
0100
0002
0000
,
2003
0000
3010
0100
0000
0010
0000
1000
,
0001
0000
0010
0100
0000
0010
0001
0000
0100
0000
0010
0000
2000
0000
0000
0000
,
3001
0000
0000
0000
0100
0000
0001
0000
0000
0000
0011
0000
0000
0000
0001
1000
,
0001
0000
1000
0100
0000
1000
0100
0000
0010
0000
0001
0000
2000
0000
0000
0000
,
3010
0000
0000
0000
0100
0000
0010
0000
0000
0000
0100
0000
0010
0000
1000
0001
,
1000
0000
0001
0010
0000
0001
0010
0000
0100
0000
1000
0000
0002
0000
0000
0000
,
1003
0000
0000
1100
0000
0000
0000
0000
0001
0000
0000
0101
0000
0000
0000
0000
,
0010
0000
0000
0110
0000
0000
0000
0000
1000
0000
0000
1100
0000
0000
0011
0000
,
0100
0000
0000
0110
0000
0000
0000
0000
0010
0000
0000
1001
0000
0000
0100
0000
,
0001
0000
1000
0001
0000
1000
0001
0000
0100
0000
0000
0011
0000
0000
0000
0000
,
0001
0000
0000
1100
0000
0000
0000
0000
0010
0000
0000
1010
0000
0000
0000
0000
,
0100
0000
0000
0011
0000
0000
0000
0000
1000
0000
0000
0011
0000
0000
1000
0000
,
0001
0000
0000
0110
0000
0000
0000
0000
0010
0000
0000
1100
0000
0000
0001
0000
,
0100
0000
0001
0010
0000
0100
1000
0000
0001
0000
0000
0101
0000
0000
1001
0000
,
0001
0000
0000
1000
0000
0100
1000
0000
0010
0000
0000
0000
1000
0000
0000
0000
,
0001
0000
0000
0010
0000
0001
0100
0000
0001
0000
0000
0000
0100
0000
0000
0000
,
0010
0000
0000
1000
0000
0001
0100
0000
0001
0000
0000
1000
0000
0010
1000
0000
,
0001
0000
0000
0100
0000
0010
0100
0000
0010
0000
0000
0010
0000
0000
0010
0000
,
1000
0000
0001
0000
1000
0000
0001
0010
,
0001
0100
0001
1000
0010
0100
0020
0000
,
1030
0000
0001
0100
0000
0001
0000
1000
,
0001
0000
0100
0010
0000
0100
0010
0000
1000
0000
0001
0000
0020
0000
0000
0000
,
0031
0000
0000
0000
0100
0000
0001
0000
0000
0000
1000
0000
0000
0000
0000
0010
,
0100
0000
0010
1000
0000
0001
0100
0000
0001
0000
0010
0000
0200
0000
0000
0000
,
1000
0000
0000
0000
1300
0000
0001
0000
0000
0000
0100
0000
0001
0000
0010
0001
,
0010
0000
0100
1000
0000
0001
0010
0000
0100
0000
1000
0000
0200
0000
0000
0000
,
0310
0000
0000
0011
0000
0000
0000
0000
0001
0000
0000
1001
0000
0000
0000
0000
,
0100
0000
0000
0110
0000
0000
0000
0000
0010
0000
0000
1010
0000
0000
1000
0000
,
0001
0000
0000
0011
0000
0000
0000
0000
0001
0000
0000
1100
0000
0000
0001
0000
,
0100
0000
0010
1000
0000
0001
1000
0000
0001
0000
0000
1100
0000
0000
0000
0000
,
0010
0000
0000
1001
0000
0000
0000
0000
0100
0000
0000
1001
0000
0000
0000
0000
,
0001
0000
0000
0110
0000
0000
0000
0000
1000
0000
0000
0110
0000
0000
0001
0000
,
0010
0000
0000
0101
0000
0000
0000
0000
0010
0000
0000
1010
0000
0000
1000
0000
,
0001
0000
0100
0001
0000
1000
0001
0000
0101
0000
0000
0110
0000
0000
2001
0000
,
0002
0000
0000
0000
,
3003
0000
0000
0000
;

//---------------dance-single - ----------------
#NOTES:
     dance-single:
     :
     Medium:
     5:
     0.363,0.352,0.009,0.096,0.201:
0000
0000
0000
0000
,
0000
0000
0000
0000
,
1000
0000
0001
1000
0000
0001
0000
1000
,
0000
0001
0000
1000
0001
0000
0000
1000
,
0001
0000
1000
0001
0000
0100
0000
0010
,
0000
0100
0000
0010
0100
0000
0000
0010
,
0100
0000
0010
1000
0000
0010
0000
1000
,
0000
0010
0000
1000
0001
0000
0000
0000
,
1000
0000
0100
0000
1000
0001
0000
0000
,
0100
0000
0001
0000
1000
0001
0100
0001
,
1000
0000
0001
0000
0100
0001
1000
0000
,
0001
0000
0100
0000
0010
1000
0000
0000
,
0001
0000
0010
0000
0001
0100
0001
0100
,
0001
0000
0000
0100
0000
0000
0001
0000
1000
0000
0001
0000
0000
0000
0000
0000
,
0100
0000
0000
0010
0000
0000
0100
0000
0010
0000
0100
0000
0000
0000
0000
0000
,
0010
0000
0000
1000
0000
0000
0001
0000
1000
0000
0001
0000
1000
0000
0001
0000
,
1000
0000
0000
0000
0000
0000
0001
0000
1000
0000
0000
1000
0000
0000
0000
0000
,
0001
0000
0100
0001
0100
0000
0001
1000
,
0001
0000
0000
0000
0000
0000
1000
0000
0100
0000
0000
0100
0000
0000
0000
0000
,
0010
0000
0001
0100
0001
0000
1000
0001
,
1000
0000
0000
0000
0000
0000
0001
0000
0100
0000
0000
0001
0000
0100
0000
0000
,
0001
0000
1000
0000
0010
0000
0100
0010
,
0100
0000
0000
0000
0000
0000
0001
0000
1000
0000
0000
0001
0000
0100
0000
0000
,
0010
0000
1000
0000
0100
0000
1000
0010
,
1000
0000
0000
0000
0000
0000
0001
0000
0100
0000
0000
0001
0000
0000
0100
0000
,
0001
0000
1100
0000
0000
0000
0001
0100
,
0010
0100
0010
0100
0010
1000
0020
0000
,
0000
0000
0030
0000
0000
1000
0000
0001
,
0100
0000
0000
0001
0000
0000
1000
0000
0001
0000
1000
0000
0002
0000
0000
0000
,
0000
0000
1003
0010
0000
1000
0000
0000
,
0001
0000
0000
0100
0000
0000
0001
0000
0100
0000
0001
0000
0200
0000
0000
0000
,
0000
0310
1000
0001
,
0100
0000
0000
0010
0000
0000
0100
0000
0001
0000
0100
0000
0002
0000
0000
0000
,
1003
0000
0000
1000
0000
0000
0000
0000
0001
0000
0000
0001
0000
0000
0000
0000
,
0100
0000
0000
0100
0000
0000
0000
0000
0010
0000
0000
0010
0000
0000
0000
0000
,
1000
0000
0000
0100
0000
0000
0000
0000
1000
0000
0000
0010
0000
0000
0000
0000
,
1000
0000
0000
0001
0000
0000
0100
0000
0001
0000
0000
1000
0000
0000
0000
0000
,
0001
0000
0000
0001
0000
0000
0000
0000
0100
0000
0000
0100
0000
0000
0000
0000
,
0010
0000
0000
0010
0000
0000
0000
0000
1000
0000
0000
1000
0000
0000
0000
0000
,
0001
0000
0000
0100
0000
0000
0000
0000
0001
0000
0000
1000
0000
0000
0000
0000
,
0001
0000
0000
0010
0000
0000
0001
0000
0100
0000
0000
0001
0000
0000
1000
0000
,
0001
0000
1000
0100
2000
0000
0000
0000
,
3001
0000
0010
0001
0020
0000
0000
0000
,
0031
0000
0100
0001
0100
0000
0010
1000
,
0010
0000
0000
0000
0100
0000
0010
0000
0100
0000
0000
0001
0000
0000
1000
0000
,
0001
0000
1000
0000
0010
0000
0100
0010
,
0100
0010
1000
0001
1000
0001
2000
0000
,
0000
0000
3001
0000
0100
0000
0001
0100
,
0001
0000
1000
0000
0001
0100
0002
0000
,
0000
1003
0100
1000
,
0010
0100
0010
0000
1000
0100
2000
0000
,
0000
3001
0100
0001
,
0010
0001
0010
0000
0100
1000
0200
0000
,
0310
0000
0000
0001
0000
0000
0000
0000
1000
0000
0000
0100
0000
0000
0000
0000
,
0010
0000
0000
0001
0000
0000
0000
0000
1000
0000
0000
0100
0000
0000
0000
0000
,
1000
0000
0000
0010
0000
0000
0000
0000
0100
0000
0000
0001
0000
0000
0000
0000
,
1000
0000
0000
0010
0000
0000
0000
0000
0100
0000
0000
0001
0000
0000
0000
0000
,
0010
0000
0000
0100
0000
0000
0000
0000
1000
0000
0000
0001
0000
0000
0000
0000
,
0010
0000
0000
0100
0000
0000
0000
0000
1000
0000
0000
0001
0000
0000
0000
0000
,
0100
0000
0000
0010
0000
0000
0000
0000
1000
0000
0000
0001
0000
0000
0000
0000
,
0100
0000
0000
0010
0000
0000
0100
0000
0010
0000
0000
0100
0000
0000
0010
0000
,
0200
0000
0000
0000
,
0300
0000
0000
0000
;

//---------------dance-single - ----------------
#NOTES:
     dance-single:
     :
     Easy:
     3:
     0.247,0.271,0.148,0.157,0.000:
0000
0000
0000
0000
,
0000
0000
0000
0000
,
0001
0000
0100
0000
0000
0010
0000
0000
,
0000
0010
0000
0000
1000
0000
0100
0000
,
1000
0000
0001
0000
0000
0010
0000
0000
,
0000
0010
0000
0000
0100
0000
0010
0000
,
0100
0000
0001
0000
0000
1000
0000
0000
,
0000
1000
0000
0000
0001
0000
0100
0000
,
0001
1000
0001
0000
,
0100
0010
0100
0000
,
0010
1000
0010
0000
,
1000
0001
1000
0000
,
0010
0100
0010
0000
,
1000
0001
1000
0000
,
0001
0010
0100
0000
,
1000
0010
0100
0010
,
1000
0000
0001
0000
,
0100
0001
1000
0001
,
0010
0000
0100
0000
,
1000
0010
0100
0010
,
1000
0000
0001
0000
,
0010
0100
1000
0100
,
0010
0000
0001
0000
,
0100
0001
0010
0001
,
1000
0000
1001
0000
,
0010
1000
0000
0001
,
0100
0001
0100
0001
,
0000
0000
1000
0000
,
0001
0000
0100
0001
,
0100
0000
0001
0000
,
0010
0000
0100
1000
,
0010
0000
0100
0000
,
0001
0000
0010
0001
,
0110
0000
0110
0000
,
1001
0000
1001
0000
,
1100
0000
1100
0000
,
0011
0000
0011
0000
,
0101
0000
0101
0000
,
1010
0000
1010
0000
,
0110
0000
0110
0000
,
1001
0000
0110
0000
,
0001
1000
0002
0000
,
0103
0001
2000
0000
,
3020
0000
0230
0000
,
0302
0000
1000
1000
,
1003
0001
0000
0100
,
0001
0100
0001
1000
,
0000
0010
0000
0100
,
0001
1000
0001
1000
,
0000
0001
0000
0010
,
0001
0100
0010
1000
,
0000
0010
0000
0100
,
0010
1000
0001
0100
,
0002
0000
2003
0000
,
3020
0000
0130
0001
,
0200
0000
0320
0000
,
2030
0000
3001
0100
,
0002
0000
2003
0000
,
3002
0000
0103
0010
,
0200
0000
0320
0000
,
2030
0000
3001
1000
,
0002
0000
0000
0000
,
0003
0000
0000
0000
;

//---------------dance-single - ----------------
#NOTES:
     dance-single:
     :
     Beginner:
     2:
     0.160,0.162,0.000,0.009,0.000:
0000
0000
0000
0000
,
0000
0000
0000
0000
,
1000
0000
1000
0000
,
1000
0000
1000
0000
,
0010
0000
0010
0000
,
0010
0000
0010
0000
,
0100
0000
0100
0000
,
0100
0000
0100
0000
,
0001
0000
0001
0000
,
1000
0000
1000
0000
,
0001
0000
0001
0000
,
0100
0000
0100
0000
,
0010
0000
0010
0000
,
1000
0000
1000
0000
,
0001
0000
0001
0000
,
0100
0000
0100
0100
,
0100
0000
0010
0000
,
1000
0000
0001
0001
,
0001
0000
0100
0000
,
0001
0000
0010
0010
,
0010
0000
0100
0000
,
1000
0000
0010
0010
,
0010
0000
0100
0000
,
0001
0000
1000
1000
,
1000
0000
0001
0000
,
0000
0100
0000
0100
,
0000
0010
0000
0010
,
0000
1000
0000
1000
,
0000
0001
0000
0001
,
0000
0100
0000
0001
,
0000
0100
0000
0001
,
0000
1000
0000
0010
,
0000
1000
0000
0010
,
0010
0000
0100
0000
,
0010
0000
0100
0000
,
0001
0000
0010
0000
,
0001
0000
0010
0000
,
0100
0000
1000
0000
,
0100
0000
1000
0000
,
0001
0000
0100
0000
,
0001
0000
0100
0000
,
0010
0010
0010
0000
,
1000
1000
1000
0000
,
0001
0000
1000
0000
,
0001
0000
1000
1000
,
0000
0010
0000
0010
,
0000
1000
0000
1000
,
0000
0001
0000
0001
,
0000
0010
0000
0010
,
0000
0100
0000
0100
,
0000
1000
0000
1000
,
0000
0001
0000
0001
,
0000
0100
0000
0100
,
0100
0000
0100
0000
,
0100
0000
0100
0000
,
0010
0000
0010
0000
,
0010
0000
0010
0000
,
1000
0000
1000
0000
,
1000
0000
1000
0000
,
0001
0000
0001
0000
,
0001
0000
0001
0000
,
0002
0000
0000
0000
,
0003
0000
0000
0000
;
