#TITLE:Paranoia (Pressure Mix);
#SUBTITLE:;
#ARTIST:Naoki with 200;
#TITLETRANSLIT:;
#SUBTITLETRANSLIT:;
#ARTISTTRANSLIT:;
#CREDIT:;
#BANNER:parapressure.png;
#BACKGROUND:parapressure-bg.png;
#LYRICSPATH:;
#CDTITLE:;
#MUSIC:paranoia -pressure mix-.mp3;
#OFFSET:-0.180;
#SAMPLESTART:48.920;
#SAMPLELENGTH:12.000;
#SELECTABLE:YES;
#BPMS:0.000=285.000,126.000=265.000,128.000=285.000,276.500=275.000,284.000=285.000;
#STOPS:233.500=0.300
,240.000=0.300
,246.500=0.300
,253.000=0.300
,259.500=0.340
,266.000=0.340
,272.500=0.340
;
#BGCHANGES:;

//---------------dance-single - ----------------
#NOTES:
     dance-single:
     :
     Challenge:
     11:
     1.000,1.000,1.000,0.550,0.000: // measure 1
1000
0100
0010
0101
0000
1001
0000
0000
,  // measure 2
0000
0000
0000
0000
,  // measure 3
1000
0010
0100
0110
0000
1001
0000
0000
,  // measure 4
0000
0000
0000
0000
,  // measure 5
0001
0100
0010
1010
0000
1001
0000
0000
,  // measure 6
0000
0000
1100
0000
0010
1000
0000
0000
,  // measure 7
0001
0100
0010
1100
0000
0110
0000
1000
,  // measure 8
0002
0000
0000
0000
,  // measure 9
1103
0110
1001
0101
,  // measure 10
1000
0100
0000
0110
0000
0000
1001
0000
,  // measure 11
1000
0010
0100
0010
1000
0100
0010
0001
,  // measure 12
0100
0001
1000
0001
2200
0000
0000
3300
,  // measure 13
1001
0101
1001
1100
,  // measure 14
0110
1000
0000
0010
0100
0001
1000
0000
,  // measure 15
0010
0100
1000
0100
0010
0001
0100
0001
,  // measure 16
1000
0010
0100
0010
2000
0000
3002
0000
,  // measure 17
0203
0320
1030
0101
,  // measure 18
1100
0100
0000
0110
0000
0000
1001
0000
,  // measure 19
0001
0100
0010
1000
0100
1000
0010
0100
,  // measure 20
0001
0010
0001
0100
2020
0000
0000
3030
,  // measure 21
1001
1100
0110
1001
,  // measure 22
0101
1000
0000
0010
1000
0001
0100
0000
,  // measure 23
0001
0010
0100
1000
0010
0100
0010
1000
,  // measure 24
0100
0010
1001
0101
0000
1001
0000
0000
,  // measure 25
1100
0000
0000
0000
,  // measure 26
0000
0000
0000
0000
0000
0000
0000
1100
,  // measure 27
0000
0000
0110
0000
0000
1001
0000
0000
,  // measure 28
0101
0000
0000
1001
0000
0000
1100
0000
,  // measure 29
0000
0110
0000
0000
1001
0000
0000
0101
,  // measure 30
0000
0000
1001
0000
0000
1100
0000
0000
,  // measure 31
0110
0000
0000
1001
0000
0000
0101
0000
,  // measure 32
0000
1001
0000
0000
1100
0000
0110
0000
,  // measure 33
1001
1000
0010
0100
0001
1000
0100
1000
,  // measure 34
0010
0100
0001
0010
0001
0100
0010
1000
,  // measure 35
0100
0001
0100
1000
0010
0001
0010
1000
,  // measure 36
0100
1000
0010
0100
0001
0010
0001
0100
,  // measure 37
0010
1000
0100
1000
0010
0100
0001
0010
,  // measure 38
0001
0100
0001
1000
0001
1000
0100
1000
,  // measure 39
0010
0100
0010
1000
0001
0100
0001
1000
,  // measure 40
0100
0010
0001
0000
0000
0000
0000
1000
,  // measure 41
0010
0100
1001
0000
1000
0000
0010
0000
,  // measure 42
0100
0000
0001
0000
1000
0001
1000
0000
,  // measure 43
0101
1000
0100
0010
,  // measure 44
1100
0000
0000
1100
0000
0000
0101
0000
,  // measure 45
1001
0000
0000
1100
0000
0000
0101
0000
,  // measure 46
1001
0000
0000
1100
0000
0000
0110
0000
,  // measure 47
1001
0000
0000
0101
0000
0000
1001
0000
,  // measure 48
1100
0000
0000
0101
0000
0000
1001
0000
,  // measure 49
0101
0000
0000
1001
0000
0000
1100
0000
,  // measure 50
0110
1001
1001
0000
,  // measure 51
1100
0010
1000
0010
0100
0000
0001
0010
,  // measure 52
0100
1000
0010
0100
0010
0000
0000
0000
,  // measure 53
1000
0100
1000
0000
0101
0000
0010
1000
,  // measure 54
0010
0100
0010
0000
2200
3300
0202
0303
,  // measure 55
2002
3003
2200
3300
0110
0000
1000
0100
,  // measure 56
1000
0000
0110
0000
1001
0000
0000
0100
,  // measure 57
0001
0000
1000
0100
0000
0001
0100
0000
,  // measure 58
0010
1000
0010
1000
0100
0000
0000
0000
,  // measure 59
1100
0000
0000
0000
0000
0000
0000
0000
1000
0000
0000
0000
0000
0000
0000
0000
0100
0000
0000
0000
0000
0000
0000
0000
2200
3300
0000
0000
0000
0000
0000
0000
0000
0000
0000
0000
0000
0000
0000
0000
0001
0000
0000
0000
0000
0000
0000
0000
1000
0000
0000
0000
0000
0000
0000
0000
0100
0000
0000
0000
0000
0000
0000
0000
,  // measure 60
0000
0010
0001
0100
0001
1000
0100
0010
,  // measure 61
0220
0330
0000
0000
0000
0000
0000
0000
0000
0000
0000
0000
0000
0000
0000
0000
1000
0000
0000
0000
0000
0000
0000
0000
0001
0000
0000
0000
0000
0000
0000
0000
0100
0000
0000
0000
0000
0000
0000
0000
0000
0000
0000
0000
0000
0000
0000
0000
0001
0000
0000
0000
0000
0000
0000
0000
1000
0000
0000
0000
0000
0000
0000
0000
,  // measure 62
0100
0000
0000
0000
0000
0000
0000
0000
0010
0000
0000
0000
0000
0000
0000
0000
0001
0000
0000
0000
0000
0000
0000
0000
0100
0000
0000
0000
0000
0000
0000
0000
0010
0000
0000
0000
0000
0000
0000
0000
2200
3300
0000
0000
0000
0000
0000
0000
0000
0000
0000
0000
0000
0000
0000
0000
0010
0000
0000
0000
0000
0000
0000
0000
,  // measure 63
1000
0001
0000
0100
0001
1000
0100
0010
,  // measure 64
0100
0000
0000
0000
0000
0000
0000
0000
1000
0000
0000
0000
0000
0000
0000
0000
0022
0033
0000
0000
0000
0000
0000
0000
0000
0000
0000
0000
0000
0000
0000
0000
1000
0000
0000
0000
0000
0000
0000
0000
0100
0000
0000
0000
0000
0000
0000
0000
1000
0000
0000
0000
0000
0000
0000
0000
0000
0000
0000
0000
0000
0000
0000
0000
,  // measure 65
0010
0000
0000
0000
0000
0000
0000
0000
0100
0000
0000
0000
0000
0000
0000
0000
0001
0000
0000
0000
0000
0000
0000
0000
1000
0000
0000
0000
0000
0000
0000
0000
0001
0000
0000
0000
0000
0000
0000
0000
0100
0000
0000
0000
0000
0000
0000
0000
0010
0000
0000
0000
0000
0000
0000
0000
2020
3030
0000
0000
0000
0000
0000
0000
,  // measure 66
0000
1000
0001
0100
0001
0010
0001
0100
,  // measure 67
0010
0000
0000
0000
0000
0000
0000
0000
1000
0000
0000
0000
0000
0000
0000
0000
0100
0000
0000
0000
0000
0000
0000
0000
0010
0000
0000
0000
0000
0000
0000
0000
0202
0303
0000
0000
0000
0000
0000
0000
0000
0000
0000
0000
0000
0000
0000
0000
1000
0000
0000
0000
0000
0000
0000
0000
0100
0000
0000
0000
0000
0000
0000
0000
,  // measure 68
0010
0001
0100
0001
1000
0100
0010
0100
,  // measure 69
1000
0000
0000
0000
0000
0000
0000
0000
0202
0303
0000
0000
0000
0000
0000
0000
0000
0000
0000
0000
0000
0000
0000
0000
1000
0000
0000
0000
0000
0000
0000
0000
0100
0000
0000
0000
0000
0000
0000
0000
1000
0000
0000
0000
0000
0000
0000
0000
0000
0000
0000
0000
0000
0000
0000
0000
0110
0000
0000
0000
0000
0000
0000
0000
,  // measure 70
0000
1001
0000
0000
0000
0000
0000
0000
,  // measure 71
0000
0000
0000
0000
0200
0300
0020
0030
,  // measure 72
1001
1100
0110
1001
,  // measure 73
0001
1000
0000
1100
0000
0000
0110
0000
,  // measure 74
1000
0100
0010
0001
1000
0100
0010
0001
,  // measure 75
1000
0100
1000
0010
0200
0000
0000
0000
,  // measure 76
0312
0010
0010
0013
1001
0000
1100
0000
,  // measure 77
1010
1000
0000
0010
0100
0001
1000
0000
,  // measure 78
0001
0010
0100
1000
0100
1000
0010
0100
,  // measure 79
0001
1000
0001
0100
0000
0101
0000
0000
,  // measure 80
2100
0100
0100
3100
0101
0000
1001
0000
,  // measure 81
1000
0010
0000
0110
0000
0000
1001
0000
,  // measure 82
0001
0010
0100
1000
0010
0100
0001
1000
,  // measure 83
0100
1000
0010
0100
1001
0000
0000
0000
,  // measure 84
1100
1100
1100
2200
0000
0000
0000
3300
,  // measure 85
1001
1001
1001
2002
0000
0000
0000
3003
,  // measure 86
1001
0110
1001
0000
1100
0000
0011
0000
,  // measure 87
1100
0011
0000
2002
0000
0000
0000
0000
,  // measure 88
0000
0000
0000
3003
0000
0000
0000
0000
;

//---------------dance-single - ----------------
#NOTES:
     dance-single:
     :
     Hard:
     10:
     0.833,0.973,0.524,0.066,0.000: // measure 1
0000
0000
0000
0000
,  // measure 2
0000
0000
0000
0000
,  // measure 3
0000
0000
0000
0000
,  // measure 4
0000
0000
0000
0000
,  // measure 5
0000
0000
0000
0000
,  // measure 6
0000
0000
0000
0000
,  // measure 7
0000
0000
0000
0000
,  // measure 8
0000
0000
0000
0000
,  // measure 9
1000
0100
0010
0001
,  // measure 10
1000
0010
0000
0100
0000
0000
0001
0000
,  // measure 11
1000
0100
1000
0100
0010
0001
0010
0001
,  // measure 12
1000
0001
1000
0001
1000
0000
0000
0000
,  // measure 13
0010
1000
0001
0100
,  // measure 14
0001
0010
0000
0010
0001
0100
0001
0000
,  // measure 15
1000
0010
1000
0010
0001
0010
0001
0010
,  // measure 16
1000
0010
1000
0010
0200
0000
0010
0000
,  // measure 17
0010
0010
0310
1000
,  // measure 18
0001
0010
0000
0100
0000
0000
1100
0000
,  // measure 19
0010
0001
0010
0001
0100
0001
0100
0001
,  // measure 20
0010
0100
0010
0100
1000
0000
0000
0000
,  // measure 21
0001
0100
0001
0010
,  // measure 22
0001
1000
0000
1000
0001
1000
0010
0000
,  // measure 23
0100
0010
1000
0010
0100
0010
1000
0010
,  // measure 24
0100
0010
1000
0010
0000
1001
0000
0000
,  // measure 25
0101
0000
0000
0000
,  // measure 26
0000
0000
0000
0000
0000
0000
0000
0100
,  // measure 27
0010
0000
0100
1000
0000
0100
0001
0000
,  // measure 28
0100
0001
0000
0100
0010
0000
0100
1000
,  // measure 29
0000
0100
1000
0000
0100
1000
0000
0100
,  // measure 30
0001
0000
0100
0001
0000
0100
0010
0000
,  // measure 31
0100
0010
0000
0100
0001
0000
0100
1000
,  // measure 32
0000
0100
0010
0000
0000
0000
0000
0000
,  // measure 33
0010
1000
0010
1000
0010
0100
0001
1000
,  // measure 34
0001
0100
0001
0010
0001
0100
0001
1000
,  // measure 35
0100
1000
0100
1000
0010
0100
0010
1000
,  // measure 36
0001
0100
0001
0010
0001
0100
0010
1000
,  // measure 37
0100
1000
0100
0010
0001
0100
0001
0010
,  // measure 38
0001
0100
0001
1000
0010
1000
0100
0010
,  // measure 39
0001
0100
0001
1000
0100
1000
0010
0100
,  // measure 40
0001
0100
0001
0000
0000
0000
0000
0000
,  // measure 41
0000
0000
0000
0000
,  // measure 42
0000
0000
0000
0000
,  // measure 43
1001
0000
0000
0000
,  // measure 44
1100
0000
0000
1001
0000
0000
0101
0000
,  // measure 45
1001
0000
0000
1100
0000
0000
0110
0000
,  // measure 46
1001
0000
0000
0101
0000
0000
0011
0000
,  // measure 47
1001
0000
0000
1100
0000
0000
0110
0000
,  // measure 48
1001
0000
0000
0011
0000
0000
0101
0000
,  // measure 49
1001
0000
0000
1100
0000
0000
1010
0000
,  // measure 50
1001
1001
1001
0000
,  // measure 51
1000
0100
1000
0100
1000
0000
0001
0100
,  // measure 52
0010
1000
0010
1000
0010
0000
0000
0000
,  // measure 53
0100
0010
0100
0000
0001
0000
1000
0100
,  // measure 54
1000
0010
0100
0000
0110
0000
0110
0000
,  // measure 55
0110
0000
0110
0000
0000
0000
1000
0100
,  // measure 56
1000
0000
0110
0000
0011
0000
0000
1000
,  // measure 57
0100
0000
0100
1000
0000
0010
0100
0000
,  // measure 58
0001
1000
0001
1000
0001
0000
0000
0000
,  // measure 59
1000
0100
0010
0001
0000
0100
0010
1000
,  // measure 60
0000
0001
0100
0010
1000
0100
1000
0100
,  // measure 61
1000
0000
0010
0100
0001
0000
1000
0100
,  // measure 62
0010
0001
0100
0001
1000
0001
0000
1000
,  // measure 63
0100
1000
0000
0010
0100
0001
1000
0100
,  // measure 64
1000
0010
0100
0000
0001
1000
0001
0000
,  // measure 65
1000
0001
0010
0001
0100
0010
0100
0001
,  // measure 66
0000
1000
0010
1000
0100
1000
0010
0100
,  // measure 67
0001
0010
0001
0100
0010
0000
0100
0001
,  // measure 68
0010
0001
0100
0010
0100
0001
1000
0010
,  // measure 69
1000
0001
0000
0100
0001
0100
0000
0110
,  // measure 70
0000
1001
0000
0000
0000
0000
0000
0000
,  // measure 71
0000
0000
0000
0000
,  // measure 72
0001
0010
0100
0010
,  // measure 73
0001
0100
0000
0010
0000
0000
0110
0000
,  // measure 74
0100
0001
0100
0001
0100
1000
0100
1000
,  // measure 75
0100
0001
0010
0001
0100
0000
0000
0000
,  // measure 76
0001
0010
0100
1000
0000
0000
0000
0000
,  // measure 77
0010
0100
0000
0100
0010
0100
0010
0000
,  // measure 78
1000
0100
1000
0100
0010
0001
0010
0001
,  // measure 79
0100
0010
0100
0010
0000
0110
0000
0000
,  // measure 80
0001
0010
0100
1000
0000
0000
0000
0000
,  // measure 81
0100
1000
0000
0110
0000
0000
1001
0000
,  // measure 82
1000
0100
1000
0010
0100
0010
0100
0001
,  // measure 83
0100
0010
1000
0100
1000
0000
0000
0000
,  // measure 84
0001
0010
0100
2000
0000
0000
0000
0000
,  // measure 85
3001
0010
0100
2000
0000
0000
0000
0000
,  // measure 86
3001
0100
1000
0000
1100
0000
0101
0000
,  // measure 87
1000
0001
0000
2002
0000
0000
0000
0000
,  // measure 88
0000
0000
0000
3003
0000
0000
0000
0000
;

//---------------dance-single - ----------------
#NOTES:
     dance-single:
     :
     Medium:
     9:
     0.590,0.687,0.629,0.105,0.000: // measure 1
0000
0000
0000
0000
,  // measure 2
0000
0000
0000
0000
,  // measure 3
0000
0000
0000
0000
,  // measure 4
0000
0000
0000
0000
,  // measure 5
0000
0000
0000
0000
,  // measure 6
0000
0000
0000
0000
,  // measure 7
0000
0000
0000
0000
,  // measure 8
0000
0000
0000
0000
,  // measure 9
1000
0001
0100
0001
,  // measure 10
1000
0000
0000
1000
0000
0000
1000
0000
,  // measure 11
0001
0100
0010
1000
,  // measure 12
0100
0000
0010
0100
0010
0000
0000
0000
,  // measure 13
0001
1000
0010
0100
,  // measure 14
0010
0000
0000
1000
0010
0000
0100
0000
,  // measure 15
0001
1000
0001
0100
,  // measure 16
0010
0000
1000
0100
2000
0000
3020
0000
,  // measure 17
0230
0302
1003
0100
,  // measure 18
0010
0000
0000
0010
0000
0000
0010
0000
,  // measure 19
0100
1000
0010
0100
,  // measure 20
0001
0000
1000
0001
1000
0000
0000
0000
,  // measure 21
0010
1000
0001
0100
,  // measure 22
0010
1000
0000
0010
1000
0000
0001
0000
,  // measure 23
0100
1000
0001
0100
,  // measure 24
0001
1000
0001
0000
0000
1100
0000
0000
,  // measure 25
0110
0000
0000
0000
,  // measure 26
0000
0000
0000
0000
0000
0000
0000
1001
,  // measure 27
0000
0000
1001
0000
0000
1001
0000
0000
,  // measure 28
1001
0000
0000
0110
0000
0000
0110
0000
,  // measure 29
0000
0110
0000
0000
0110
0000
0000
1001
,  // measure 30
0000
0000
1001
0000
0000
1001
0000
0000
,  // measure 31
1001
0000
0000
0110
0000
0000
0110
0000
,  // measure 32
0000
0110
0000
0000
0110
0000
0000
0000
,  // measure 33
1000
0100
1000
0001
,  // measure 34
0100
0001
1000
0010
,  // measure 35
0100
0010
1000
0100
,  // measure 36
0010
0001
0100
0001
,  // measure 37
0100
1000
0010
1000
,  // measure 38
0010
0100
1000
0010
,  // measure 39
0100
0001
1000
0001
,  // measure 40
0100
0010
0100
0000
0000
0000
0000
0000
,  // measure 41
0000
0000
0000
0000
,  // measure 42
0000
0000
0000
0000
,  // measure 43
0000
0000
0000
0000
,  // measure 44
1001
0000
0000
0001
0000
0000
0100
0000
,  // measure 45
1010
0000
0000
1000
0000
0000
0001
0000
,  // measure 46
0110
0000
0000
0001
0000
0000
0100
0000
,  // measure 47
0011
0000
0000
1000
0000
0000
0100
0000
,  // measure 48
1010
0000
0000
0010
0000
0000
0100
0000
,  // measure 49
1001
0000
0000
1000
0000
0000
0001
0000
,  // measure 50
1001
0000
0000
0000
,  // measure 51
1000
0100
1000
0001
,  // measure 52
0100
0001
1000
0000
,  // measure 53
0010
1000
0010
0100
,  // measure 54
0001
1000
1100
1100
,  // measure 55
1100
1100
0000
0100
,  // measure 56
0001
0000
1000
0000
0100
0000
0000
1000
,  // measure 57
0100
0000
0010
0000
0000
0010
0000
0000
,  // measure 58
0010
0001
1001
0000
,  // measure 59
1000
0000
0000
0110
0000
0010
0000
1000
,  // measure 60
0000
0010
0000
0100
0000
1001
0000
0000
,  // measure 61
1001
1000
0100
0010
,  // measure 62
0001
0000
0110
0000
0000
0110
0000
0010
,  // measure 63
0000
1000
0000
0100
0000
0010
0000
1100
,  // measure 64
0000
1100
0001
0100
,  // measure 65
0001
0000
1000
0000
1001
0000
0000
1001
,  // measure 66
0000
1000
0000
0100
0000
0010
0000
0100
,  // measure 67
0000
1001
0000
0000
0110
0000
0001
0000
,  // measure 68
1000
0001
0100
1010
,  // measure 69
0000
1100
0000
0010
0000
0100
0000
0100
,  // measure 70
0000
0110
0000
0000
0000
0000
0000
0000
,  // measure 71
0000
0000
0000
0000
,  // measure 72
1000
0100
0010
0001
,  // measure 73
1000
0000
0000
0010
0000
0000
1000
0000
,  // measure 74
0010
0100
0001
1000
,  // measure 75
0001
1000
1001
0000
,  // measure 76
1000
0100
1000
0100
0000
0000
0000
0000
,  // measure 77
0010
0000
0000
0010
0000
0000
0010
0000
,  // measure 78
0001
0100
0001
1000
,  // measure 79
0001
0000
1000
0000
0000
0110
0000
0000
,  // measure 80
0001
0010
0001
0010
0000
0000
0000
0000
,  // measure 81
0100
0000
0000
1000
0000
0000
0010
0000
,  // measure 82
0100
0001
1000
0001
,  // measure 83
1000
0100
0110
0000
,  // measure 84
1000
0100
1000
0200
0000
0000
0000
0000
,  // measure 85
0301
0010
0001
0020
0000
0000
0000
0000
,  // measure 86
1030
0100
0001
0000
0010
0000
1000
0000
,  // measure 87
0001
0100
0000
2002
0000
0000
0000
0000
,  // measure 88
0000
0000
0000
3003
0000
0000
0000
0000
;

//---------------dance-single - ----------------
#NOTES:
     dance-single:
     :
     Easy:
     6:
     0.457,0.687,0.459,0.066,0.000: // measure 1
0000
0000
0000
0000
,  // measure 2
0000
0000
0000
0000
,  // measure 3
0000
0000
0000
0000
,  // measure 4
0000
0000
0000
0000
,  // measure 5
0000
0000
0000
0000
,  // measure 6
0000
0000
0000
0000
,  // measure 7
0000
0000
0000
0000
,  // measure 8
0000
0000
0000
0000
,  // measure 9
1000
0100
1000
0000
,  // measure 10
0001
0000
0000
1000
0000
0000
0001
0000
,  // measure 11
0100
0000
0010
0000
,  // measure 12
1000
0001
1000
0000
,  // measure 13
0010
0100
0010
0000
,  // measure 14
1000
0000
0000
0001
0000
0000
0010
0000
,  // measure 15
0001
0000
1000
0000
,  // measure 16
0100
1000
0010
0100
,  // measure 17
0010
1000
0010
0000
,  // measure 18
0100
0000
0000
0100
0000
0000
0010
0000
,  // measure 19
1000
0000
0010
0000
,  // measure 20
0100
0001
1000
0000
,  // measure 21
0100
1000
0010
0000
,  // measure 22
0100
0000
0000
0001
0000
0000
0010
0000
,  // measure 23
0001
0000
1000
0000
,  // measure 24
0010
1000
0001
0000
,  // measure 25
0110
0000
0000
0000
,  // measure 26
0000
0000
0000
0000
0000
0000
0000
1000
,  // measure 27
0000
0000
0001
0000
0000
1000
0000
0000
,  // measure 28
0001
0000
0000
0100
0000
0000
0010
0000
,  // measure 29
0000
0100
0000
0000
0010
0000
0000
1000
,  // measure 30
0000
0000
0001
0000
0000
1000
0000
0000
,  // measure 31
0001
0000
0000
0100
0000
0000
0010
0000
,  // measure 32
0000
0100
0000
0000
0010
0000
0000
0000
,  // measure 33
1000
0100
1000
0000
,  // measure 34
0010
0100
0010
0000
,  // measure 35
1000
0001
1000
0001
,  // measure 36
0100
0010
1000
0001
,  // measure 37
0001
0100
0010
0000
,  // measure 38
1000
0100
1000
0000
,  // measure 39
0010
0100
0010
0000
,  // measure 40
1000
0001
0000
0000
,  // measure 41
0000
0000
0000
0000
,  // measure 42
0000
0000
0000
0000
,  // measure 43
0000
0000
0000
0000
,  // measure 44
1000
0000
0000
0100
0000
0000
0010
0000
,  // measure 45
0001
0000
0000
0010
0000
0000
0100
0000
,  // measure 46
1000
0000
0000
0100
0000
0000
0010
0000
,  // measure 47
0001
0000
0000
0010
0000
0000
0100
0000
,  // measure 48
1000
0000
0000
0100
0000
0000
0010
0000
,  // measure 49
0001
0000
0000
0010
0000
0000
0100
0000
,  // measure 50
1000
0000
0000
0000
,  // measure 51
1000
0100
1000
0000
,  // measure 52
0001
0100
0001
0000
,  // measure 53
0100
0010
0100
0000
,  // measure 54
0010
1000
0010
0010
,  // measure 55
0010
0010
1000
0000
,  // measure 56
0001
0100
0001
0000
,  // measure 57
1000
0000
0000
0100
0000
0000
0010
0000
,  // measure 58
0001
1000
1001
0000
,  // measure 59
1001
0000
0000
1001
0000
1100
0000
0000
,  // measure 60
0000
0110
0000
0000
0000
1001
0000
0000
,  // measure 61
0110
0110
0000
1100
,  // measure 62
0000
0000
0101
0000
0000
1001
0000
1100
,  // measure 63
0000
0000
0000
0110
0000
0000
0000
1001
,  // measure 64
0000
1100
0110
0000
,  // measure 65
1001
0000
0000
0000
1100
0000
0000
0110
,  // measure 66
0000
1100
0000
0010
0000
0100
0000
0001
,  // measure 67
0000
1001
0000
0000
1100
0000
0110
0000
,  // measure 68
0010
1000
0001
0101
,  // measure 69
0000
1001
0000
1000
0000
0010
0000
0200
,  // measure 70
0000
0310
0000
0000
0000
0000
0000
0000
,  // measure 71
0000
0000
0000
0000
,  // measure 72
0001
0010
0001
0000
,  // measure 73
1000
0000
0000
0001
0000
0000
1000
0000
,  // measure 74
0010
0000
0100
0000
,  // measure 75
0001
1000
0001
0000
,  // measure 76
0200
0000
0000
0310
0000
0000
0000
0000
,  // measure 77
1000
0000
0000
1000
0000
0000
0010
0000
,  // measure 78
0100
0000
0001
0000
,  // measure 79
1000
0010
1000
0000
,  // measure 80
0002
0000
0000
1003
0000
0000
0000
0000
,  // measure 81
0010
0000
0000
0100
0000
0000
0001
0000
,  // measure 82
1000
0000
0010
0000
,  // measure 83
0100
0000
0001
0000
,  // measure 84
1001
0000
0000
0110
0000
0000
0000
0000
,  // measure 85
1100
0000
0000
0110
0000
0000
0000
0000
,  // measure 86
1001
0000
1010
1100
,  // measure 87
1010
0000
0000
0220
0000
0000
0000
0000
,  // measure 88
0000
0000
0000
0330
0000
0000
0000
0000
;

//---------------dance-single - ----------------
#NOTES:
     dance-single:
     :
     Beginner:
     3:
     0.189,0.458,0.105,0.052,0.000:
0000
0000
0000
0000
,
0000
0000
0000
0000
,
0000
0000
0000
0000
,
0000
0000
0000
0000
,
0000
0000
0000
0000
,
0000
0000
0000
0000
,
0000
0000
0000
0000
,
0000
0000
0000
0000
,
1000
0000
0001
0000
,
1000
0000
0000
0000
,
0100
0000
0000
0000
,
0010
0000
0000
0000
,
0001
0000
1000
0000
,
0100
0000
0000
0000
,
1000
0000
0000
0000
,
0010
0000
0000
0000
,
0100
0000
0001
0000
,
0010
0000
0000
0000
,
0001
0000
0000
0000
,
1000
0000
0000
0000
,
0010
0000
1000
0000
,
0100
0000
0000
0000
,
0001
0000
0000
0000
,
0100
0000
0000
0000
,
1000
0000
0000
0000
,
0000
0000
0000
0000
0000
0000
0000
2002
,
0000
0000
0000
0000
,
0000
0000
0000
0000
,
0000
0000
0000
0000
,
0000
0000
0000
0000
,
0000
0000
0000
0000
,
0000
0000
0000
0000
0000
0000
0000
3003
,
1000
0000
0010
0000
,
0100
0000
0001
0000
,
1000
0000
0010
0000
,
1000
0000
0010
0000
,
0100
0000
0001
0000
,
1000
0000
0001
0000
,
1000
0000
0010
0000
,
1010
0000
0000
0000
,
0000
0000
0000
0000
,
0000
0000
0000
0000
,
0000
0000
0000
0000
,
1000
0000
0000
0000
,
0001
0000
0000
0000
,
0100
0000
0000
0000
,
0010
0000
0000
0000
,
1000
0000
0000
0000
,
0010
0000
0000
0000
,
1000
0000
0000
0000
,
0001
0000
0000
1000
,
0000
0000
0010
0000
,
1000
0000
0000
0001
,
0000
0000
0100
0000
,
0010
0000
1000
0000
,
0010
0000
0000
0000
,
1000
0000
0000
0000
,
0001
0000
0000
0000
,
1000
0000
0000
0000
0000
0001
0000
0000
,
0000
0000
0000
0000
0000
1000
0000
0000
,
0000
0001
0000
0000
,
0000
0000
1000
0000
0000
0000
0000
0001
,
0000
0000
0000
0000
0000
0000
0000
0100
,
0000
0000
0010
0000
,
0000
0000
1000
0000
,
0000
0100
0000
0000
0000
0000
0000
0000
,
0000
0001
0000
0000
0000
0000
1000
0000
,
0000
0000
0000
0010
,
0000
0000
0000
0000
,
0000
1100
0000
0000
0000
0000
0000
0000
,
0000
0000
0000
0000
,
1000
0000
0001
0000
,
0100
0000
0000
0000
,
0010
0000
0000
0000
,
1000
0000
0000
0000
,
0001
0000
0100
0000
,
0001
0000
0000
0000
,
1000
0000
0000
0000
,
0010
0000
0000
0000
,
1000
0000
0100
0000
,
0001
0000
0000
0000
,
0100
0000
0000
0000
,
0010
0000
0000
0000
,
1001
0000
0000
0000
,
1100
0000
0000
0000
,
0110
0000
1001
0000
,
2002
0000
0000
0000
,
0000
0000
0000
3003
0000
0000
0000
0000
;
