#TITLE:PARANOiA KCET;
#SUBTITLE:~clean megamix~;
#ARTIST:2MB;
#TITLETRANSLIT:;
#SUBTITLETRANSLIT:;
#ARTISTTRANSLIT:;
#CREDIT:;
#BANNER:PARANOiA KCET (clean megamix).png;
#BACKGROUND:PARANOiA KCET (clean megamix)-bg.png;
#LYRICSPATH:;
#CDTITLE:kykaCD.png;
#MUSIC:PARANOiA KCET ~Clean Megamix~.mp3;
#OFFSET:-0.141;
#SAMPLESTART:41.400;
#SAMPLELENGTH:8.660;
#SELECTABLE:YES;
#DISPLAYBPM:180.000;
#BPMS:0.000=180.500,84.000=180.000;
#STOPS:;
#BGCHANGES:;

//---------------dance-single - ----------------
#NOTES:
     dance-single:
     :
     Beginner:
     2:
     0.191,0.298,0.053,0.080,0.000:
0000
0000
0000
0000
,
0000
0000
0000
0000
,
0000
0000
0000
0000
,
0000
0000
0000
0000
,
0000
0000
0000
0000
,
1000
0000
1000
0000
,
0001
0000
0001
0000
,
0100
0000
0100
0000
,
0010
0000
0010
0000
,
1000
0000
0100
0000
,
0010
0000
0001
0000
,
0100
0000
0001
0000
,
1000
0000
0001
0000
,
1000
0000
0100
0000
,
1000
0000
0010
0000
,
0100
0000
0010
0000
,
1000
0000
0001
0000
,
0100
0000
0001
0000
,
0010
0000
0001
0000
,
1000
0000
0010
0000
,
0100
0000
0010
0000
,
2000
0000
0000
0000
,
3001
0000
0001
0000
,
0200
0000
0000
0000
,
0310
0000
0010
0000
,
0200
0000
0000
0000
,
0301
0000
0001
0000
,
2000
0000
0000
0000
,
3010
0000
0010
0000
,
0200
0000
0000
0000
,
0301
0000
0001
0000
,
1001
0000
0000
0000
,
0000
0000
0000
0000
,
0001
0000
1000
0000
,
0010
0000
0100
0000
,
0001
0000
0000
0000
,
1000
0000
0000
0000
,
0001
0000
0000
0000
,
1001
0000
1001
0000
,
1001
0000
1000
0000
,
0010
0000
0100
0000
,
0010
0000
1000
0000
,
0001
0000
0100
0000
,
0001
0000
0010
0000
,
0001
0000
1000
0000
,
0100
0000
1000
0000
,
0010
0000
0100
0000
,
0001
0000
0010
0000
,
0001
0000
1000
0000
,
0100
0000
1000
0000
,
0010
0000
0100
0000
,
0001
0000
0010
0000
,
0001
0000
1000
0000
,
0100
0000
1000
0000
,
0010
0000
0100
0000
,
0002
0000
0000
0003
;

//---------------dance-single - ----------------
#NOTES:
     dance-single:
     :
     Easy:
     5:
     0.389,0.367,0.107,0.040,0.000:
0000
0000
0000
0000
,
0000
0000
0000
0000
,
0000
0000
0000
0000
,
0000
0000
0000
0000
,
0000
0000
1000
0001
,
1000
0010
0100
0010
,
1000
0001
0100
0001
,
1000
0100
1000
0010
,
0100
0010
1000
0001
,
0100
0001
0010
0001
,
1000
0100
1000
0010
,
0100
0010
1000
0001
,
0100
0001
0010
0001
,
0100
0001
1000
0100
,
1000
0010
0100
0010
,
1000
0001
0100
0001
,
0010
0001
0100
0001
,
1000
0100
1000
0010
,
0100
0010
1000
0001
,
1000
0010
1000
0001
,
0100
0001
0010
0001
,
1001
0000
1000
0100
,
1000
0010
0100
0010
,
1001
0000
0001
0100
,
0001
0010
0001
1000
,
1100
0000
0010
0100
,
0010
1000
0001
0100
,
0101
0000
1000
0100
,
1000
0010
0100
0010
,
1001
0000
0001
1000
,
0100
1000
0010
0100
,
1001
0000
0000
1000
0000
0010
0000
1000
,
0000
0001
0100
0001
,
1000
0010
0100
0010
,
1000
0001
2002
3003
,
0000
1000
0000
0100
0000
1000
0000
0001
,
0000
0100
0000
0001
0000
1000
0000
0001
,
0100
0000
0100
0000
,
0100
0010
0200
0000
,
0301
0100
0010
0100
,
0001
1000
0010
1000
,
0001
0010
0001
0100
,
0010
0100
0001
1000
,
0010
1000
0100
1000
,
0001
0010
0001
0100
,
0010
0100
0001
1000
,
0010
1000
0100
1000
,
0010
1000
0001
0010
,
0001
0100
0010
0100
,
0001
1000
0010
1000
,
0100
1000
0010
1000
,
0001
0010
0001
0100
,
0010
0100
0001
1000
,
0001
0100
0001
1000
,
0010
1000
0100
1000
,
1001
0000
0000
0000
;

//---------------dance-single - ----------------
#NOTES:
     dance-single:
     :
     Medium:
     6:
     0.435,0.445,0.627,0.000,0.013:
0000
0000
0000
0000
,
0000
0000
0000
0000
,
0000
0000
0000
0000
,
0000
0000
0000
0000
,
0000
0000
0000
0000
0000
0000
0000
0000
1000
0000
0000
0010
0000
0000
0100
0000
,
0010
1000
0001
0100
,
0001
1000
1001
0000
,
1100
0100
1000
0010
,
0100
0010
1001
0000
,
0101
0001
1000
0100
,
1000
0010
0110
0000
,
1001
0001
0100
0001
,
1000
0100
1100
0000
,
0110
0010
1000
0001
,
0100
0001
1100
0000
,
0110
0001
1000
0100
,
0010
0001
0101
0000
,
1001
1000
0100
1000
,
0010
0100
0110
0000
,
1001
0100
0001
0100
,
0001
1000
1100
0000
,
1001
0000
1000
0001
,
0100
0010
1010
0000
,
1010
0000
0110
0001
,
1000
0001
0101
0000
,
1001
0000
1100
0010
,
0100
0001
1001
0000
,
1100
0000
1010
0100
,
0001
0100
0101
0000
,
1001
0000
0101
0001
,
1000
0100
1100
0000
,
1001
0000
0000
0100
0000
0010
0000
0100
,
0000
0010
0000
0100
0000
0010
0000
0000
,
1000
1000
0001
0001
,
0100
0100
0110
0000
,
0000
1000
0000
0001
0000
0100
0000
0010
,
0000
1000
0000
0100
0000
1000
0000
0010
,
0000
0100
0000
0001
0000
1000
0000
0000
,
0001
0000
1000
0000
0001
0000
1000
0000
0001
0000
0000
1000
0000
0000
0001
0000
,
0100
0001
1000
0010
,
1000
0001
1001
0000
,
0011
0010
0001
0100
,
0010
0100
1001
0000
,
1010
1000
0001
0010
,
0001
0100
0110
0000
,
1001
1000
0010
1000
,
0001
0010
0011
0000
,
0110
0100
0001
1000
,
0010
1000
0011
0000
,
0110
1000
0001
0010
,
0100
1000
1010
0000
,
1001
0001
0010
0001
,
0100
0010
0110
0000
,
1001
0010
1000
0010
,
1000
0001
0011
0000
,
1001
0000
0100
0000
0010
0100
0000
0000
;

//---------------dance-single - ----------------
#NOTES:
     dance-single:
     :
     Hard:
     8:
     0.545,0.520,0.067,0.000,0.160:
0000
0000
0000
0000
,
0000
0000
0000
0000
,
0000
0000
0000
0000
,
0000
0000
0000
0000
,
0000
0000
0000
0000
0000
0000
0000
0000
1000
0000
0000
0001
0000
0000
0100
0000
,
0001
1000
0001
0000
0100
0010
0100
0000
,
0010
0000
1000
0000
0010
0000
0000
0000
0100
0000
0000
0100
0000
0000
0100
0000
,
0010
1000
0100
0000
0010
0001
0100
0000
,
0010
0000
1000
0000
0100
0000
0000
0000
0010
0000
0000
0001
0000
0000
1000
0000
,
0010
1000
0001
0000
1000
0001
0100
0000
,
0010
0000
1000
0000
0001
0000
0000
0000
1000
0000
0000
0100
0000
0000
1000
0000
,
0001
1000
0100
0000
0010
0001
1000
0000
,
0100
0000
1000
0000
0010
0000
0000
0000
0100
0000
0000
0010
0000
0000
1000
0000
,
0001
0000
1000
0100
1000
0000
0010
0100
,
0010
0000
0000
0000
1000
0000
0001
0000
1000
0000
0000
0001
0000
0000
0100
0000
,
0010
0000
1000
0100
1000
0000
0010
0100
,
0010
0000
0000
0000
1000
0000
0001
0000
1000
0000
0000
0010
0000
0000
0100
0000
,
0001
0000
0010
0001
1000
0000
0100
1000
,
0001
0000
0000
0000
0100
0000
0010
0000
0100
0000
0000
0001
0000
0000
1000
0000
,
0010
0000
1000
0001
0001
0000
0100
0010
,
0010
0000
0000
0000
1000
0000
0001
0000
0001
0000
0000
0001
0000
0000
0001
0000
,
1001
0000
1000
0010
,
0100
0000
0000
0000
0010
0000
0000
0000
1000
0000
0000
0001
0000
0000
0100
0000
,
0110
0000
1000
0010
,
0100
0000
0000
0000
0001
0000
0000
0000
1000
0000
0000
0010
0000
0000
0100
0000
,
0101
0000
1000
0010
,
0100
0000
0000
0000
0001
0000
0000
0000
1000
0000
0000
0100
0000
0000
0010
0000
,
0011
0000
1000
0010
,
0100
0000
0000
0000
0001
0000
0000
0000
0010
0000
0000
0010
0000
0000
0010
0000
,
1001
0000
0000
1000
0000
0000
0010
0000
,
0100
0000
0000
0000
0010
0000
0000
0000
1000
0000
0000
0001
0000
0000
1000
0000
,
0001
0000
0000
1000
0000
0100
0000
0010
,
0000
0001
0000
0100
0010
0100
0010
0000
,
1000
0001
1000
0000
0010
0100
0010
0000
,
1000
0000
0100
0000
1000
0000
0000
0000
0001
0000
0000
1000
0000
0000
0010
0000
,
0000
0100
0000
0010
0000
0100
0000
0001
,
0000
1000
0000
0100
0000
0010
0000
0001
,
0000
1000
0000
0010
0000
0100
0000
0010
,
1000
0000
0010
0000
1000
0000
0010
0000
1000
0000
0000
0001
0000
0000
0100
0000
,
0001
1000
0001
0000
0100
0010
0100
0000
,
0010
0000
1000
0000
0010
0000
0000
0000
0100
0000
0000
0100
0000
0000
0100
0000
,
0010
1000
0100
0000
0010
0001
0100
0000
,
0010
0000
1000
0000
0100
0000
0000
0000
0010
0000
0000
0001
0000
0000
1000
0000
,
0010
1000
0001
0000
1000
0001
0100
0000
,
0010
0000
1000
0000
0001
0000
0000
0000
1000
0000
0000
0100
0000
0000
1000
0000
,
0001
1000
0100
0000
0010
0001
1000
0000
,
0100
0000
1000
0000
0010
0000
0000
0000
0100
0000
0000
0010
0000
0000
1000
0000
,
0001
1000
0001
0000
0100
0010
0100
0000
,
0010
0000
1000
0000
0010
0000
0000
0000
0100
0000
0000
0100
0000
0000
0100
0000
,
0010
1000
0100
0000
0010
0001
0100
0000
,
0010
0000
1000
0000
0100
0000
0000
0000
0010
0000
0000
0001
0000
0000
1000
0000
,
0010
1000
0001
0000
1000
0001
0100
0000
,
0010
0000
1000
0000
0001
0000
0000
0000
1000
0000
0000
0100
0000
0000
1000
0000
,
0001
1000
0100
0000
0010
0001
1000
0000
,
0100
0000
1000
0000
0010
0000
0000
0000
0100
0000
0000
0010
0000
0000
1000
0000
,
0001
1000
0001
1000
0001
1000
0000
0000
;

//---------------dance-single - ----------------
#NOTES:
     dance-single:
     :
     Challenge:
     9:
     0.711,0.635,0.427,0.067,0.160: // measure 1
0000
0000
0000
0000
,  // measure 2
0000
0000
0000
0000
,  // measure 3
0000
0000
0000
0000
,  // measure 4
0000
0000
0000
0000
,  // measure 5
0000
0000
0000
0000
0000
0000
0000
0000
1001
0000
0000
0110
0000
0000
1001
0000
,  // measure 6
1001
0100
0010
0001
0100
0001
1000
0100
,  // measure 7
1000
0000
0010
0000
0100
0000
0010
0000
1000
0000
0000
0010
0000
0000
0100
0000
,  // measure 8
1001
0001
0100
0001
1000
0100
1000
0010
,  // measure 9
0100
0000
0001
0000
1000
0000
0001
0000
1000
0000
0000
0010
0000
0000
0100
0000
,  // measure 10
1001
0001
0100
0001
0010
0001
1000
0100
,  // measure 11
1000
0000
0010
0000
0100
0000
0010
0000
1000
0000
0000
0010
0000
0000
0100
0000
,  // measure 12
1010
0100
1000
0010
0100
0010
1000
0001
,  // measure 13
0100
0000
0001
0000
0010
0000
0001
0000
1000
0000
0000
1000
0000
0000
0010
0000
,  // measure 14
0110
0010
1000
0010
0100
0001
0010
0001
,  // measure 15
0100
0000
0001
0000
1000
0000
0001
0000
1000
0000
0010
0100
0000
0000
0010
0000
,  // measure 16
1000
0001
0100
0001
0010
0001
1000
0100
,  // measure 17
1000
0000
0010
0000
0100
0000
0001
0000
1000
0000
0000
0010
0000
0000
0100
0000
,  // measure 18
0001
0010
0100
1000
0001
0010
0100
1000
,  // measure 19
0001
0000
0100
0000
0010
0000
1000
0000
0100
0000
0000
0010
0000
0000
0001
0000
,  // measure 20
1000
0010
0100
0010
1000
0001
0100
0001
,  // measure 21
0010
0000
0100
0000
1000
0000
0010
0000
0100
0000
0000
0001
0000
0000
1000
0000
,  // measure 22
0020
1030
0100
0010
,  // measure 23
0001
0000
0000
0000
1000
0000
0000
0000
0100
0000
0000
0010
0000
0000
0001
0000
,  // measure 24
2000
3100
0010
0001
,  // measure 25
0100
0000
0000
0000
0010
0000
0000
0000
1000
0000
0000
0001
0000
0000
0100
0000
,  // measure 26
0002
1003
0010
0100
,  // measure 27
0001
0000
0000
0000
1000
0000
0000
0000
0100
0000
0000
1000
0000
0000
0010
0000
,  // measure 28
0200
0310
1000
0001
,  // measure 29
0100
0000
0000
0000
0001
0000
0000
0000
0010
0000
0000
0001
0000
0000
1000
0000
,  // measure 30
0010
0000
0000
1000
0000
0000
0001
0000
,  // measure 31
0100
0000
0000
0000
0100
0000
0000
0000
0010
0000
0000
0010
0000
0000
0010
0000
,  // measure 32
1000
0000
0000
1001
0000
1100
0000
0110
,  // measure 33
0000
1001
0000
0100
0001
0100
0010
0000
,  // measure 34
1000
0100
1000
0000
0001
0100
0001
0000
,  // measure 35
1000
0000
1000
0000
1000
0000
1000
0000
1000
0000
0000
0010
0000
0000
0010
0000
,  // measure 36
1000
0001
0000
0101
0000
1001
0000
1100
,  // measure 37
0000
0110
0000
1001
0000
0101
0000
1001
,  // measure 38
0000
1100
0000
0110
0000
1001
0000
0101
,  // measure 39
0001
0000
1000
0000
0001
0000
0010
0000
0100
0000
0000
1000
0000
0000
0001
0000
,  // measure 40
1001
0100
0010
0001
0100
0001
1000
0100
,  // measure 41
1000
0000
0010
0000
0100
0000
0010
0000
1000
0000
0000
0010
0000
0000
0100
0000
,  // measure 42
1001
0001
0100
0001
1000
0100
1000
0010
,  // measure 43
0100
0000
0001
0000
1000
0000
0001
0000
1000
0000
0000
0010
0000
0000
0100
0000
,  // measure 44
1001
0001
0100
0001
0010
0001
1000
0100
,  // measure 45
1000
0000
0010
0000
0100
0000
0010
0000
1000
0000
0000
0010
0000
0000
0100
0000
,  // measure 46
1010
0100
1000
0010
0100
0010
1000
0001
,  // measure 47
0100
0000
0001
0000
0010
0000
0001
0000
1000
0000
0000
1000
0000
0000
0010
0000
,  // measure 48
1001
0010
0100
1000
0010
1000
0001
0010
,  // measure 49
0001
0000
0100
0000
0010
0000
0100
0000
0001
0000
0000
0100
0000
0000
0010
0000
,  // measure 50
1001
1000
0010
1000
0001
0010
0001
0100
,  // measure 51
0010
0000
1000
0000
0001
0000
1000
0000
0001
0000
0000
0100
0000
0000
0010
0000
,  // measure 52
1001
1000
0010
1000
0100
1000
0001
0010
,  // measure 53
0001
0000
0100
0000
0010
0000
0100
0000
0001
0000
0000
0100
0000
0000
0010
0000
,  // measure 54
0101
0010
0001
0100
0010
0100
0001
1000
,  // measure 55
0010
0000
1000
0000
0100
0000
1000
0000
0001
0000
0000
0001
0000
0000
0100
0000
,  // measure 56
0110
0100
0010
1000
0001
0200
0000
0000
,  // measure 57
0300
0000
0000
0000
;
