#TITLE:PARANOiA;
#SUBTITLE:(FROM NONSTOP MEGAMIX);
#ARTIST:190;
#TITLETRANSLIT:;
#SUBTITLETRANSLIT:;
#ARTISTTRANSLIT:;
#CREDIT:;
#BANNER:PARANOiA.png;
#BACKGROUND:PARANOiA-bg.png;
#LYRICSPATH:;
#CDTITLE:kykaCD.png;
#MUSIC:PARANOiA (FROM NONSTOP MEGAMIX).mp3;
#OFFSET:-0.658;
#SAMPLESTART:32.220;
#SAMPLELENGTH:12.000;
#SELECTABLE:YES;
#DISPLAYBPM:190.000;
#BPMS:0.000=190.160;
#STOPS:;
#BGCHANGES:;

//---------------dance-single - ----------------
#NOTES:
     dance-single:
     :
     Hard:
     10:
     0.829,0.797,0.678,0.136,0.294: // measure 1
0000
0000
0000
0000
0000
0000
1000
1000
,  // measure 2
1000
0000
0001
0101
0000
0001
1000
0001
,  // measure 3
0100
0010
1000
0001
0100
0001
1000
0010
,  // measure 4
0100
1001
0000
0101
0000
0010
1000
0100
,  // measure 5
1000
0001
0100
0001
0010
0001
0100
0001
,  // measure 6
1000
0000
0010
1010
0010
1000
0010
0100
,  // measure 7
0001
1000
1001
0000
0110
0000
1001
0000
,  // measure 8
0000
1001
0000
0101
0000
0010
0001
0100
,  // measure 9
0010
0100
1000
0100
0001
1000
0001
0000
,  // measure 10
0100
0000
0010
0000
1000
0000
0001
1000
0100
1000
0001
0000
0010
0000
0000
0000
,  // measure 11
0001
0000
0100
0000
0010
0000
1000
0010
0100
0010
1000
0000
0010
0000
0000
0000
,  // measure 12
0100
0000
0001
0000
0010
0000
0001
0010
0100
0010
0001
0000
1000
0000
0100
0000
,  // measure 13
1000
0000
0010
0000
0100
0000
0010
0100
1000
0100
0001
0000
0100
0000
0010
0000
,  // measure 14
0000
1010
0000
0010
0100
0001
1000
0000
,  // measure 15
0100
0000
1000
0000
0010
0000
0100
0010
0001
0010
0100
0000
0001
0000
0000
0000
,  // measure 16
0100
0000
0001
0000
1000
0000
0100
1000
0001
1000
0010
0000
0100
0000
0000
0000
,  // measure 17
0001
0000
1000
0000
0100
0000
1000
0100
0010
0001
1000
0000
0100
0000
0010
0000
,  // measure 18
0000
2002
3003
1000
0100
1000
0010
0000
,  // measure 19
1000
0000
0100
0000
1000
0000
0010
1000
0010
1000
0001
0000
0010
0000
0000
0000
,  // measure 20
0001
0000
0100
0000
0001
0000
1000
0010
0100
0010
1000
0000
0100
0000
0000
0000
,  // measure 21
0010
0000
0001
0000
0100
0000
0001
0010
0100
0010
0001
0000
1000
0000
0000
0000
,  // measure 22
0100
0000
1000
0000
0010
0000
0100
0010
0001
0010
1000
0000
0001
0000
0000
0000
,  // measure 23
1000
0000
0100
0000
0010
0000
0001
0010
0100
0010
0001
0000
0010
0000
0000
0000
,  // measure 24
0001
0000
1000
0000
0001
0100
0001
0100
0001
0000
1000
0000
0100
0000
1000
0000
,  // measure 25
0220
0000
0000
0000
0000
0000
0000
0330
,  // measure 26
1001
1001
0000
0100
0010
0000
0000
0000
,  // measure 27
1000
0001
0100
0011
0000
0000
1001
0000
,  // measure 28
1100
1100
0000
0001
0100
0000
0000
0000
,  // measure 29
0001
1001
0000
1100
0000
0110
0000
0000
,  // measure 30
1001
0110
0000
0100
0001
0000
0000
0000
,  // measure 31
1000
0100
1000
1100
0000
0000
0011
0000
,  // measure 32
0101
0101
0000
1000
0001
0000
0000
0000
,  // measure 33
0101
0000
0101
0100
0010
2002
0000
0000
,  // measure 34
0000
0000
0000
0000
0000
3003
0000
0000
;

//---------------dance-single - ----------------
#NOTES:
     dance-single:
     :
     Beginner:
     2:
     0.165,0.184,0.000,0.023,0.000: // measure 1
0000
0000
0000
0000
,  // measure 2
1000
0000
0000
0000
,  // measure 3
0001
0000
0000
0000
,  // measure 4
0100
0000
0000
0000
,  // measure 5
0010
0000
0000
0000
,  // measure 6
1000
0000
0000
0000
,  // measure 7
0001
0000
0000
0000
,  // measure 8
0100
0000
0000
0000
,  // measure 9
0010
0000
0000
0000
,  // measure 10
1000
0000
1000
0000
,  // measure 11
0010
0000
0010
0000
,  // measure 12
0100
0000
0100
0000
,  // measure 13
0001
0000
0001
0000
,  // measure 14
0000
0000
1000
0000
,  // measure 15
0010
0000
0010
0000
,  // measure 16
0100
0000
0100
0000
,  // measure 17
0001
0000
0001
0001
,  // measure 18
0000
1000
0000
0000
,  // measure 19
0010
0000
0010
0000
,  // measure 20
0100
0000
0100
0000
,  // measure 21
0001
0000
1000
0000
,  // measure 22
0001
0000
0100
0000
,  // measure 23
0001
0000
0010
0000
,  // measure 24
0001
0000
1000
0000
,  // measure 25
0002
0000
0000
0000
,  // measure 26
1003
0000
1000
0000
,  // measure 27
0000
0000
0010
0000
,  // measure 28
0010
0000
0010
0000
,  // measure 29
0000
0000
0000
0000
,  // measure 30
0100
0000
0100
0000
,  // measure 31
0000
0000
0001
0000
,  // measure 32
0001
0000
0001
0000
,  // measure 33
1000
0000
0000
0000
0000
1000
0000
0000
;

//---------------dance-single - ----------------
#NOTES:
     dance-single:
     :
     Easy:
     5:
     0.355,0.380,0.045,0.023,0.000: // measure 1
0000
0000
0000
1000
,  // measure 2
0001
0000
0000
0001
0000
0000
0000
0000
,  // measure 3
1000
0000
1000
0000
,  // measure 4
0000
0010
0000
0010
0000
0000
0000
0000
,  // measure 5
1000
0000
0001
0000
,  // measure 6
1000
0000
0000
1000
0000
0000
0000
0000
,  // measure 7
0000
0010
0010
0010
,  // measure 8
0000
0100
0000
0100
0000
0000
0000
0000
,  // measure 9
0001
0000
1000
0001
,  // measure 10
1000
0100
0010
0001
,  // measure 11
0100
0001
0010
0001
,  // measure 12
0100
0010
1000
0100
,  // measure 13
1000
0000
0010
0000
0100
0000
0001
1000
,  // measure 14
0000
0001
1000
0000
0010
0000
0100
0000
,  // measure 15
0001
1000
0100
1000
,  // measure 16
0010
0100
0001
1000
,  // measure 17
0001
0100
0010
1000
,  // measure 18
0000
1001
0000
0000
0100
0000
0001
0000
,  // measure 19
1000
0100
1000
0010
,  // measure 20
0100
0001
0010
0001
,  // measure 21
0100
0001
1000
0100
,  // measure 22
1000
0010
0100
0001
,  // measure 23
1000
0010
0100
0001
,  // measure 24
0010
0001
1000
0001
,  // measure 25
1001
0000
0100
0000
,  // measure 26
1000
0001
0000
1000
0001
0000
0000
0000
,  // measure 27
0000
0000
0000
0100
0000
0000
0010
0000
,  // measure 28
1000
0100
0000
0010
0001
0000
0000
0000
,  // measure 29
0000
0100
0000
0100
0000
0100
0000
0000
,  // measure 30
0010
1000
0000
0010
1000
0000
0000
0000
,  // measure 31
0000
0000
0000
0001
0000
0000
1000
0000
,  // measure 32
0010
0100
0000
0010
0100
0000
0000
0000
,  // measure 33
0010
0000
0010
0000
0000
0020
0000
0000
,  // measure 34
0000
0000
0000
0000
0000
0030
0000
0000
;

//---------------dance-single - ----------------
#NOTES:
     dance-single:
     :
     Medium:
     9:
     0.623,0.608,0.271,0.113,0.000: // measure 1
0000
0000
0000
0000
0000
0000
1000
0001
,  // measure 2
1000
0000
0010
0100
0000
0000
0010
0000
,  // measure 3
1000
0001
0100
0001
,  // measure 4
0000
1001
0000
1001
0000
0000
0010
0000
,  // measure 5
1000
0100
1000
0001
,  // measure 6
0101
0000
1000
0001
0000
0000
0100
0000
,  // measure 7
0010
0110
1001
1100
,  // measure 8
0000
1001
0000
0101
0000
0001
0000
1000
,  // measure 9
0000
0001
0000
0100
0000
0001
1000
0000
,  // measure 10
0010
0100
0010
1000
0010
0100
0010
0000
,  // measure 11
1000
0100
1000
0010
1000
0001
1000
0000
,  // measure 12
0001
0100
0001
0010
0001
1000
0001
0000
,  // measure 13
0100
0010
0100
0001
0100
0001
1000
0002
,  // measure 14
0000
0203
0000
0310
1000
0100
1000
0000
,  // measure 15
0001
0010
0100
1000
0001
0010
0100
0000
,  // measure 16
0010
0001
1000
0100
0010
0001
1000
0000
,  // measure 17
0010
1000
0010
0100
0001
1000
0001
1000
,  // measure 18
0000
1010
0000
0100
0001
1000
0001
0000
,  // measure 19
0100
0001
1000
0100
1000
0010
0100
0000
,  // measure 20
0001
0010
0001
0100
0001
1000
0001
0000
,  // measure 21
0100
0010
1000
0100
1000
0010
0100
0000
,  // measure 22
0001
0010
0100
0010
0001
0010
0100
0000
,  // measure 23
1000
0100
0010
0100
1000
0100
0010
0000
,  // measure 24
0001
1000
0001
0100
,  // measure 25
0220
0000
0000
0000
0000
0000
0000
0330
,  // measure 26
1000
0001
0000
1000
0001
0000
0100
0000
,  // measure 27
0100
0000
0010
1000
0000
0010
0100
0000
,  // measure 28
0001
1000
0000
0100
1000
0000
0010
0000
,  // measure 29
0100
0001
0000
1001
0000
1100
0000
0001
,  // measure 30
0100
0001
0000
1000
0100
0000
0010
0000
,  // measure 31
0001
0000
0100
0010
0000
1000
0010
0000
,  // measure 32
0100
0100
0000
0010
1000
0000
0010
0100
,  // measure 33
0001
1000
0001
1000
0001
0200
0000
0000
,  // measure 34
0000
0000
0000
0000
0000
0300
0000
0000
;
