#TITLE:Mutant League Football Theme;
#SUBTITLE:;
#ARTIST:Brian Schmidt;
#TITLETRANSLIT:;
#SUBTITLETRANSLIT:;
#ARTISTTRANSLIT:;
#CREDIT:;
#BANNER:Mutant League Football.png;
#BACKGROUND:Mutant League Football-bg1.png;
#LYRICSPATH:;
#CDTITLE:kyka06.png;
#MUSIC:MLF.mp3;
#OFFSET:-0.540;
#SAMPLESTART:54.240;
#SAMPLELENGTH:12.500;
#SELECTABLE:YES;
#BPMS:0.000=170.500,79.000=150.500,80.000=170.500,108.000=168.500,120.000=170.500,132.000=166.500,148.000=170.500,183.000=150.500,184.000=170.500,192.000=167.500,212.000=170.500;
#STOPS:;
#BGCHANGES:32.000=Mutant League Football-bg2.png=1.000=0=0=1,
64.000=Mutant League Football-bg3.png=1.000=0=0=1,
96.000=Mutant League Football-bg4.png=1.000=0=0=1,
124.000=Mutant League Football-bg5.png=1.000=0=0=1,
152.000=Mutant League Football-bg7.png=1.000=0=0=1,
184.000=Mutant League Football-bg6.png=1.000=0=0=1,
212.000=Mutant League Football-bg8.png=1.000=0=0=1,
240.000=Mutant League Football-bg1.png=1.000=0=0=1,
99999=-nosongbg-=1.000=0=0=0 // don't automatically add -songbackground-
;

//---------------dance-single - ----------------
#NOTES:
     dance-single:
     :
     Easy:
     3:
     0.254,0.276,0.265,0.000,0.000:
0001
0000
1000
0000
0000
0010
0000
0000
,
0001
0000
0000
1000
0000
0000
0001
0000
,
1000
0000
0100
0000
0000
0001
0000
0000
,
0010
0000
0000
0100
0000
0000
1000
0000
,
0001
0000
1000
0000
0000
0010
0000
0000
,
0100
0000
0000
0010
0000
0000
1000
0000
,
0100
0000
0010
0000
0000
0010
0000
0000
,
1000
0000
0000
0010
0000
0000
0100
0000
,
1000
0000
0100
0000
0000
0010
0000
0000
,
0001
0000
0000
0100
0000
0000
0001
0000
,
0100
0000
0100
0000
0000
1000
0000
0000
,
0001
0000
0000
0010
0000
0000
0100
0000
,
0001
0000
0100
0000
0001
0000
0000
0010
,
0000
0000
0000
0000
0001
0000
0000
0010
,
0000
0000
0000
0000
0000
0000
0000
1010
,
0000
0000
0000
0000
,
1000
0000
0010
0000
1000
0000
0000
0100
,
0000
0000
0000
0000
1000
0000
0000
0100
,
0000
0000
0000
0000
0000
0000
0000
0101
,
0000
0000
0010
0100
,
1000
0000
0010
0000
1000
0000
0000
0100
,
0000
0000
0000
0000
1000
0000
0000
0100
,
0000
0000
0000
0000
0000
0000
0000
0011
,
0000
0000
0000
0000
,
0001
0000
0100
0000
0001
0000
0000
0010
,
0000
0000
0000
0000
0001
0000
0000
0010
,
0000
0000
0000
0000
0000
0000
0000
1010
,
0000
0000
1100
0110
,
0110
0000
0000
0000
,
0011
0000
0000
0000
,
0001
0000
0010
0000
0000
0001
0000
0000
,
0001
0000
0000
0010
0000
0000
1000
0000
,
0001
0000
0100
0000
0000
0001
0000
0000
,
1000
0000
0000
0010
0000
0000
1000
0000
,
0011
0000
0000
0000
,
0011
0000
0000
0000
,
0110
0000
0000
0000
,
0110
0000
0000
0000
,
0100
0000
1000
0000
0100
0000
0000
0001
,
0000
0000
0000
0000
0100
0000
0000
0001
,
0000
0000
0000
0000
0000
0000
0000
1010
,
0000
0000
0000
0000
,
0010
0000
0001
0000
0010
0000
0000
1000
,
0000
0000
0000
0000
0010
0000
0000
1000
,
0000
0000
0000
0000
0000
0000
0000
0101
,
0000
0000
0101
1001
,
0010
0000
0001
0000
0010
0000
0000
1000
,
0000
0000
0000
0000
0010
0000
0000
1000
,
0000
0000
0000
0000
0000
0000
0000
1100
,
0000
0000
0000
0000
,
0100
0000
1000
0000
0100
0000
0000
0001
,
0000
0000
0000
0000
0100
0000
0000
0001
,
0000
0000
0000
0000
0000
0000
0000
1010
,
0000
0000
1010
1001
,
1000
0000
0010
0000
1000
0000
0000
0100
,
0000
0000
0000
0000
1000
0000
0000
0100
,
0000
0000
0000
0000
0000
0000
0000
0101
,
0000
0000
0000
0000
,
0001
0000
0100
0000
0001
0000
0000
0010
,
0000
0000
1001
0110
;

//---------------dance-single - ----------------
#NOTES:
     dance-single:
     :
     Medium:
     5:
     0.420,0.620,0.715,0.000,0.000:
1010
0000
1001
0000
0000
0110
0000
0000
,
1100
0000
0000
0101
0000
0000
1000
0010
,
1000
0000
0110
0000
0000
1100
0000
0000
,
0101
0000
0000
0110
0000
0000
1000
0010
,
1000
0000
0101
0000
0000
1100
0000
0000
,
0110
0000
0000
1100
0000
0000
0001
0100
,
0010
0000
1100
0000
0000
0110
0000
0000
,
1001
0000
0000
1100
0000
0000
0010
1000
,
0001
0000
0011
0000
0000
0110
0000
0000
,
1100
0000
0000
0110
0000
0000
1000
0100
,
0010
0000
0011
0000
0000
0101
0000
0000
,
1010
0000
0000
1100
0000
0000
0010
0001
,
1000
0000
0010
0000
1000
0000
0001
0100
,
0000
0000
0000
0000
1000
0000
1000
0100
,
0000
0000
0000
0000
0000
0000
1000
0001
,
0000
0000
0000
0000
,
0001
0000
0100
0000
0001
0000
1000
0010
,
0000
0000
0000
0000
0001
0000
0001
0010
,
0000
0000
0000
0000
0000
0000
0001
1000
,
0000
0000
1100
0110
,
0001
0000
0100
0000
0001
0000
1000
0010
,
0000
0000
0000
0000
0001
0000
0001
0010
,
0000
0000
0000
0000
0000
0000
0001
1000
,
0000
0000
0000
0000
,
1000
0000
0010
0000
1000
0000
0001
0100
,
0000
0000
0000
0000
1000
0000
1000
0100
,
0000
0000
0000
0000
0000
0000
1000
0001
,
0000
0000
0011
0110
,
1010
0000
0110
0000
1000
0001
1000
0001
,
1100
0110
1100
0110
,
1100
0000
0110
0000
0000
1001
0000
0000
,
1100
0000
0000
0110
0000
0000
1000
0001
,
1000
0000
0110
0000
0000
1100
0000
0000
,
0011
0000
0000
0110
1000
0001
1000
0001
,
1100
0000
0110
0000
0100
0010
1000
0010
,
1100
0110
0101
1100
,
0110
0000
1001
0000
1000
0100
1000
0100
,
0110
1010
0110
0011
,
0010
0000
0001
0000
0010
0000
0100
1000
,
0000
0000
0000
0000
0010
0000
0010
1000
,
0000
0000
0000
0000
0000
0000
0010
0100
,
0000
0000
0000
0000
,
0100
0000
1000
0000
0100
0000
0010
0001
,
0000
0000
0000
0000
0100
0000
0100
0001
,
0000
0000
0000
0000
0000
0000
0100
0010
,
0000
0000
1010
1001
,
0100
0000
1000
0000
0100
0000
0010
0001
,
0000
0000
0000
0000
0100
0000
0100
0001
,
0000
0000
0000
0000
0000
0000
0100
0010
,
0000
0000
0000
0000
,
0010
0000
0001
0000
0010
0000
0100
1000
,
0000
0000
0000
0000
0010
0000
0010
1000
,
0000
0000
0000
0000
0000
0000
0010
0100
,
0000
0000
0101
1001
,
0001
0000
0100
0000
0001
0000
1000
0010
,
0000
0000
0000
0000
0001
0000
0001
0010
,
0000
0000
0000
0000
0000
0000
0001
1000
,
0000
0000
0000
0000
,
1000
0000
0010
0000
1000
0000
0001
0100
,
0000
0000
1010
1001
;

//---------------dance-single - ----------------
#NOTES:
     dance-single:
     :
     Hard:
     8:
     0.648,0.793,0.542,0.461,0.069:
2000
3100
0020
0001
0031
0200
0010
0310
,
2000
0010
3010
0200
0000
0000
0001
0301
,
2000
3010
0200
0010
0310
2000
0100
3100
,
0020
0001
0031
0200
0000
0000
0010
0310
,
0200
0301
2000
0010
3010
0002
1000
1003
,
0200
1000
1300
0002
0000
0000
0010
0013
,
0200
1300
0002
1000
1003
0200
0001
0301
,
2000
0010
3010
0002
0000
0000
1000
1003
,
0020
1030
0002
0100
0103
2000
0001
3001
,
0020
0001
0031
2000
0000
0000
0100
3100
,
0020
0031
2000
0001
3001
0020
1000
1030
,
0002
0100
0103
2000
0000
0000
0001
3001
,
1000
0100
1000
0100
0010
0001
0010
1001
,
0000
0000
0000
0000
0010
0100
0010
1100
,
0000
0000
0000
0000
0000
0000
1000
0101
,
0000
0000
0000
0000
,
1000
0010
1000
0010
0100
0010
0100
0110
,
0000
0000
0000
0000
0001
0010
0100
0011
,
0000
0000
0000
0000
0000
0000
1000
0110
,
0000
0000
0110
1100
,
0001
0010
0001
0010
0100
1000
0100
1001
,
0000
0000
0000
0000
0100
0010
0100
0011
,
0000
0000
0000
0000
0000
0000
0001
1010
,
0000
0000
0000
0000
,
0001
0100
0001
0100
0010
0100
0010
0110
,
0000
0000
0000
0000
1000
0100
0010
1100
,
0000
0000
0000
0000
0000
0000
0001
0110
,
0000
0000
0110
0011
,
1001
0000
0000
0000
1100
0000
0000
0000
1000
0100
1000
0100
0010
0001
0010
0001
,
1000
0000
0110
0000
1000
0001
0100
0010
,
2000
3100
0020
0001
0031
0200
0010
0310
,
2000
0010
3010
0200
0000
0000
0001
0301
,
2000
3010
0200
0010
0310
2000
0100
3100
,
0020
0001
0031
0200
0010
0010
0010
0310
,
1001
0000
0000
0000
1100
0000
0000
0000
1000
0100
1000
0100
0010
0001
0010
0001
,
1000
0000
0110
0000
1000
0001
0100
0010
,
1001
0000
0000
0000
1100
0000
0000
0000
1000
0100
1000
0100
0010
0001
0010
0001
,
1000
0000
0110
0000
1000
0001
0100
0010
,
1000
0100
1000
0100
0010
0001
0010
1001
,
0000
0000
0000
0000
0010
0100
0010
1100
,
0000
0000
0000
0000
0000
0000
1000
0101
,
0000
0000
0000
0000
,
1000
0010
1000
0010
0100
0010
0100
0110
,
0000
0000
0000
0000
0001
0010
0100
0011
,
0000
0000
0000
0000
0000
0000
1000
0110
,
0000
0000
0110
1100
,
0001
0010
0001
0010
0100
1000
0100
1001
,
0000
0000
0000
0000
0100
0010
0100
0011
,
0000
0000
0000
0000
0000
0000
0001
1010
,
0000
0000
0000
0000
,
0001
0100
0001
0100
0010
0100
0010
0110
,
0000
0000
0000
0000
1000
0100
0010
1100
,
0000
0000
0000
0000
0000
0000
0001
0110
,
0000
0000
0110
0011
,
0001
0010
0001
0010
0100
1000
0100
1001
,
0000
0000
0000
0000
0100
0010
0100
0011
,
0000
0000
0000
0000
0000
0000
0001
1010
,
0000
0000
0000
0000
,
0001
0100
0001
0100
0010
0100
0010
0110
,
0000
0000
1001
1010
;

//---------------dance-single - ----------------
#NOTES:
     dance-single:
     :
     Challenge:
     10:
     0.663,0.758,0.715,0.346,0.069: // measure 1
1000
1000
1100
0010
0010
0011
0100
0100
,  // measure 2
1100
0010
0010
0011
0000
0000
1100
0110
,  // measure 3
0001
0001
0011
0100
0100
1100
0010
0010
,  // measure 4
0011
0100
0100
1100
0000
0000
0011
0110
,  // measure 5
0001
0001
0011
0100
0100
1100
0010
0010
,  // measure 6
0011
0100
0100
1100
0000
0000
0011
0110
,  // measure 7
1000
1000
1100
0010
0010
0011
0100
0100
,  // measure 8
1100
0010
0010
0011
0000
0000
1100
0110
,  // measure 9
1000
1000
1100
0010
0010
0011
0100
0100
,  // measure 10
1100
0010
0010
0011
0000
0000
1100
0110
,  // measure 11
0001
0001
0011
0100
0100
1100
0010
0010
,  // measure 12
0011
0100
0100
1100
0000
0000
0011
0110
,  // measure 13
1000
0100
1000
0010
0100
0001
0010
0002
,  // measure 14
0000
0000
0000
0000
1003
0010
0100
0020
,  // measure 15
0000
0000
0000
0000
0000
0030
1001
0220
,  // measure 16
0000
0000
0000
0000
0000
0000
0000
0330
,  // measure 17
1000
0100
1000
0010
0100
0001
0010
0002
,  // measure 18
0000
0000
0000
0003
0100
0010
1000
0200
,  // measure 19
0000
0000
0000
0000
0000
0300
0010
0002
,  // measure 20
0000
0000
1000
1000
,  // measure 21
0103
0010
1000
0100
0010
0001
0100
0002
,  // measure 22
0000
0000
0000
0000
1003
0010
0100
0200
,  // measure 23
0000
0000
0000
0000
0000
0300
1000
0020
,  // measure 24
0000
0000
0000
0000
,  // measure 25
1030
0001
0100
0010
1000
0100
1000
0020
,  // measure 26
0000
0000
0000
0000
1030
0100
0010
0002
,  // measure 27
0000
0000
0000
0000
0000
0000
1003
0020
,  // measure 28
0000
0000
0000
0000
1000
0000
0100
0030
,  // measure 29
1001
0000
1000
0000
0110
0000
0000
0000
1000
0010
1000
0001
1000
0001
1000
0010
,  // measure 30
1000
0001
1000
0000
0010
1000
0010
0100
,  // measure 31
0001
0001
0011
0100
0100
1100
0010
0010
,  // measure 32
0011
0100
0100
1100
0000
0000
0011
0110
,  // measure 33
0001
0001
0011
0100
0100
1100
0010
0010
,  // measure 34
0011
0100
0100
1100
0000
0000
0011
0110
,  // measure 35
1001
0000
0001
0000
0110
0000
0000
0000
0001
0100
0001
1000
0001
1000
0001
0100
,  // measure 36
0001
1000
0001
0000
0100
0001
0100
0010
,  // measure 37
0110
0000
0010
0000
1001
0000
0000
0000
0010
0001
0010
0100
0010
0100
0010
0001
,  // measure 38
0010
0100
0010
0000
0001
0010
0001
1000
,  // measure 39
0001
0010
0001
0100
0010
1000
0100
2000
,  // measure 40
0000
0000
0000
0000
3001
0100
0010
0200
,  // measure 41
0000
0000
0000
0000
0000
0300
1001
0220
,  // measure 42
0000
0000
0000
0000
0000
0000
0000
0330
,  // measure 43
0001
0010
0001
0100
0010
1000
0100
2000
,  // measure 44
0000
0000
0000
3000
0010
0100
0001
0020
,  // measure 45
0000
0000
0000
0000
0000
0030
0100
2000
,  // measure 46
0000
0000
0001
0001
,  // measure 47
3010
0100
0001
0010
0100
1000
0010
2000
,  // measure 48
0000
0000
0000
0000
3001
0100
0010
0020
,  // measure 49
0000
0000
0000
0000
0000
0030
0001
0200
,  // measure 50
0000
0000
0000
0000
,  // measure 51
0301
1000
0010
0100
0001
0010
0001
0200
,  // measure 52
0000
0000
0000
0000
0301
0010
0100
2000
,  // measure 53
0000
0000
0000
0000
0000
0000
3001
0200
,  // measure 54
0000
0000
0000
0000
0001
0000
0010
0300
,  // measure 55
1001
0100
0010
0100
1000
0010
0100
0002
,  // measure 56
0000
0000
0000
0000
1003
0001
1000
0002
,  // measure 57
0000
0000
0000
0000
0000
0000
1003
0020
,  // measure 58
0000
0000
0000
0000
0000
0000
0000
0030
,  // measure 59
1001
0010
0100
0010
0001
0100
0010
2000
,  // measure 60
0000
0000
0000
3000
0101
0000
1001
0000
;
