#TITLE:MaxX Resurrexxion;
#SUBTITLE:;
#ARTIST:DM Ashura;
#TITLETRANSLIT:;
#SUBTITLETRANSLIT:;
#ARTISTTRANSLIT:;
#CREDIT:;
#BANNER:maxxresurexxion.png;
#BACKGROUND:maxxresurexxion-bg.png;
#LYRICSPATH:;
#CDTITLE:kyka06.png;
#MUSIC:Maxx_Resurrexxion.mp3;
#OFFSET:-0.020;
#SAMPLESTART:38.720;
#SAMPLELENGTH:12.500;
#SELECTABLE:YES;
#BPMS:0.000=150.000,16.000=300.000,176.000=75.000,192.000=150.000,225.000=125.000,225.250=115.000,225.500=105.000,225.750=95.000,226.000=85.000,226.250=75.000,226.500=65.000,226.750=55.000,227.000=45.000,227.250=35.000,227.500=300.000,420.000=150.000;
#STOPS:227.500=0.520
;
#BGCHANGES:16.000=warpspace.avi=1.000=0=0=1,
48.000=Spikes1.avi=0.820=0=0=1,
112.000=linesin.avi=1.000=0=0=1,
144.000=greenvortex.avi=1.000=0=0=1,
176.000=fireworks1.avi=1.000=0=0=1,
192.000=swirl.avi=1.000=0=0=1,
208.000=Spikes2.avi=1.000=0=0=1,
224.000=maxxresurexxion-bg.png=0.500=0=0=1,
228.000=Stairs1-fast.avi=1.000=0=0=1,
292.000=Fire1.avi=1.000=0=0=1,
356.000=Spikes1.avi=0.820=0=0=1,
388.000=Spikes2.avi=1.000=0=0=1,
420.000=fireworks1.avi=1.000=0=0=1,
428.000=maxxresurexxion-bg.png=1.000=0=0=1,
99999=-nosongbg-=1.000=0=0=0 // don't automatically add -songbackground-
;

//---------------dance-single - ----------------
#NOTES:
     dance-single:
     :
     Beginner:
     1:
     0.123,0.233,0.061,0.009,0.000: // measure 1
0000
0000
0000
0000
,  // measure 2
0000
0000
0000
0000
,  // measure 3
0000
0000
0000
0000
,  // measure 4
0000
0000
0000
0000
,  // measure 5
1000
0000
0000
0000
,  // measure 6
0001
0000
0000
0000
,  // measure 7
0010
0000
0000
0000
,  // measure 8
0100
0000
0000
0000
,  // measure 9
0010
0000
0000
0000
,  // measure 10
0001
0000
0000
0000
,  // measure 11
1000
0000
0000
0000
,  // measure 12
0001
0000
0000
0000
,  // measure 13
1000
0000
0000
0000
,  // measure 14
0001
0000
0000
0000
,  // measure 15
1000
0000
0000
0000
,  // measure 16
0110
0000
0000
0000
,  // measure 17
1000
0000
0000
0000
,  // measure 18
0001
0000
0000
0000
,  // measure 19
1000
0000
0000
0000
,  // measure 20
1100
0000
0000
0000
,  // measure 21
0001
0000
0000
0000
,  // measure 22
0100
0000
0000
0000
,  // measure 23
0010
0000
0000
0000
,  // measure 24
1100
0000
0000
0000
,  // measure 25
0001
0000
0000
0000
,  // measure 26
1000
0000
0000
0000
,  // measure 27
0100
0000
0000
0000
,  // measure 28
0101
0000
0000
0000
,  // measure 29
0001
0000
0000
0000
,  // measure 30
0000
0000
0000
0000
,  // measure 31
0000
0000
0000
0000
,  // measure 32
0000
0000
0000
0000
,  // measure 33
1000
0000
0000
0000
,  // measure 34
0000
0000
0000
0000
,  // measure 35
0001
0000
0000
0000
,  // measure 36
0000
0000
0000
0000
,  // measure 37
1000
0000
0000
0000
,  // measure 38
0001
0000
0000
0000
,  // measure 39
0100
0000
0000
0000
,  // measure 40
0010
0000
0000
0000
,  // measure 41
1000
0000
0000
0000
,  // measure 42
0100
0000
0000
0000
,  // measure 43
0010
0000
0000
0000
,  // measure 44
0001
0000
0000
0000
,  // measure 45
1000
0000
0001
0000
,  // measure 46
1000
0000
0010
0000
,  // measure 47
0100
0000
0001
0000
,  // measure 48
1000
0000
0010
0000
,  // measure 49
1000
0000
0000
0000
,  // measure 50
0001
0000
0000
0000
,  // measure 51
1000
0000
0000
0000
,  // measure 52
0010
0000
0000
0000
,  // measure 53
1000
0000
0000
0000
,  // measure 54
0001
0000
0000
0000
,  // measure 55
0100
0000
0000
0000
,  // measure 56
0010
0000
0000
0000
,  // measure 57
2000
0000
0000
0000
0000
0000
0000
3000
,  // measure 58
0001
0000
0000
0000
,  // measure 59
0000
0000
0000
0000
,  // measure 60
1000
0000
0000
0000
,  // measure 61
0000
0000
0001
0000
,  // measure 62
1000
0000
0000
0000
,  // measure 63
0000
0000
0000
0000
,  // measure 64
0001
0000
0000
0000
,  // measure 65
0000
0000
1000
0000
,  // measure 66
0001
0000
0000
0000
,  // measure 67
0000
0000
0000
0000
,  // measure 68
1000
0000
0000
0000
,  // measure 69
0000
0000
0010
0000
,  // measure 70
1000
0000
0000
0000
,  // measure 71
0000
0000
0000
0000
,  // measure 72
0001
0000
0000
0000
,  // measure 73
0000
0000
1000
0000
,  // measure 74
0010
0000
0000
0000
,  // measure 75
0000
0000
0000
0000
,  // measure 76
1000
0000
0000
0000
,  // measure 77
0000
0000
0000
0000
,  // measure 78
0001
0000
0000
0000
,  // measure 79
0000
0000
0000
0000
,  // measure 80
0100
0000
0000
0000
,  // measure 81
0000
0000
0000
0000
,  // measure 82
0001
0000
0000
0000
,  // measure 83
0000
0000
0000
0000
,  // measure 84
1000
0000
0000
0000
,  // measure 85
0000
0000
0000
0000
,  // measure 86
0100
0000
0000
0000
,  // measure 87
0000
0000
0000
0000
,  // measure 88
0010
0000
0000
0000
,  // measure 89
0000
0000
0000
0000
,  // measure 90
0001
0000
0000
0000
,  // measure 91
1000
0000
0000
0000
,  // measure 92
0010
0000
0000
0000
,  // measure 93
1100
0000
0000
0000
,  // measure 94
0001
0000
0000
0000
,  // measure 95
1000
0000
0000
0000
,  // measure 96
0100
0000
0000
0000
,  // measure 97
0110
0000
0000
0000
,  // measure 98
1000
0000
0000
0000
,  // measure 99
0001
0000
0000
0000
,  // measure 100
0100
0000
0000
0000
,  // measure 101
0010
0000
0000
0000
,  // measure 102
1000
0000
0000
0000
,  // measure 103
0001
0000
0000
0000
,  // measure 104
1000
0000
0000
0000
,  // measure 105
0001
0000
0000
0000
,  // measure 106
0000
1000
0000
0000
0000
0000
0000
0000
,  // measure 107
0000
0001
0000
0000
0000
0000
0000
0000
,  // measure 108
0110
0000
0000
0000
;

//---------------dance-single - ----------------
#NOTES:
     dance-single:
     :
     Easy:
     4:
     0.311,0.466,0.087,0.218,0.000: // measure 1
0000
0000
0000
0000
,  // measure 2
0000
0000
0000
0000
,  // measure 3
0000
0000
0000
0000
,  // measure 4
0000
0000
0000
0000
,  // measure 5
1000
0000
0010
0000
,  // measure 6
0100
0000
0001
0000
,  // measure 7
1000
0000
0001
0000
,  // measure 8
1000
0100
1000
0000
,  // measure 9
0010
0000
1000
0000
,  // measure 10
0001
0000
1000
0000
,  // measure 11
0001
0000
1000
0000
,  // measure 12
2000
0000
3002
0000
,  // measure 13
1003
1000
0000
0000
,  // measure 14
0001
1000
0000
0000
,  // measure 15
0010
0100
0000
0000
,  // measure 16
0002
0000
2003
0000
,  // measure 17
3010
0010
0000
0000
,  // measure 18
1000
0001
0000
0000
,  // measure 19
0100
0001
0000
0000
,  // measure 20
0002
0000
0023
0000
,  // measure 21
0130
0100
0000
0000
,  // measure 22
1000
0001
0000
0000
,  // measure 23
0001
0010
0000
0000
,  // measure 24
0200
0000
0320
0000
,  // measure 25
0130
0100
0000
0000
,  // measure 26
1000
0001
0000
0000
,  // measure 27
0010
0100
0000
0000
,  // measure 28
2000
0000
3002
0000
,  // measure 29
2003
0000
0000
3000
0000
0000
0000
0000
,  // measure 30
0001
0000
0010
0000
,  // measure 31
0100
0000
0010
0000
,  // measure 32
0001
0000
1000
0001
,  // measure 33
2000
0000
0000
3000
0000
0000
0000
0000
,  // measure 34
0001
0000
0100
0000
,  // measure 35
0002
0000
0000
0003
0000
0000
0000
0000
,  // measure 36
0000
0000
0000
1000
,  // measure 37
0001
0000
0010
0000
,  // measure 38
0100
0000
0010
0000
,  // measure 39
0001
0000
1000
0000
,  // measure 40
0010
0000
1000
0000
,  // measure 41
0001
0000
0100
0000
,  // measure 42
0001
0000
1000
0000
,  // measure 43
0010
0000
1000
0000
,  // measure 44
0001
0000
0010
0000
,  // measure 45
1001
0000
0001
1000
,  // measure 46
1001
0000
0010
0100
,  // measure 47
0110
0000
1000
0001
,  // measure 48
1001
0000
0001
0100
,  // measure 49
0101
0100
0001
0000
,  // measure 50
1001
0100
1000
0000
,  // measure 51
0011
0100
0001
0000
,  // measure 52
1010
0100
0001
0000
,  // measure 53
0001
0010
0100
1000
,  // measure 54
0010
1000
0001
0010
,  // measure 55
0100
1000
0010
0100
,  // measure 56
0001
1000
0010
1000
,  // measure 57
2002
0000
0000
0000
0000
0000
0000
3003
,  // measure 58
1000
0000
0010
0000
,  // measure 59
1000
0000
0001
0000
,  // measure 60
1000
0000
1000
0001
,  // measure 61
0000
0001
1000
0000
,  // measure 62
0001
0000
0100
0000
,  // measure 63
0010
0000
1000
0000
,  // measure 64
0100
0000
1000
0010
,  // measure 65
0000
0010
1000
0000
,  // measure 66
0001
0000
0100
0000
,  // measure 67
0010
0000
0100
0000
,  // measure 68
0001
0000
1000
0100
,  // measure 69
0000
0010
0001
0000
,  // measure 70
1000
0000
0010
0000
,  // measure 71
1000
0000
0001
0000
,  // measure 72
0100
0000
0010
1000
,  // measure 73
0000
1000
0001
0000
,  // measure 74
2000
0000
0000
3000
0000
0000
0000
0000
,  // measure 75
0000
0000
0000
0001
,  // measure 76
0200
0000
0000
0300
0000
0000
0000
0000
,  // measure 77
0000
0000
0000
0010
,  // measure 78
0020
0000
0000
0030
0000
0000
0000
0000
,  // measure 79
0000
0000
0000
1000
,  // measure 80
0002
0000
0000
0003
0000
0000
0000
0000
,  // measure 81
0000
0000
0000
1000
,  // measure 82
0020
0000
0000
0030
0000
0000
0000
0000
,  // measure 83
0000
0000
0000
1000
,  // measure 84
0200
0000
0000
0300
0000
0000
0000
0000
,  // measure 85
0000
0000
0000
1000
,  // measure 86
0001
0000
0100
0000
,  // measure 87
0010
0000
1000
0000
,  // measure 88
0100
0000
0010
0000
,  // measure 89
0100
0000
1000
0000
,  // measure 90
0001
0001
0000
0000
,  // measure 91
1000
0100
0000
0000
,  // measure 92
0010
0001
0000
0000
,  // measure 93
0200
0000
0302
0000
,  // measure 94
1003
1000
0000
0000
,  // measure 95
0010
1000
0000
0000
,  // measure 96
1000
0100
0000
0000
,  // measure 97
0020
0000
0032
0000
,  // measure 98
1003
0000
0100
0000
,  // measure 99
0010
0000
0100
0000
,  // measure 100
1000
0000
0001
0000
,  // measure 101
0100
0000
0001
0000
,  // measure 102
1000
0000
0100
0000
,  // measure 103
0010
0000
0100
0000
,  // measure 104
1000
0000
0001
0000
,  // measure 105
0100
0000
0001
0000
,  // measure 106
1000
0001
0000
0000
0001
0000
0000
0001
,  // measure 107
0000
1000
0000
0000
1000
0000
0000
0001
,  // measure 108
1001
0000
0000
0000
;

//---------------dance-single - ----------------
#NOTES:
     dance-single:
     :
     Medium:
     7:
     0.440,0.746,0.148,0.096,0.017: // measure 1
0000
0000
0000
0000
,  // measure 2
0000
0000
0000
0000
,  // measure 3
0000
0000
0000
0000
,  // measure 4
0000
0000
0000
0000
,  // measure 5
1000
0100
0020
0000
,  // measure 6
0031
0100
0002
0000
,  // measure 7
1003
0100
2000
0000
,  // measure 8
3010
1000
0002
0000
,  // measure 9
1003
0100
1000
0010
,  // measure 10
0100
0001
1000
0001
,  // measure 11
1000
0001
1000
0001
,  // measure 12
2000
0000
3020
0000
,  // measure 13
1030
0100
0000
0010
,  // measure 14
0001
0100
0000
0010
,  // measure 15
1000
0100
0000
1000
,  // measure 16
0100
0010
0001
0100
,  // measure 17
0010
1000
0000
0001
,  // measure 18
0100
0010
0000
1000
,  // measure 19
0100
1000
0000
0001
,  // measure 20
0100
0001
0010
0100
,  // measure 21
0010
1000
0000
0001
,  // measure 22
0100
1000
0000
0001
,  // measure 23
0010
1000
0000
0010
,  // measure 24
1000
0001
0100
1000
,  // measure 25
0001
0010
0000
0100
,  // measure 26
1000
0001
0000
0010
,  // measure 27
1000
0010
0000
0100
,  // measure 28
1000
0100
0001
1000
,  // measure 29
0001
0000
0000
0001
0000
0000
0000
0000
,  // measure 30
0001
0010
0001
0000
,  // measure 31
0100
0010
0100
0000
,  // measure 32
0001
1000
0001
1000
,  // measure 33
0002
0000
0000
0103
0000
0000
0000
0000
,  // measure 34
0000
0000
0000
1000
,  // measure 35
0200
0000
0000
0310
0000
0000
0000
0000
,  // measure 36
0000
0000
0000
0001
,  // measure 37
1000
0001
0010
0001
,  // measure 38
0100
0010
0100
0001
,  // measure 39
0010
0100
1000
0010
,  // measure 40
1000
0001
0010
0001
,  // measure 41
0100
0010
0100
0001
,  // measure 42
0010
0100
1000
0001
,  // measure 43
0100
0001
1000
0010
,  // measure 44
1000
0001
0010
0001
,  // measure 45
0101
0000
0011
0110
,  // measure 46
1001
0000
1001
1010
,  // measure 47
1001
0001
0011
0110
,  // measure 48
1001
1000
0011
0110
,  // measure 49
1001
0000
0000
0011
0000
0000
0000
0000
,  // measure 50
1000
0000
0000
0100
0000
0000
0010
0000
,  // measure 51
0001
0000
0000
0110
0000
0000
0000
0000
,  // measure 52
1000
0000
0000
0001
0000
0000
0010
0000
,  // measure 53
0001
0010
0001
0000
1000
0010
1000
0000
,  // measure 54
0001
0100
0001
0000
0100
0010
0100
0000
,  // measure 55
0001
0010
0001
0000
1000
0010
1000
0000
,  // measure 56
0001
0010
0100
1000
0001
0100
0010
1000
,  // measure 57
0220
0000
0000
0000
0000
0000
0000
0330
,  // measure 58
1000
0100
1000
0000
,  // measure 59
0001
0100
0001
0000
,  // measure 60
1000
0010
1000
0000
,  // measure 61
0010
0100
0010
0000
,  // measure 62
1000
0100
1000
0000
,  // measure 63
0001
0100
0001
0000
,  // measure 64
0100
0010
0100
0000
,  // measure 65
0010
1000
0010
0000
,  // measure 66
1000
0010
0100
0000
,  // measure 67
0001
0100
0010
0000
,  // measure 68
1000
0100
0001
0000
,  // measure 69
0001
0100
1000
0000
,  // measure 70
0010
0100
0001
0000
,  // measure 71
1000
0001
0100
0000
,  // measure 72
0010
1000
0100
0000
,  // measure 73
0010
0001
1000
0000
,  // measure 74
1000
0000
0000
0001
0000
0000
0000
0000
,  // measure 75
0000
0000
0000
1000
,  // measure 76
0001
0000
0000
0001
0000
0000
0000
0000
,  // measure 77
0000
0000
0000
0100
,  // measure 78
0100
0000
0000
0010
0000
0000
0000
0000
,  // measure 79
0000
0000
0000
1000
,  // measure 80
0001
0000
0000
0001
0000
0000
0000
0000
,  // measure 81
0000
0000
0000
0100
,  // measure 82
0100
0000
0000
0001
0000
0000
0000
0000
,  // measure 83
0000
0000
0000
1000
,  // measure 84
0001
0000
0000
0100
0000
0000
0000
0000
,  // measure 85
0000
0000
0000
0001
,  // measure 86
1000
0000
0100
0000
,  // measure 87
0001
0000
0100
0000
,  // measure 88
1000
0000
0000
0001
0000
0000
1000
0000
,  // measure 89
0001
0000
0000
1000
0000
0000
0001
0000
,  // measure 90
0001
0010
0000
0100
,  // measure 91
1000
0010
0000
0100
,  // measure 92
0001
0010
0000
0001
,  // measure 93
0010
0100
1000
0010
,  // measure 94
0100
0001
0000
1000
,  // measure 95
0010
0100
0000
0001
,  // measure 96
0010
0001
0000
1000
,  // measure 97
0010
1000
0100
0010
,  // measure 98
0100
1000
0001
1000
,  // measure 99
0001
0100
0010
1000
,  // measure 100
0100
0010
0001
1000
,  // measure 101
0001
0100
0001
1000
,  // measure 102
0100
0010
0100
1000
,  // measure 103
0010
0100
0001
1000
,  // measure 104
0100
0010
0001
1000
,  // measure 105
0010
0100
0001
1000
,  // measure 106
0001
0000
1000
0000
0000
0001
0000
0000
1000
0000
0000
0001
0000
0000
2000
0000
,  // measure 107
0000
0000
3010
0000
0000
0100
0000
0000
0010
0000
0000
0100
0000
0000
0010
0000
,  // measure 108
1100
0000
0000
0000
;

//---------------dance-single - ----------------
#NOTES:
     dance-single:
     :
     Hard:
     9:
     0.597,0.946,0.453,0.078,0.078:
0000
0000
0000
0000
,
0000
0000
0000
0000
,
0000
0000
0000
0000
,
0000
0000
0000
0000
,
1000
0000
0100
0000
1000
0010
0000
1000
,
0010
0000
0100
0000
0010
1000
0000
0010
,
1000
0000
0001
0000
0100
0010
0000
0100
,
0010
1000
0100
0000
,
1000
0100
1000
0100
,
0010
0001
0010
0001
,
1000
0010
0100
0001
,
1000
0100
0010
0001
1000
0100
0010
0001
,
1000
0000
0001
0000
0000
1000
0000
0100
,
1000
0000
0010
0000
0000
0100
0000
0010
,
0100
0000
0001
0000
0000
1000
0000
0010
,
1000
0100
0010
0001
,
1000
0000
0100
0000
0000
0010
0000
0001
,
0010
0000
0001
0000
0000
0100
0000
0010
,
1000
0000
0100
0000
0000
1000
0000
0001
,
0100
0001
0100
0001
,
1000
0000
0001
0000
0000
0100
0000
0010
,
1000
0000
0100
0000
0000
0001
0000
0100
,
1000
0000
0010
0000
0000
0100
0000
1000
,
0100
1000
0100
0001
,
0010
0000
0001
0000
0000
1000
0000
0100
,
1000
0000
0010
0000
0000
0100
0000
0001
,
1000
0000
0001
0000
0000
0100
0000
0001
,
1000
0100
1000
0010
,
1010
0000
0000
1010
0000
0000
0000
0000
,
1000
0010
1000
0010
,
0100
0001
0100
0001
,
1000
0010
0100
0101
,
0101
0000
0000
0101
0000
0000
0000
0000
,
0000
0000
0000
0110
,
1001
0000
0000
0110
0000
0000
0000
0000
,
1000
0100
0010
0001
,
1000
0100
0010
0001
,
1000
0100
1000
0100
,
0010
0001
0010
0001
,
1000
0010
1000
0010
,
0100
0001
0100
0001
,
1000
0010
0100
0001
,
1000
0100
1000
0100
0010
0001
0010
0001
,
0100
0010
0100
0010
1000
0001
1000
0001
,
2000
0000
0000
0000
0000
0000
0000
0000
3001
0000
0000
0001
0000
0000
0001
0000
,
0200
0000
0000
0000
0000
0000
0000
0000
0310
0000
0000
0010
0000
0000
0010
0000
,
2000
0000
0000
0000
0001
0000
0000
0000
3001
0000
0000
0100
0000
0000
0010
0000
,
1001
0000
0100
0000
0010
0000
1000
0000
1100
0000
0000
0101
0000
0000
1001
0000
,
1001
0000
0000
1000
0000
0000
1000
0000
0000
0000
0000
0000
0000
0000
0000
0000
,
0001
0000
0000
0010
0000
0000
0100
0000
0000
1000
0000
0000
0002
0000
0000
0000
,
0103
0000
0000
0010
0000
0000
0100
0000
0000
0000
0000
0000
0000
0000
0000
0000
,
0010
0000
0000
1000
0000
0000
0001
0000
0000
0100
0000
0000
0002
0000
0000
0000
,
1003
0100
1000
0100
0010
0001
0010
0001
,
1000
0001
1000
0001
1000
0100
1000
0100
,
1000
0010
1000
0010
0100
0001
0100
0001
,
1000
0000
1000
0100
0000
0100
1000
0000
0001
0000
0100
0001
0000
0001
0100
0000
,
0220
0000
0000
0000
0000
0000
0000
0000
0000
0000
0000
0000
0000
0000
0000
0330
,
1100
0001
0100
0010
,
1000
0010
0100
0001
,
1100
0010
0100
1001
,
1000
0010
1100
0100
,
1100
0001
0100
0010
,
1000
0100
0010
0001
,
1010
0100
0001
1010
,
0100
0001
1010
0010
,
1001
0001
0100
0010
,
1000
0100
0010
0001
,
0101
0001
1000
1100
,
0010
0100
1001
0100
,
1100
0010
0100
0001
,
0010
0001
0100
0010
,
1100
0010
0100
0101
,
0001
1000
1100
0010
,
1001
0000
0000
1100
0000
0000
0000
0000
,
0000
0000
0000
0101
,
1001
0000
0000
1100
0000
0000
0000
0000
,
0000
0000
0000
1100
,
1001
0000
0000
0101
0000
0000
0000
0000
,
0000
0000
0000
1100
,
0101
0000
0000
1001
0000
0000
0000
0000
,
0000
0000
0000
1001
,
0101
0000
0000
1001
0000
0000
0000
0000
,
0000
0000
0000
0101
,
0101
0000
0000
1001
0000
0000
0000
0000
,
0000
0000
0000
0101
,
1001
0100
0010
1000
,
0001
0000
1000
0000
0010
0000
1000
0001
,
1000
0000
0000
1010
0000
0000
0100
0000
,
0001
0000
0000
1100
0000
0000
0001
0000
,
1000
0000
0001
0000
0000
1000
0000
0100
,
1000
0000
0010
0000
0000
0100
0000
0010
,
0100
0000
0001
0000
0000
1000
0000
0010
,
1000
0100
0010
0001
,
1000
0000
0100
0000
0000
0010
0000
0001
,
0010
0000
0001
0000
0000
0100
0000
0010
,
1000
0000
0100
0000
0000
1000
0000
0001
,
0100
0001
0100
0001
,
1000
0100
0010
0100
,
1000
0001
0100
0001
,
1000
0100
0010
0001
,
1000
0010
0100
0001
,
1000
0010
0100
0001
,
1000
0100
0010
0100
,
1000
0100
0010
0001
1000
0010
0100
0001
,
1000
0100
0010
0001
1000
0010
0100
0001
,
1000
0000
1000
0000
0000
1000
0000
0000
1000
0000
0000
1000
0000
0000
1000
0000
,
0100
0000
0001
0000
0000
0001
0000
0000
0001
0000
0000
0001
0000
0000
0001
0000
,
0220
0000
0000
0000
,
0000
0000
0330
0000
;

//---------------dance-single - ----------------
#NOTES:
     dance-single:
     :
     Challenge:
     10:
     0.675,1.000,0.575,0.096,0.105:
0000
0000
0000
0000
,
0000
0000
0000
0000
,
0000
0000
0000
0000
,
0000
0000
0000
0000
,
1000
0000
0100
0000
0010
0001
0000
0010
,
0001
0000
0100
0000
0010
1000
0000
0010
,
1000
0000
0100
0000
0010
0100
0000
0010
,
0100
1000
1100
0000
,
0001
0010
0100
1000
,
0001
0100
0010
1000
,
0100
1000
0100
0000
1000
0100
1000
0000
,
0001
0010
0100
1000
0001
0100
0010
1000
,
0001
0000
1000
0000
0000
0010
0000
0010
,
1000
0000
0100
0000
0000
0010
0000
0010
,
0001
0000
0100
0000
0000
0010
0000
0010
,
1000
1100
0010
0101
,
0010
0000
0001
0000
0000
1000
0000
1000
,
0010
0000
0100
0000
0000
0001
0000
0001
,
1000
0000
0010
0000
0000
0100
0000
0100
,
0010
0110
0001
1001
,
1000
0000
0001
0000
0000
0100
0000
0010
,
0100
0000
0001
0000
0000
1000
0000
0010
,
0100
0000
0001
0000
0000
1000
0000
0100
,
1000
0101
0001
1001
,
1000
0000
1000
0000
0000
0010
0000
0100
,
0001
0000
0001
0000
0000
1000
0000
0010
,
1000
0000
1000
0000
0000
0010
0000
1000
,
0001
0110
1000
0110
,
1010
0000
0000
1010
0000
0000
0000
0000
,
0001
0100
0010
1000
,
0100
1000
0010
0100
,
0001
0100
0010
1100
,
1100
0000
0000
0101
0000
0000
0000
0000
,
1000
0010
1000
0101
,
0101
0000
0000
1001
0000
0000
0000
0000
,
1000
0100
0010
0001
,
0001
0010
0100
1000
,
0001
0001
1000
1000
,
0010
0100
1000
0001
,
0001
0100
1000
0010
,
1000
0100
0010
0001
,
0001
0010
0100
1000
,
1000
0100
1000
0010
0100
0001
0100
0001
,
0010
0001
0100
0010
1000
0100
0010
0001
,
0020
0000
0000
0000
0030
0000
0000
0000
0110
0000
0000
1100
0000
0000
0101
0000
,
1002
0000
0000
0000
0003
0000
0000
0000
1010
0000
0000
0110
0000
0000
1001
0000
,
0102
0000
0000
0003
0101
0000
0000
0000
1010
0000
0000
0110
0000
0000
1001
0000
,
0102
0000
1000
0000
0100
0000
0010
0000
2003
0000
3010
0200
0000
0301
2000
0000
,
3001
0000
0000
0001
0000
0000
0001
0000
0000
0000
0000
0000
0000
0000
0000
0000
,
0100
0000
0000
0100
0000
0000
0100
0000
0000
0100
0000
0000
0001
1000
0000
0000
,
0010
0000
0000
0010
0000
0000
0010
0000
0000
0000
0000
0000
0000
0000
0000
0000
,
0100
0000
0000
0100
0000
0000
0100
0000
0000
0100
0000
0000
1001
0000
0000
0000
,
0001
0010
0100
1000
0001
0010
0100
1000
,
1000
0100
0010
0001
1000
0100
0010
0001
,
1000
0010
0100
0001
0010
0001
0100
0010
,
1000
0100
1000
0100
1000
0010
1000
0010
0100
0010
0100
0010
0100
0001
0100
0001
,
2002
0000
0000
0000
0000
0000
0000
0000
0000
0000
0000
0000
0000
0000
0000
3003
,
1000
0000
0010
0000
1000
0100
0000
1000
,
0100
0010
0100
0000
,
1000
0000
0001
0000
0010
0001
0000
0010
,
0001
1000
0100
0000
,
1000
0000
0010
0000
0100
0001
0000
0100
,
0001
0000
0100
0000
0010
1000
0000
0010
,
1000
0000
0100
0000
0010
0100
0000
0010
,
0100
1000
0010
0000
,
0001
0000
0100
0000
0001
0010
0000
0001
,
0010
0100
0010
0000
,
0001
0000
1000
0000
0100
1000
0000
0100
,
1000
0001
0010
0000
,
0001
0000
0100
0000
0010
1000
0000
0010
,
1000
0000
0010
0000
0100
0001
0000
0100
,
0001
0000
0010
0000
0100
0010
0000
0100
,
0010
0001
0100
0000
,
1100
0000
0000
0101
0000
0000
0000
0000
,
1000
0010
1000
0101
,
0101
0000
0000
1001
0000
0000
0000
0000
,
1000
0010
1000
0101
,
1010
0000
0000
1100
0000
0000
0000
0000
,
0010
0001
0010
1100
,
1100
0000
0000
0110
0000
0000
0000
0000
,
0010
1000
0001
0101
,
0110
0000
0000
1010
0000
0000
0000
0000
,
0100
0001
0100
1010
,
1010
0000
0000
1100
0000
0000
0000
0000
,
0100
0001
0100
1010
,
0101
0010
1000
0001
,
1000
0000
0100
0000
0010
0000
0100
1000
,
0010
0000
0100
0001
0000
0001
1000
0000
,
0001
0000
0100
0010
0000
0010
0100
0000
,
0001
0000
1000
0000
0000
0010
0000
0010
,
1000
0000
0100
0000
0000
0010
0000
0010
,
0001
0000
0100
0000
0000
0010
0000
0010
,
1000
1100
0010
0101
,
0010
0000
0001
0000
0000
1000
0000
1000
,
0010
0000
0100
0000
0000
0001
0000
0001
,
1000
0000
0010
0000
0000
0100
0000
0100
,
0010
0110
0001
1001
,
1000
0100
0010
0001
,
1000
0010
0100
0001
,
1000
0100
1000
0010
,
0100
0001
0100
0010
,
1000
0100
1000
0010
0100
0010
1000
0100
,
1000
0010
0100
0010
0100
0001
0010
0001
,
0100
0010
0100
0010
1000
0001
0010
0001
,
1000
0010
0001
0010
1000
0100
0001
0100
,
1000
0000
1010
0000
0000
0110
0000
0000
1001
0000
0000
0101
0000
0000
1001
0000
,
0000
0000
1100
0000
0000
0110
0000
0000
1001
0000
0000
0101
0000
0000
1001
0000
,
0220
0000
0000
0000
,
0000
0000
0330
0000
;
