#TITLE:MEGAMAX;
#SUBTITLE:;
#ARTIST:OMEGA vs 2MB vs Z;
#TITLETRANSLIT:;
#SUBTITLETRANSLIT:;
#ARTISTTRANSLIT:;
#CREDIT:;
#BANNER:MEGAMAX.png;
#BACKGROUND:MEGAMAX-bg.png;
#LYRICSPATH:;
#CDTITLE:kykaCD.png;
#MUSIC:MEGAMAX.mp3;
#OFFSET:-6.120;
#SAMPLESTART:105.960;
#SAMPLELENGTH:15.000;
#SELECTABLE:YES;
#BPMS:0.000=300.000,32.000=325.000,64.000=300.000,96.000=150.000,96.500=160.000,97.000=170.000,97.500=180.000,98.000=190.000,98.500=200.000,99.000=210.000,99.500=220.000,100.000=230.000,100.500=240.000,101.000=250.000,101.500=260.000,102.000=270.000,102.500=280.000,103.000=290.000,103.500=295.001,104.000=300.000,216.000=360.000,220.000=298.500,288.000=302.000,350.500=246.601,351.000=196.561,351.500=162.120,352.000=164.360,352.500=135.340,353.000=119.040,353.500=97.840,354.000=77.541,354.500=56.241,355.000=300.000,420.000=75.000,420.500=150.000,436.000=290.000,444.000=225.001,445.000=150.000,446.000=75.000,447.000=150.001,448.000=599.996;
#STOPS:96.000=1.560
,355.000=0.520
,447.000=2.200
;
#BGCHANGES:;

//---------------dance-single - ----------------
#NOTES:
     dance-single:
     :
     Beginner:
     2:
     0.132,0.236,0.016,0.023,0.000:
1000
0000
0000
0000
,
0001
0000
0000
0000
,
0100
0000
0000
0000
,
0010
0000
0000
0000
,
1000
0000
0000
0000
,
0010
0000
0000
0000
,
0100
0000
0000
0000
,
0001
0000
0000
0000
,
1001
0000
0000
0000
,
0000
0000
0000
0000
,
0000
0000
0000
0000
,
0000
0000
0000
0000
,
0000
0000
0000
0000
,
0000
0000
0000
0000
,
0000
0000
0000
0000
,
0000
0000
0000
0000
,
1000
0000
0000
0000
,
0010
0000
0000
0000
,
0100
0000
0000
0000
,
0001
0000
0000
0000
,
1000
0000
0000
0000
,
0001
0000
0000
0000
,
0100
0000
0000
0000
,
0010
0000
0000
0000
,
0200
0000
0000
0000
,
0000
0000
0000
0000
,
0310
0000
0000
0000
,
1000
0000
0000
0000
,
0001
0000
0000
0000
,
0100
0000
0000
0000
,
0001
0000
0000
0000
,
0010
0000
0000
0000
,
0001
0000
0000
0000
,
1000
0000
0000
0000
,
0100
0000
0000
0000
,
1000
0000
0000
0000
,
0010
0000
0000
0000
,
0100
0000
0000
0000
,
0001
0000
0000
0000
,
1000
0000
0000
0000
,
0001
0000
0000
0000
,
0100
0000
0000
0000
,
0010
0000
0000
0000
,
0000
0000
0000
0000
,
0100
0000
0000
0000
,
0000
0000
0000
0000
,
0010
0000
0000
0000
,
0000
0000
0000
0000
,
0000
0100
0000
0000
0000
0000
0000
0000
,
0000
0000
0000
0000
,
0000
0001
0000
0000
0000
0000
0000
0000
,
0000
0000
0000
0000
,
0000
1000
0000
0000
0000
0000
0000
0000
,
0000
0000
0000
0000
,
0001
0000
0000
0000
,
1000
0000
0000
0000
,
0000
0000
0000
0000
,
0001
0000
0000
0000
,
0000
0000
0000
0000
,
0000
0100
0000
0000
,
0000
0000
0000
0000
,
0000
0000
0000
0001
0000
0000
0000
0000
,
0000
0000
0000
0000
,
0000
0000
1000
0000
,
0000
0000
0000
0000
,
0000
0000
0010
0000
,
0000
0000
0000
0000
,
0000
0000
0000
1000
,
0000
0000
0000
0000
,
0000
0000
0000
0000
0000
0000
0000
0010
,
0000
0000
0000
0000
0000
1000
0000
0000
,
0000
0000
0010
0000
,
0100
0000
0000
0000
,
0010
0000
0000
0000
,
1000
0000
0000
0000
,
0001
0000
0000
0000
,
0100
0000
0000
0000
,
0001
0000
0000
0000
,
0010
0000
0000
0000
,
0001
0000
0000
0000
,
0100
0000
0000
0000
,
0010
0000
0000
0000
,
1000
0000
0000
0000
,
0100
0000
0000
0000
,
1000
0000
0000
0000
,
0010
0000
0000
0000
,
0100
0000
0100
0000
,
0100
0000
0200
0000
,
0000
0000
0000
0300
,
0001
0000
0000
0000
,
1000
0000
0000
0000
,
0001
0000
0000
0000
,
0100
0000
0000
0000
,
0001
0000
0000
0000
,
0010
0000
0000
0000
,
0001
0000
0000
0000
,
0100
0000
0000
0000
,
0000
0010
0000
0000
,
0010
0000
0000
0010
,
0000
1000
0000
0000
,
1000
0000
0000
1000
,
0000
0001
0000
0000
,
0001
0000
0000
0001
,
0000
0100
0000
0000
,
0100
0000
0000
0100
,
0000
0010
0000
0000
0000
0000
0000
0010
,
0000
1000
0000
0000
0000
0000
0000
1000
,
0000
0001
0000
0000
0000
0000
0000
0001
,
0000
0100
0000
0000
0000
0000
0000
0000
,
0010
0000
0000
0000
,
0000
0000
0000
0000
,
0000
0000
0000
0000
,
1001
0000
0000
0000
,
1000
0000
0000
0000
,
0000
0000
0000
0000
,
0001
0000
0000
0000
,
0000
0000
0000
0010
,
0000
0000
0000
0000
,
0000
0000
0000
0001
,
0000
0000
0000
0000
,
0000
0000
0000
1000
,
0000
0000
0000
0000
,
0000
0000
0000
0010
,
0000
0000
0000
0000
,
0000
0000
0000
0100
,
0000
0000
0000
0000
,
0000
0000
0000
0001
,
0000
0000
0000
0000
,
0000
0000
0000
1000
,
0000
0000
0000
0000
,
0000
0000
0000
0100
,
0000
0000
0000
0000
,
0000
0000
0000
1000
,
0000
0000
0000
0000
,
0000
0000
0000
0010
,
0000
0000
0000
0000
,
0000
0000
0000
0100
,
0000
0000
0000
0000
,
0000
0000
0000
0001
,
0000
0000
0000
0000
,
0000
0000
0000
1000
,
0000
0000
0002
0000
,
0000
0000
0000
0000
,
0000
0000
0000
0000
,
0000
0000
0000
0000
,
0000
0000
0000
0000
,
0000
0000
0000
0000
,
0000
0000
0000
0000
,
0000
0000
0000
0000
,
0000
0000
0000
0000
,
0000
0000
0000
0000
,
0000
0000
0000
0000
,
0003
0000
0000
0000
;

//---------------dance-single - ----------------
#NOTES:
     dance-single:
     :
     Easy:
     5:
     0.343,0.707,0.233,0.287,0.000:
0100
0010
0100
0000
,
0001
1000
0001
0000
,
1000
0100
1000
0000
,
0001
0100
0001
0000
,
1000
0001
1000
0000
,
0010
0100
0010
0000
,
1000
0100
1000
0000
,
0001
0100
0001
0000
,
2002
0000
0000
0000
,
0000
0000
0000
0000
,
0000
0000
0000
0000
,
0000
0000
0000
3003
,
0100
0000
0000
0000
,
0010
0000
0000
0000
,
1000
0000
0000
0000
,
0100
0000
0000
0000
,
0010
0000
0001
0000
,
1000
0000
0010
0000
,
0100
0000
0001
0000
,
1000
0001
1000
0000
,
0010
1000
0010
0000
,
0100
0001
0100
0000
,
0001
0000
1000
0000
,
0001
1000
0001
1000
,
0020
0000
0000
0000
,
0000
0000
0000
0000
,
1030
0100
0000
0000
,
0010
0001
0000
0000
,
0100
0010
0000
0000
,
1000
0001
1000
0001
,
0100
0010
0000
0000
,
1000
0100
0000
0000
,
0010
0001
0000
0000
,
0100
0001
1000
0100
,
1000
0010
0000
0000
,
0100
0010
0000
0000
,
1000
0100
0000
0000
,
0010
0001
0100
0001
,
1000
0001
0000
0000
,
0100
0001
0000
0000
,
1000
0000
0000
1000
0000
0000
1000
0000
,
0001
0100
0001
1000
,
0001
0000
0000
0000
,
0000
0000
0000
0000
,
1000
0000
0000
0000
,
0000
0000
0000
0000
,
0010
0000
0000
0000
,
0000
0000
0000
0000
,
0000
0100
0000
0000
0000
0000
0000
0000
,
0000
0000
0000
0000
,
0000
0010
0000
0000
0000
0000
0000
0000
,
0000
0000
0000
0000
,
0000
0000
0000
0000
0000
0200
0000
0000
,
0000
0000
0000
0000
0000
0300
0000
0000
,
2002
0000
0000
3003
,
2002
0000
0000
0000
,
0000
0000
0000
0000
,
3003
0022
0000
0033
,
2020
0000
3030
2002
,
3003
0220
0000
0000
,
0000
0000
0000
0000
,
0330
0000
0000
2002
0000
0000
0000
3003
,
0000
0022
0000
0000
0000
0033
0000
2200
,
0000
0000
0000
3300
2020
0000
0000
0000
,
0000
0000
0000
0000
,
0000
3030
2002
0000
,
3003
0000
0202
0000
,
0303
2200
3300
2020
,
0000
0000
0000
0000
,
0000
0000
0000
0000
3030
0000
0000
0200
,
0000
0000
0000
0000
0000
2300
0000
0000
,
0000
0000
3001
0000
,
1001
1000
0010
0000
,
0100
0010
1000
0000
,
0001
0100
0010
0000
,
1000
0100
0010
0000
,
0001
0100
0010
0000
,
1000
0100
0010
0000
,
0001
0100
0001
0000
,
1000
0100
1000
0000
,
0010
0100
0010
0000
,
1000
0100
1000
0000
,
0001
0100
0001
0000
,
1000
0001
1000
0000
,
1001
0000
0000
0000
,
0110
0000
0000
0000
,
1000
0100
0010
0001
,
1000
0100
0020
0000
,
0000
0000
0000
0030
,
0001
1000
0000
0000
,
0010
0100
0000
0000
,
0001
1000
0000
0000
,
0100
1000
0100
0010
,
0001
0100
0000
0000
,
0001
1000
0000
0000
,
0001
0100
0000
0000
,
0010
1000
0100
1000
,
0000
0000
0010
0000
0000
0010
0000
0000
,
0100
0000
0000
0100
0000
0000
0010
0000
,
0000
0000
1000
0000
0000
1000
0000
0000
,
0001
0000
0000
0001
0000
0000
0100
0000
,
0000
0000
0010
0000
0000
1000
0000
0000
,
0100
0000
0000
1000
0000
0000
0010
0000
,
0000
0000
0100
0000
0000
0001
0000
0000
,
1000
0000
0000
0001
0000
0000
0100
0000
,
0000
1001
0000
0000
1001
0000
0000
1001
,
0000
0110
0000
0000
0110
0000
0000
0110
,
0000
1001
0000
0000
1001
0000
0000
1001
,
0000
0110
0000
0000
0110
0000
0000
0110
,
0000
0000
0000
0000
,
0000
0000
0000
0000
,
0000
0000
0000
0000
,
2000
0000
0000
0000
,
3001
0000
0000
0000
,
0001
0000
0000
0000
,
1000
0000
0000
0000
,
1000
0000
0000
0010
,
0000
0000
0000
0010
,
0000
0000
0000
1000
,
0000
0000
0000
1000
,
0000
0000
0000
0001
,
0000
0000
0000
0001
,
0000
0000
0000
0100
,
0000
0000
0000
0100
,
0000
0000
0000
0001
,
0000
0000
0000
0001
,
0000
0000
0000
1000
,
0000
0000
0000
1000
,
0000
0000
0000
0010
,
0000
0000
0000
0010
,
0000
0000
0000
0100
,
0000
0000
0000
0100
,
0000
0000
0000
0001
,
0000
0000
0000
1000
,
0000
0000
0000
0001
,
0000
0000
0000
0100
,
0000
0000
0000
0001
,
0000
0000
0000
0010
,
0000
0000
0000
0001
,
0000
0000
0000
0100
,
0000
0000
0000
0001
,
0000
0000
2000
0000
,
0000
0000
0000
0000
,
0000
0000
0000
0000
,
0000
0000
0000
0000
,
0000
0000
0000
0000
,
0000
0000
0000
0000
,
0000
0000
0000
0000
,
0000
0000
0000
0000
,
0000
0000
0000
0000
,
0000
0000
0000
0000
,
0000
0000
0000
0000
,
3000
0000
0000
0000
;

//---------------dance-single - ----------------
#NOTES:
     dance-single:
     :
     Medium:
     8:
     0.542,0.943,0.845,0.326,0.031:
1000
0000
0010
0000
1000
0000
0000
0001
,
0100
0000
0001
0000
0010
0000
0000
0001
,
1000
0000
0100
0000
1000
0000
0000
0010
,
0100
0010
1010
0000
,
1000
0000
0001
0000
0100
0000
0000
0001
,
1000
0000
0100
0000
0010
0000
0000
0001
,
1000
0000
0001
0000
0100
0000
0000
0010
,
1000
0100
0010
0000
,
2002
0000
0000
0000
,
0000
0000
0000
0000
,
0000
0000
0000
0000
,
0000
0000
0000
3003
,
2000
0000
0000
0000
,
3002
0000
0000
0000
,
0203
0000
0000
0000
,
0320
0000
0000
0000
,
1030
0000
0001
0000
0100
0000
0000
0010
,
0100
0000
0010
0000
1000
0000
0000
0001
,
0100
0000
0001
0000
0010
0000
0000
0001
,
1000
0001
0110
0000
,
0010
1000
0010
0100
,
0001
1000
0001
1000
,
0100
0100
1000
1000
,
0001
0010
0100
1000
0001
0010
0100
1000
,
0002
0000
0000
0000
,
0000
0000
0000
0000
,
1003
0000
0100
0000
0000
0010
0000
0000
,
0100
0000
1000
0000
0000
0001
0000
0000
,
0100
0000
0001
0000
0000
1000
0000
0000
,
0101
0101
1010
1010
,
1001
0000
1000
0000
0000
0001
0000
0000
,
0010
0000
0001
0000
0000
0100
0000
0000
,
0001
0000
1000
0000
0000
0100
0000
0000
,
1100
1100
0011
0011
,
0001
0000
1000
0000
0000
0100
0000
0000
,
0010
0000
0001
0000
0000
0100
0000
0000
,
0010
0000
1000
0000
0000
0001
0000
0000
,
0101
1010
0101
1010
,
1000
0000
0010
0000
0000
0100
0000
0000
,
1001
0000
0001
0000
0000
0100
0000
0000
,
0110
0000
0000
1001
0000
0000
0110
0000
,
1001
0110
1001
0110
,
1001
0000
1000
0000
,
0000
0000
0010
0000
,
0000
0000
0100
0000
,
0000
0000
0001
0000
,
0000
0000
1000
0000
,
0000
0000
0001
0000
,
0000
1001
0000
0000
0000
1000
0000
0000
,
0000
0000
0000
0000
0000
0001
0000
0000
,
0000
0000
0000
0000
0000
0100
0000
0000
,
0000
0000
0000
0000
0000
0001
0000
0000
,
0000
0000
0000
0000
0000
2000
0000
0000
,
0000
0000
0000
0000
0000
0000
0000
3000
,
1001
0000
1001
0000
,
2002
0000
0000
0000
,
0000
0000
0000
0000
,
3003
2200
0000
3300
,
0202
0000
0303
2002
,
3003
0220
0000
0000
,
0000
0000
0000
0000
,
0330
0000
0000
2002
0000
0000
0000
3003
,
0000
2200
0000
0000
0000
3300
0000
0022
,
0000
0000
0000
0033
0202
0000
0000
0000
,
0000
0000
0000
0000
,
0000
0303
2002
0000
,
3003
0000
2200
0000
,
3300
0022
0033
0101
,
0000
1000
1000
0000
,
0000
0000
0001
0000
0001
0000
0000
0020
,
0000
0000
0000
0000
0000
0032
0000
0000
,
1003
0010
1010
0000
,
1001
0000
0100
0000
0010
1000
0000
0010
,
0100
0000
0001
0000
1000
0001
0000
0100
,
0001
0000
1000
0000
0100
1000
0000
0010
,
1000
0010
1010
0000
,
0001
0000
0100
0000
0001
0010
0000
0001
,
0010
0000
0100
0000
0010
0001
0000
0010
,
0001
0000
0100
0000
0010
1000
0000
0010
,
1000
0100
1100
0000
,
0110
0000
0100
0000
0001
1000
0000
0001
,
1000
0000
0100
0000
1000
0010
0000
1000
,
0010
0000
0100
0000
0001
0010
0000
0001
,
0010
0001
0011
0000
,
1000
0000
0010
0000
0100
0010
0000
0100
,
0010
0000
0100
0000
0010
0100
0000
0010
,
0100
0100
0010
0010
,
1000
1000
2002
0000
,
0000
0000
0000
3003
,
0001
0000
0010
0000
0000
0100
0000
0000
,
0010
0000
0001
0000
0000
1000
0000
0000
,
0010
0000
1000
0000
0000
0001
0000
0000
,
1010
1010
0101
0101
,
1001
0000
0001
0000
0000
1000
0000
0000
,
0100
0000
1000
0000
0000
0010
0000
0000
,
1000
0000
0001
0000
0000
0010
0000
0000
,
0011
0011
1100
1100
,
1000
0000
0011
0000
0000
0011
0000
0000
,
1100
0000
0000
1100
0000
0000
0011
0000
,
0000
0000
0110
0000
0000
0110
0000
0000
,
1001
0000
0000
1001
0000
0000
0110
0000
,
0000
0000
0101
0000
0000
0101
0000
0000
,
1010
0000
0000
1010
0000
0000
1001
0000
,
1000
0001
0100
0001
,
1000
0100
1000
0100
0010
0001
0010
0001
,
0100
0000
0010
0000
0000
0010
0000
0000
0010
0000
0000
1000
0000
0000
0010
0000
,
0000
0000
0100
0000
0000
0100
0000
0000
0001
0000
0000
0100
0000
0000
0010
0000
,
0000
0000
1000
0000
0000
0001
0000
0000
0010
0000
0000
0001
0000
0000
0100
0000
,
0000
0000
1010
0000
0000
0110
0000
0000
1001
0000
0000
0101
0000
0000
1001
0000
,
2002
0000
0000
0000
,
0000
0000
0000
0000
,
0000
0000
0000
3003
,
2002
0000
0000
3003
,
1100
0000
0000
0101
,
0000
0000
0000
0000
,
1001
0000
0000
0110
,
0000
0000
0000
0110
,
0000
0000
1001
0000
,
0000
0000
0000
1100
,
0000
0000
0101
0000
,
0000
0000
0000
1100
,
0000
0000
0101
0000
,
0000
0000
0000
1001
,
0000
0000
0110
0000
,
0000
0000
0000
1100
,
0000
0000
0101
0000
,
0000
0000
0000
1001
,
0000
0000
0110
0000
,
0000
0000
0000
1100
,
0000
0000
0011
0000
,
0000
0000
0000
1100
,
0000
0000
0011
0000
,
0000
0000
0000
0101
,
0000
0000
0101
0000
,
0000
0000
0000
0011
,
0000
0000
1100
0000
,
0000
0000
0000
0101
,
0000
0000
1100
0000
,
0000
0000
0000
1001
,
0000
0000
0101
0000
,
0000
0000
0000
1100
,
0000
0000
2002
0000
,
0000
0000
0000
0000
,
0000
0000
0000
0000
,
0000
0000
0000
0000
,
0000
0000
0000
0000
,
0000
0000
0000
0000
,
0000
0000
0000
0000
,
0000
0000
0000
0000
,
0000
0000
0000
0000
,
0000
0000
0000
0000
,
0000
0000
0000
0000
,
3003
0000
0000
0000
;

//---------------dance-single - ----------------
#NOTES:
     dance-single:
     :
     Hard:
     11:
     0.716,0.943,0.721,0.233,0.062: // measure 1
1001
0000
1000
0000
0001
1000
0000
0010
,  // measure 2
0100
0000
0010
0000
1000
0100
0000
0010
,  // measure 3
0001
0000
0100
0000
0001
1000
0000
0010
,  // measure 4
1000
0010
0110
0000
,  // measure 5
1001
0000
1000
0000
0010
1000
0000
0010
,  // measure 6
0100
0000
0001
0000
0010
0001
0000
1000
,  // measure 7
0100
0000
0010
0000
0001
0100
0000
0010
,  // measure 8
1000
0001
0011
0000
,  // measure 9
1001
0100
0001
1000
,  // measure 10
0100
1000
0010
0100
,  // measure 11
0010
1000
0001
0100
,  // measure 12
0001
0010
0001
0100
,  // measure 13
0001
1000
0100
1000
,  // measure 14
0010
1000
0010
0100
,  // measure 15
0001
0100
0001
1000
,  // measure 16
0001
1000
0010
1000
,  // measure 17
1010
0000
1000
0000
0010
0100
0000
0010
,  // measure 18
0100
0000
0001
0000
1000
0100
0000
1000
,  // measure 19
0010
0000
0100
0000
0001
1000
0000
0010
,  // measure 20
1000
0010
0110
0000
,  // measure 21
1001
0000
0001
0100
0001
0100
0001
0100
,  // measure 22
0001
0000
1000
0100
1000
0100
1000
0100
,  // measure 23
1000
0010
0100
0000
0010
1000
0010
0000
,  // measure 24
0100
0001
0010
0001
0100
0001
1000
0100
,  // measure 25
2002
0000
0000
0000
,  // measure 26
0000
0000
0000
3003
,  // measure 27
0110
0000
1000
0000
0000
0001
0000
0001
,  // measure 28
0100
0000
0010
0000
0000
1000
0000
0010
,  // measure 29
0100
0000
0001
0000
0000
1000
0000
0010
,  // measure 30
0110
1001
1100
0110
,  // measure 31
1001
0000
0001
0000
0000
0100
0000
0001
,  // measure 32
1000
0000
0100
0000
0000
1000
0000
0001
,  // measure 33
0010
0000
0001
0000
0000
0100
0000
0010
,  // measure 34
1010
0110
1001
0011
,  // measure 35
0110
0000
0001
0000
0000
1000
0000
1000
,  // measure 36
0010
0000
0100
0000
0000
0001
0000
0100
,  // measure 37
0010
0000
1000
0000
0000
0001
0000
0100
,  // measure 38
0110
1001
0011
0110
,  // measure 39
1001
0000
1000
0000
0000
0010
0000
1000
,  // measure 40
1001
0000
0010
0000
0000
0001
0000
1000
,  // measure 41
1100
0000
0000
1010
0000
0000
0110
0000
,  // measure 42
0101
0110
1001
1100
,  // measure 43
1010
0000
1000
0000
,  // measure 44
0000
0000
1000
0000
,  // measure 45
0001
0000
0100
0000
,  // measure 46
0000
0000
0010
0000
,  // measure 47
1000
0000
0001
0000
,  // measure 48
0001
0000
0100
0000
,  // measure 49
0000
1001
0000
0000
0000
1000
0000
0000
,  // measure 50
0000
1000
0000
0000
0000
0001
0000
0000
,  // measure 51
0000
0100
0000
0000
0000
0001
0000
0000
,  // measure 52
0000
0001
0000
0000
0000
1000
0000
0000
,  // measure 53
0000
0100
0000
0000
0000
2000
0000
0000
,  // measure 54
0000
0000
0000
3000
,  // measure 55
1001
0000
1100
0000
,  // measure 56
1002
0000
0000
0000
,  // measure 57
0000
0000
0000
0003
,  // measure 58
1010
0000
0000
1001
0000
0000
0000
0000
,  // measure 59
2200
0000
0000
0000
0000
3300
0220
0000
,  // measure 60
0330
1002
0000
1000
,  // measure 61
1000
0000
0000
1003
,  // measure 62
0010
0000
1010
0000
0000
1010
0000
0000
,  // measure 63
0000
0000
0000
0000
0000
0000
0001
0000
0100
0000
0001
0000
,  // measure 64
1000
0000
0001
0000
1000
0000
2002
0000
0000
0000
0000
0000
,  // measure 65
0000
0000
0000
3003
,  // measure 66
1001
0000
0000
0110
0000
0000
2002
0000
,  // measure 67
0000
3003
2200
0000
,  // measure 68
3300
0022
0033
0002
,  // measure 69
0000
0100
0100
0000
,  // measure 70
0000
0000
0010
0000
0013
0000
0000
2000
,  // measure 71
0000
0000
0001
3001
,  // measure 72
0000
0010
0100
0010
0200
0000
0300
0000
,  // measure 73
1001
0000
0100
0010
1000
0100
0000
0010
,  // measure 74
0001
0000
0100
0010
1000
0100
0000
0010
,  // measure 75
0001
0000
0100
0001
1000
0001
0000
1000
,  // measure 76
0100
1000
0110
0000
,  // measure 77
0001
0000
1000
0100
0010
0001
0000
1000
,  // measure 78
0100
0000
1000
0010
0100
0001
0000
1000
,  // measure 79
0001
0000
0010
0001
0100
0001
0000
1000
,  // measure 80
0100
1000
1100
0000
,  // measure 81
1001
0000
0001
0100
0001
1000
0000
0100
,  // measure 82
1000
0000
0010
0100
0001
0010
0000
0001
,  // measure 83
1000
0000
0100
1000
0010
0100
0000
0001
,  // measure 84
1000
0001
0101
0000
,  // measure 85
1001
0000
0100
0010
0100
0010
0000
1000
,  // measure 86
0001
0000
0100
0001
1000
0001
0000
1000
,  // measure 87
1001
1000
1100
0100
,  // measure 88
0110
0010
2002
0000
,  // measure 89
0000
0000
0000
3003
,  // measure 90
1000
0000
0001
0000
0000
0100
0000
0001
,  // measure 91
0010
0000
0001
0000
0000
1000
0000
0100
,  // measure 92
1000
0000
0010
0000
0000
0100
0000
0001
,  // measure 93
1000
0001
1001
0110
,  // measure 94
1100
0000
0010
0000
0000
0100
0000
0001
,  // measure 95
0010
0000
0001
0000
0000
1000
0000
0100
,  // measure 96
1000
0000
0010
0000
0000
0100
0000
0001
,  // measure 97
0010
0001
1001
1100
,  // measure 98
1001
0000
1100
0000
0000
0101
0000
0000
,  // measure 99
1001
0000
0000
1100
0000
0000
0011
0000
,  // measure 100
0000
0000
1001
0000
0000
0101
0000
0000
,  // measure 101
1001
0000
0000
1100
0000
0000
0101
0000
,  // measure 102
0000
0000
1100
0000
0000
0101
0000
0000
,  // measure 103
0011
0000
0000
0101
0000
0000
1100
0000
,  // measure 104
1001
0100
1001
0001
,  // measure 105
1000
0100
1000
0010
0100
0001
0010
0001
,  // measure 106
2000
0000
0001
0000
0000
0001
0000
0000
0010
0000
0000
0010
0000
0000
0100
0000
,  // measure 107
0000
0000
0100
0000
0000
0100
0000
0000
0010
0000
0000
0010
0000
0000
3001
0000
,  // measure 108
0002
0000
0100
0000
0000
0100
0000
0000
0010
0000
0000
0010
0000
0000
1000
0000
,  // measure 109
0000
0000
0010
0000
0000
1000
0000
0000
0010
0000
0000
0100
0000
0000
0013
0000
,  // measure 110
1001
0000
0000
0000
0101
0000
0000
0000
1010
0000
0000
0000
,  // measure 111
1100
0000
0000
0000
0101
0000
0000
0000
1001
0000
0000
0000
,  // measure 112
0220
0000
0000
0330
,  // measure 113
2002
0000
0000
3003
,  // measure 114
1000
0100
1000
0010
,  // measure 115
0100
0001
0010
0001
,  // measure 116
0100
0001
1000
0001
,  // measure 117
0100
0001
0010
0001
,  // measure 118
0100
0001
1000
0100
,  // measure 119
1000
0010
0100
0001
,  // measure 120
1000
0100
1000
0010
,  // measure 121
0100
0001
1000
0001
,  // measure 122
1000
0010
1000
0001
,  // measure 123
0100
0001
0010
0001
,  // measure 124
0100
0001
1000
0100
,  // measure 125
1000
0010
0100
0001
,  // measure 126
0010
0001
0010
0001
,  // measure 127
0100
0001
0100
0001
,  // measure 128
1000
0100
1000
0100
,  // measure 129
1000
0010
0100
0001
,  // measure 130
0010
0001
0100
0001
,  // measure 131
0010
0001
0100
0001
,  // measure 132
1000
0100
1000
0010
,  // measure 133
0100
0001
0010
0001
,  // measure 134
0100
0001
1000
0001
,  // measure 135
1000
0001
0100
0001
,  // measure 136
0010
0001
1000
0001
,  // measure 137
0100
0001
0010
0001
,  // measure 138
0100
0001
1000
0100
,  // measure 139
1000
0010
1000
0001
,  // measure 140
0100
0001
0010
0001
,  // measure 141
1000
0010
0100
0001
,  // measure 142
1000
0001
2002
0000
,  // measure 143
0000
0000
0000
0000
,  // measure 144
0000
0000
0000
0000
,  // measure 145
0000
0000
0000
0000
,  // measure 146
0000
0000
0000
0000
,  // measure 147
0000
0000
0000
0000
,  // measure 148
0000
0000
0000
0000
,  // measure 149
0000
0000
0000
0000
,  // measure 150
0000
0000
0000
0000
,  // measure 151
0000
0000
0000
0000
,  // measure 152
0000
0000
0000
0000
,  // measure 153
3003
0000
0000
0000
;
