#TITLE:MAXX UNLIMITED;
#SUBTITLE:LONG VERSION;
#ARTIST:Z;
#TITLETRANSLIT:;
#SUBTITLETRANSLIT:;
#ARTISTTRANSLIT:;
#CREDIT:;
#BANNER:MAXX UNLIMITED.png;
#BACKGROUND:MAXX UNLIMITED-bg.png;
#LYRICSPATH:;
#CDTITLE:kykaCD.png;
#MUSIC:MaxX Unlimited long.mp3;
#OFFSET:-6.220;
#SAMPLESTART:49.580;
#SAMPLELENGTH:12.460;
#SELECTABLE:YES;
#BPMS:0.000=310.040,544.000=155.000,576.000=310.039,608.000=155.020,616.000=135.010,618.000=57.999,619.000=310.000;
#STOPS:619.000=0.980
;
#BGCHANGES:;

//---------------dance-single - ----------------
#NOTES:
     dance-single:
     :
     Challenge:
     11:
     0.834,1.000,1.000,0.215,0.054: // measure 1
1000
0010
0100
0001
,  // measure 2
1000
0100
1000
0010
,  // measure 3
0100
0001
1000
0001
,  // measure 4
0100
0001
0010
0001
,  // measure 5
0100
0001
1000
0100
,  // measure 6
1000
0010
0100
0010
,  // measure 7
1000
0001
0100
0001
,  // measure 8
0010
0001
1000
0100
,  // measure 9
1000
0010
0100
0010
,  // measure 10
0100
0010
1000
0001
,  // measure 11
0100
0001
0010
0001
,  // measure 12
0100
0010
1000
0100
,  // measure 13
1000
0010
0100
0001
,  // measure 14
0010
0100
1000
0010
,  // measure 15
0100
0010
1000
0001
,  // measure 16
0100
0001
0010
0001
,  // measure 17
0100
0010
1000
0100
,  // measure 18
1000
0100
1000
0010
,  // measure 19
0100
0001
0010
0001
,  // measure 20
0100
0001
1000
0010
,  // measure 21
0100
0010
1000
0100
,  // measure 22
0010
0001
0100
0001
,  // measure 23
1000
0010
0100
0010
,  // measure 24
1000
0001
0100
0001
,  // measure 25
1000
0010
0100
0001
,  // measure 26
1000
0100
0010
0100
,  // measure 27
0001
0100
1000
0010
,  // measure 28
0100
0000
0001
0000
1000
0001
1000
0001
,  // measure 29
1000
0100
0010
0001
,  // measure 30
0100
0001
0010
0001
,  // measure 31
0100
0010
1000
0100
,  // measure 32
1000
0000
0010
1000
0000
0001
0100
0001
,  // measure 33
1000
0010
0100
0001
,  // measure 34
0010
0001
0100
0001
,  // measure 35
1000
0100
1000
0010
,  // measure 36
0100
0000
0010
0000
1000
0000
0001
1000
,  // measure 37
0100
0010
0001
1000
,  // measure 38
0100
1000
0010
0100
,  // measure 39
0001
1000
0100
0000
1000
0010
0100
0000
,  // measure 40
0001
0010
0100
0010
0001
0100
0010
1000
,  // measure 41
0110
0000
0000
1010
0000
0000
0000
0000
,  // measure 42
1000
0010
0100
0001
,  // measure 43
1100
0000
0000
0011
0000
0000
0000
0000
,  // measure 44
0100
0010
1000
0001
,  // measure 45
1100
0000
0000
0011
0000
0000
0000
0000
,  // measure 46
1000
0100
0010
1001
,  // measure 47
0110
0000
0000
1100
0000
0000
0000
1000
,  // measure 48
0010
0100
0001
1000
0001
0000
0000
0000
,  // measure 49
1100
0000
0000
0110
0000
0000
0000
0000
,  // measure 50
0011
0000
0000
0110
0000
0000
0000
0000
,  // measure 51
1001
0000
0000
1100
0000
0000
0000
0000
,  // measure 52
0110
0000
0000
1100
0000
0000
0000
0000
,  // measure 53
0011
0000
0000
0101
0000
0000
0000
0000
,  // measure 54
1001
0000
0000
1100
0000
0000
0110
0000
,  // measure 55
1001
0000
0000
0101
0000
0000
1001
0000
,  // measure 56
1100
0010
0100
0010
1000
0010
0100
0001
,  // measure 57
1000
0100
1000
1000
,  // measure 58
0010
0100
0001
0001
,  // measure 59
0100
0010
1000
0001
,  // measure 60
2002
0000
0000
3003
,  // measure 61
1000
0010
0100
0010
,  // measure 62
1000
0001
0100
0001
,  // measure 63
0010
0001
0100
0010
,  // measure 64
1001
0000
1100
0000
,  // measure 65
1001
1000
0010
0100
0010
1000
0100
1000
,  // measure 66
0001
0100
0001
0100
0010
1000
0100
0010
,  // measure 67
0001
0100
0001
1000
0100
1000
0010
0100
,  // measure 68
0010
1000
0001
0010
0001
0100
0001
1000
,  // measure 69
0100
1000
0010
0100
0010
1000
0100
1000
,  // measure 70
0001
0010
0001
0010
0100
1000
0010
0100
,  // measure 71
0001
1000
0010
0100
0010
1000
0001
0010
,  // measure 72
0100
1000
0001
0010
0100
1000
0010
0100
,  // measure 73
0001
0000
1000
0000
0000
0010
0000
0010
,  // measure 74
0100
0000
0001
0000
0000
1000
0000
1000
,  // measure 75
0010
0000
1000
0000
0000
0010
0000
0010
,  // measure 76
0100
0001
0000
1000
0000
0001
0000
1000
,  // measure 77
0010
0000
0100
0000
0000
0001
0000
1000
,  // measure 78
0100
0000
1000
0000
0000
0010
0000
0100
,  // measure 79
0001
0000
1000
0000
0000
0001
0000
1000
,  // measure 80
0110
0000
1001
0000
,  // measure 81
1100
0000
0001
0000
0000
1000
0000
0010
,  // measure 82
0100
0000
0001
0000
0000
1000
0000
0010
,  // measure 83
1000
0000
0010
0000
0000
0100
0000
0001
,  // measure 84
1001
1100
0110
1001
,  // measure 85
0011
0000
1000
0000
0000
0100
0000
1000
,  // measure 86
0001
0000
0010
0000
0000
0001
0000
0100
,  // measure 87
0010
0000
1000
0000
0000
0010
0000
0100
,  // measure 88
0110
1001
1100
0101
,  // measure 89
1001
0000
0010
0000
0000
0100
0000
0010
,  // measure 90
1000
0000
0001
0000
0000
0010
0000
0001
,  // measure 91
0100
0000
0001
0000
0000
1000
0000
0010
,  // measure 92
1000
0010
0000
1000
0000
0100
0000
0010
,  // measure 93
1001
0000
1000
0000
0000
0010
0000
0100
,  // measure 94
0001
0000
1000
0000
0000
0010
0000
1000
,  // measure 95
0010
0000
0100
0000
0000
0001
0000
0010
,  // measure 96
1001
0000
1010
0000
,  // measure 97
1001
0000
1000
0000
0000
0001
0000
0100
,  // measure 98
0010
0000
1000
0000
0000
0001
0000
0100
,  // measure 99
0001
0000
0100
0000
0000
0010
0000
1000
,  // measure 100
1001
0011
0110
1001
,  // measure 101
1100
0000
0001
0000
0000
0010
0000
0001
,  // measure 102
1000
0000
0100
0000
0000
1000
0000
0010
,  // measure 103
0100
0000
0001
0000
0000
0100
0000
0010
,  // measure 104
0110
1001
0011
1010
,  // measure 105
0011
0000
1000
0000
0000
0001
0000
0100
,  // measure 106
0010
0000
1000
0000
0000
0001
0000
0100
,  // measure 107
0001
0000
0100
0000
0000
0010
0000
1000
,  // measure 108
1001
0011
0110
1001
,  // measure 109
1100
0000
0001
0000
0000
0010
0000
0001
,  // measure 110
1000
0000
0100
0000
0000
1000
0000
0010
,  // measure 111
0100
0000
0001
0000
0000
0100
0010
0100
,  // measure 112
0000
0010
1000
0010
1000
0001
0010
0001
,  // measure 113
2002
0000
0000
0000
,  // measure 114
0000
0000
0000
3003
,  // measure 115
2200
0000
3300
0022
,  // measure 116
0000
0033
0220
0330
,  // measure 117
2002
0000
0000
0000
,  // measure 118
0000
0000
0000
3003
,  // measure 119
2002
0000
3003
0220
,  // measure 120
0000
0330
2002
3003
,  // measure 121
2200
0000
0000
0000
,  // measure 122
0000
0000
0000
3300
,  // measure 123
0220
0000
0330
2002
,  // measure 124
0000
3003
0022
0033
,  // measure 125
2100
0000
0010
0010
,  // measure 126
0000
0000
0010
3010
,  // measure 127
2100
0000
3100
0102
,  // measure 128
0000
0003
2200
3300
,  // measure 129
0110
1000
0010
0100
,  // measure 130
0001
1000
0100
1000
,  // measure 131
0010
0100
0010
1000
,  // measure 132
0001
0100
0001
1000
,  // measure 133
1001
1000
0010
0100
,  // measure 134
0110
0010
1000
0001
,  // measure 135
1001
0000
1000
0000
0100
1000
0010
0100
,  // measure 136
0001
0010
0001
0100
0001
1000
0001
1000
,  // measure 137
0010
0000
1100
0000
0000
0011
0000
0000
0101
0000
0000
1001
0000
0000
1100
0000
,  // measure 138
0000
0000
0110
0000
0000
1100
0000
0000
0011
0000
0000
0101
0000
0000
1001
0000
,  // measure 139
0010
0000
1001
0000
0000
1100
0000
0000
0110
0000
0000
1001
0000
0000
0101
0000
,  // measure 140
0000
0000
1001
0000
0000
1100
0000
0000
0110
0000
0000
1001
0000
0000
0101
0000
,  // measure 141
1000
0000
0101
0000
0000
1100
0000
0000
0011
0000
0000
0101
0000
0000
1001
0000
,  // measure 142
0000
0000
1100
0000
0000
0110
0000
0000
1001
0000
0000
0101
0000
0000
1001
0000
,  // measure 143
1000
0000
1100
0000
0000
0110
0000
0000
1001
0000
0000
0101
0000
0000
1001
0000
,  // measure 144
0000
0000
1100
0000
0000
0110
0000
0000
1001
0000
0000
0101
0000
0000
1001
0000
,  // measure 145
1010
0000
0110
0000
0000
1001
0000
0000
,  // measure 146
1100
0000
0000
0101
0000
0000
1001
0000
,  // measure 147
0000
0000
1100
0000
0000
0110
0000
0000
,  // measure 148
1001
0000
0000
0101
0000
0000
1001
0000
,  // measure 149
1100
0000
0011
0000
0000
1001
0000
0000
,  // measure 150
1100
0000
0000
0110
0000
0000
1001
0000
,  // measure 151
1100
0001
1001
1000
,  // measure 152
0001
0100
0010
1000
0010
0100
0001
1000
,  // measure 153
0001
0000
1100
0000
0000
0110
0000
0000
1001
0000
0000
1100
0000
0000
0110
0000
,  // measure 154
0000
0000
1001
0000
0000
0101
0000
0000
1001
0000
0000
1100
0000
0000
0110
0000
,  // measure 155
2002
0000
0000
0000
0000
0000
0000
0000
0000
0000
0000
0000
0000
3003
0000
0000
,  // measure 156
1010
0010
1000
0001
,  // measure 157
0100
0001
0010
0001
,  // measure 158
0100
0001
1000
0100
,  // measure 159
1000
0010
0100
0010
,  // measure 160
1000
0001
0100
0001
,  // measure 161
1000
0010
0100
0001
,  // measure 162
1000
0001
0010
0001
,  // measure 163
0100
0001
1000
0100
,  // measure 164
1000
0010
0100
0010
,  // measure 165
1000
0001
0010
0001
,  // measure 166
0100
0001
0010
0001
,  // measure 167
0100
0010
1000
0100
,  // measure 168
0010
0001
0100
0010
,  // measure 169
1000
0100
0001
0100
,  // measure 170
1000
0010
0100
0001
,  // measure 171
1000
0001
1000
0010
,  // measure 172
1000
0010
0100
0001
,  // measure 173
1000
0001
0100
0001
,  // measure 174
1000
0010
0100
0010
,  // measure 175
1000
0000
0001
0000
0100
0010
0100
1000
,  // measure 176
0010
0001
1000
0001
,  // measure 177
0100
0001
1000
0100
,  // measure 178
1000
0010
0100
0010
,  // measure 179
1000
0000
0001
1000
0000
0001
1000
0001
,  // measure 180
1000
0010
0100
0001
,  // measure 181
1000
0100
1000
0010
,  // measure 182
0100
0010
1000
0001
,  // measure 183
0100
0000
0010
0000
1000
0000
0001
1000
,  // measure 184
0110
1000
0010
0100
,  // measure 185
0010
1000
0001
0100
,  // measure 186
0001
1000
0100
0000
0010
0001
1000
0000
,  // measure 187
0010
0100
0010
1000
0001
0100
0001
0010
,  // measure 188
1001
0000
0000
1100
0000
0000
0000
0000
,  // measure 189
1001
0000
0000
0110
0000
0000
0000
0000
,  // measure 190
1100
0000
0000
0011
0000
0000
0001
1000
,  // measure 191
0010
0100
0020
0000
0000
0000
0000
0030
,  // measure 192
1100
0000
0000
0101
0000
0000
0000
0000
,  // measure 193
1001
0000
0000
0110
0000
0000
0000
0000
,  // measure 194
0011
0000
0000
1100
0000
0000
0000
0000
,  // measure 195
1001
0101
0011
1001
,  // measure 196
1100
0000
0000
0110
0000
0000
0000
0000
,  // measure 197
1001
0000
0000
0011
0000
0000
0000
0000
,  // measure 198
1001
0000
0000
1100
0000
0000
0110
0000
,  // measure 199
1001
0000
2200
0000
0000
0000
0000
3300
,  // measure 200
0011
0000
0000
1001
0000
0000
0000
0000
,  // measure 201
1100
0000
0000
0110
0000
0000
0000
0000
,  // measure 202
0011
0000
0000
0101
0000
0000
0101
0000
,  // measure 203
1010
0000
2200
0000
0000
0000
0000
3300
,  // measure 204
1001
0000
0000
1100
0000
0000
0000
0000
,  // measure 205
1001
0000
0000
0110
0000
0000
0000
0000
,  // measure 206
1100
0000
0000
0011
0000
0000
0000
0000
,  // measure 207
1001
0000
0000
0101
0000
0000
0000
0000
,  // measure 208
1100
0000
0000
0110
0000
0000
0000
0000
,  // measure 209
1001
0000
0000
0101
0000
0000
1001
0000
,  // measure 210
1100
0000
0000
0110
0000
0000
1000
0001
,  // measure 211
1001
0000
0000
0101
0000
0000
1000
0100
,  // measure 212
1100
0000
0000
0110
0110
0000
0000
1001
,  // measure 213
1001
1000
0100
0011
0011
0100
0010
1001
,  // measure 214
2002
0000
0000
0000
,  // measure 215
0000
0000
0000
0000
,  // measure 216
3003
0000
0000
0000
;
