#TITLE:L.E.F.;
#SUBTITLE:(Loud Electronic Ferocious) [Long Version];
#ARTIST:Ferry Corsten;
#TITLETRANSLIT:;
#SUBTITLETRANSLIT:;
#ARTISTTRANSLIT:;
#CREDIT:;
#BANNER:L.E.F. (Loud Electronic Ferocious).png;
#BACKGROUND:L.E.F. (Loud Electronic Ferocious)-bg.png;
#LYRICSPATH:;
#CDTITLE:kykaCD.png;
#MUSIC:Ferry Corsten - L.E.F. (Loud Electronic Ferocious)(long).mp3;
#OFFSET:1.259;
#SAMPLESTART:23.596;
#SAMPLELENGTH:15.000;
#SELECTABLE:YES;
#BPMS:0.000=135.000;
#STOPS:;
#BGCHANGES:;

//---------------dance-single - ----------------
#NOTES:
     dance-single:
     :
     Challenge:
     9:
     0.586,0.612,0.268,0.493,0.417: // measure 1
0000
0000
0000
0000
0000
0000
0000
0000
0000
0000
0000
0000
1000
0100
1000
0010
,  // measure 2
0100
0000
0001
0000
1000
0000
0000
0001
0000
0000
0200
0000
0000
0000
0000
0000
,  // measure 3
0310
1000
0010
0000
0100
0000
0000
0001
0000
0000
1000
0000
0010
0000
0000
0000
,  // measure 4
1000
0100
1000
0000
0010
0000
0000
0100
0000
0000
0001
0000
1000
0000
0000
0000
,  // measure 5
0010
1000
0001
0000
0100
0000
0000
0001
0000
0000
1000
0000
0100
0000
0000
0000
,  // measure 6
1000
0000
1000
0000
0010
0100
0000
0100
0000
0100
0010
1000
0002
0000
0000
0000
,  // measure 7
1003
0100
1000
0000
0010
0000
0000
0100
0000
0000
0010
0000
1000
0000
0000
0000
,  // measure 8
0001
0010
0001
0000
0100
0000
0000
0010
0000
0000
1000
0000
0001
0000
0000
0000
,  // measure 9
1000
0010
0100
0000
0010
0000
0000
0100
0000
0000
0001
0000
0010
0000
0001
0000
,  // measure 10
1000
0000
0001
0000
0100
0010
0000
1000
0000
0010
0100
0001
2000
0000
0000
0000
,  // measure 11
3010
0100
0010
0000
0100
0000
0000
0010
0000
0000
0100
0000
0001
0000
0000
0000
,  // measure 12
1000
0001
1000
0000
0010
0000
0000
1000
0000
0000
0010
0000
1000
0000
0000
0000
,  // measure 13
0010
1000
0100
0000
1000
0000
0000
0100
0000
0000
1000
0000
0001
0000
0000
0000
,  // measure 14
1000
0000
0001
0000
0010
0100
0000
0010
0000
0010
0100
0010
0002
0000
0000
0000
,  // measure 15
1003
0001
1000
0000
0010
0000
0000
1000
0000
0000
0100
0000
1000
0000
0000
0000
,  // measure 16
0001
0010
0001
0000
0100
0000
0000
0010
0000
0000
1000
0000
0001
0000
0000
0000
,  // measure 17
1000
0010
0100
0000
0010
0000
0000
0100
0000
0000
0001
0000
0010
0000
0001
0000
,  // measure 18
1000
0000
0001
0000
0100
0010
0000
1000
0020
0000
0000
0000
0230
0000
0000
0000
,  // measure 19
0301
0000
1000
0000
1000
0000
0000
0010
0000
0000
0100
0000
0010
0000
0000
0000
,  // measure 20
1000
0000
0010
0000
0010
0000
0000
0100
0000
0000
0001
0000
0010
0000
0000
0000
,  // measure 21
0001
1000
0001
0000
1000
0000
0000
0100
0000
0000
1000
0000
0010
0000
1000
0000
,  // measure 22
0001
0000
0100
0000
0001
1000
0000
0100
0000
1000
0010
0100
0020
0000
0000
0000
,  // measure 23
1030
0001
0010
0000
0001
0000
0000
0100
0000
0000
0010
0000
1000
0000
0100
0000
,  // measure 24
1000
0010
0100
0000
0001
0000
0000
0010
0000
0000
0001
0000
0010
0000
0001
0000
,  // measure 25
0100
0010
0100
0000
0001
0000
0000
1000
0000
0000
0100
0000
1000
0000
0010
0000
,  // measure 26
0100
0000
0010
0000
0100
0000
0010
0000
2002
0000
0000
3003
2200
0000
0000
3300
,  // measure 27
2002
3003
0220
0330
,  // measure 28
2200
3300
0022
0033
,  // measure 29
1000
0100
1000
0000
0010
0000
0000
1000
0000
0000
0100
0000
1000
0000
0001
0000
,  // measure 30
0100
0010
0100
0000
0010
0000
0000
1000
0000
0000
0100
0000
1000
0000
0001
0000
,  // measure 31
1000
0100
1000
0000
0010
0000
0000
0100
0000
0000
0001
0000
1000
0000
0100
0000
,  // measure 32
1000
0000
0010
0000
0100
0010
0000
0100
0020
0000
0000
0000
2030
0000
0000
3000
,  // measure 33
0022
0033
0220
0330
,  // measure 34
2002
3003
2200
3300
,  // measure 35
0001
0100
0001
0000
1000
0000
0000
0100
0000
0000
1000
0000
0010
0000
1000
0000
,  // measure 36
0001
0100
0010
0000
1000
0000
0000
0100
0000
0000
1000
0000
0001
0000
0010
0000
,  // measure 37
0001
0100
0001
0000
1000
0000
0000
0100
0000
0000
1000
0000
0010
0000
0100
0000
,  // measure 38
0001
0000
1000
0000
0010
0100
0000
0010
0200
0000
0000
0000
0002
0000
0303
0000
,  // measure 39
1100
0000
0100
0000
1000
0000
0000
0010
0000
0000
0100
0000
0010
0000
0000
0000
,  // measure 40
1001
0000
1000
0000
0010
0000
0000
0010
0000
0000
0100
0000
0010
0000
0000
0000
,  // measure 41
1100
0000
0010
0000
0001
0000
0000
1000
0000
0000
0010
0000
1000
0000
0000
0000
,  // measure 42
1001
0000
1000
0000
0010
0100
0000
0001
0000
1000
0100
1000
0020
0000
0000
0000
,  // measure 43
0031
0010
0001
0000
0001
0000
0000
0100
0000
0000
0010
0000
0100
0000
0000
0000
,  // measure 44
1000
0001
1000
0000
0100
0000
0000
0100
0000
0000
0010
0000
0100
0000
0000
0000
,  // measure 45
0001
0010
0100
0000
1000
0000
0000
0001
0000
0000
0100
0000
0001
0000
1000
0000
,  // measure 46
0001
0000
1000
0000
0100
0010
0000
0001
2000
0000
0000
0000
0020
0000
3030
0000
,  // measure 47
0011
0000
0010
0000
0001
0000
0000
0100
0000
0000
0010
0000
0100
0000
0001
0000
,  // measure 48
1001
0000
0001
0000
0100
0000
0000
0100
0000
0000
0010
0000
0100
0000
0010
0000
,  // measure 49
0011
0000
0100
0000
1000
0000
0000
0001
0000
0000
0100
0000
0001
0000
0000
0000
,  // measure 50
1001
0000
0001
0000
0100
0010
0000
1000
0000
0001
0010
0001
0200
0000
0000
0000
,  // measure 51
1300
0100
1000
0000
1000
0000
0000
0010
0000
0000
0100
0000
0010
0000
1000
0000
,  // measure 52
0001
1000
0001
0000
0010
0000
0000
0010
0000
0000
0100
0000
0010
0000
0100
0000
,  // measure 53
1000
0100
0010
0000
0001
0000
0000
1000
0000
0000
0010
0000
1000
0000
0001
0000
,  // measure 54
1000
0000
0001
0000
0010
0100
0000
1000
0002
0000
0000
0000
0200
0000
0303
0000
,  // measure 55
2020
3030
0202
0303
,  // measure 56
2002
3003
2200
3300
,  // measure 57
0001
1000
0100
0000
1000
0000
0000
0010
0000
0000
0100
0000
0010
0000
1000
0000
,  // measure 58
0001
0010
0100
0000
1000
0000
0000
0010
0000
0000
0100
0000
0010
0000
1000
0000
,  // measure 59
0001
0100
0010
0000
1000
0000
0000
0001
0000
0000
0010
0000
0001
0000
0100
0000
,  // measure 60
0001
0000
1000
0000
0100
1000
0000
0010
0200
0000
0000
0000
0020
0000
0000
0330
,  // measure 61
2002
3003
2200
3300
,  // measure 62
0220
0330
2002
3003
,  // measure 63
1000
0001
0010
0000
0001
0000
0000
0010
0000
0000
0001
0000
1000
0000
0001
0000
,  // measure 64
1000
0100
1000
0000
0010
0000
0000
0100
0000
0000
0010
0000
1000
0000
0001
0000
,  // measure 65
0100
0001
0010
0000
0001
0000
0000
1000
0000
0000
0010
0000
0100
0000
0010
0000
,  // measure 66
1100
0000
0110
0010
0011
0001
0101
0100
,  // measure 67
0110
0000
1100
0000
,  // measure 68
0110
0000
1001
0000
,  // measure 69
1001
0000
0000
0000
,  // measure 70
0000
0000
0000
0000
,  // measure 71
0000
0000
0000
0000
,  // measure 72
0000
0000
0000
0000
,  // measure 73
0000
0000
0000
0000
,  // measure 74
0000
0000
0000
0000
,  // measure 75
0000
0000
0000
0000
,  // measure 76
0000
0000
0000
0000
,  // measure 77
1000
0000
0100
0000
1000
0000
0000
0010
0000
0000
0200
0000
0000
0000
0000
0000
,  // measure 78
0301
0000
1000
0000
0100
0000
0000
0010
0000
0000
0002
0000
0000
0000
0000
0000
,  // measure 79
1003
0000
0100
0000
1000
0000
0000
0010
0100
0000
0001
0000
1000
0000
0000
0010
,  // measure 80
1000
0000
0001
0000
0010
0000
0000
0100
0010
0000
0001
0000
0100
0000
0000
0010
,  // measure 81
1000
0011
1001
1100
,  // measure 82
0001
0010
0100
1000
0010
0002
0013
0000
,  // measure 83
2200
3300
0022
0033
,  // measure 84
0202
0303
2002
3003
,  // measure 85
1000
0010
0100
0000
0001
0000
0000
1000
0000
0000
0100
0000
1000
0000
0001
0000
,  // measure 86
0010
0001
1000
0000
0010
0000
0000
0100
0000
0000
0010
0000
1000
0000
0001
0000
,  // measure 87
0010
0001
0100
0000
0010
0000
0000
1000
0000
0000
0001
0000
0100
0000
0001
0000
,  // measure 88
1000
0000
0100
0000
1000
0010
0000
0010
0200
0000
0000
0000
0002
0000
0303
0000
,  // measure 89
2002
3003
0022
0033
,  // measure 90
0202
0303
2002
3003
,  // measure 91
1000
0010
0001
0000
0010
0000
0000
1000
0000
0000
0001
0000
0100
0000
0010
0000
,  // measure 92
1000
0100
0010
0000
0001
0000
0000
0100
0000
0000
0001
0000
1000
0000
0010
0000
,  // measure 93
0100
0010
1000
0000
0001
0000
0000
0100
0000
0000
0001
0000
0010
0000
0001
0000
,  // measure 94
0100
0000
0010
0000
1000
0001
0000
1000
0002
0000
0000
0000
2000
0000
3003
0000
,  // measure 95
0022
0033
2200
3300
,  // measure 96
2020
3030
2002
3003
,  // measure 97
0001
0100
0010
0000
1000
0000
0000
0001
0000
0000
0010
0000
0001
0000
1000
0000
,  // measure 98
0100
1000
0001
0000
0100
0000
0000
0010
0000
0000
0100
0000
0001
0000
1000
0000
,  // measure 99
0100
1000
0010
0000
0100
0000
0000
0001
0000
0000
1000
0000
0010
0000
1000
0000
,  // measure 100
0001
0000
0010
0000
0001
0100
0000
0100
0020
0000
0000
0000
2000
0000
3030
0000
,  // measure 101
2002
3003
2200
3300
,  // measure 102
2020
3030
2002
3003
,  // measure 103
0001
0100
1000
0000
0100
0000
0000
0001
0000
0000
1000
0000
0010
0000
0100
0000
,  // measure 104
0001
0010
0100
0000
1000
0000
0000
0010
0000
0000
1000
0000
0001
0000
0100
0000
,  // measure 105
0010
0100
0001
0000
1000
0000
0000
0010
0000
0000
1000
0000
0100
0000
1000
0000
,  // measure 106
0010
0000
0100
0000
0001
1000
0000
0001
2000
0000
0000
0000
0002
0000
3003
0000
,  // measure 107
1000
0000
0001
0000
0001
0000
0000
0100
0000
0000
0010
0000
0100
0000
0000
0000
,  // measure 108
0001
0000
0100
0000
0100
0000
0000
0010
0000
0000
1000
0000
0100
0000
0000
0000
,  // measure 109
1000
0001
1000
0000
0001
0000
0000
0010
0000
0000
0001
0000
0100
0000
0000
0000
,  // measure 110
0100
0000
0010
0000
1000
0001
0000
0010
0000
0001
0100
0010
0200
0000
0000
0000
,  // measure 111
0301
1000
0100
0000
1000
0000
0000
0010
0000
0000
0100
0000
0001
0000
0000
0000
,  // measure 112
0001
0100
0010
0000
1000
0000
0000
0100
0000
0000
1000
0000
0100
0000
0000
0000
,  // measure 113
0100
0010
0100
0000
0001
0000
0000
0001
0000
0000
0010
0000
0001
0000
0000
0000
,  // measure 114
0010
0000
0100
0000
0010
0100
0000
0100
0000
0100
0010
0100
0220
0000
0000
0000
,  // measure 115
0330
0000
0000
0000
;
