#TITLE:Kingdom Hearts Opening;
#SUBTITLE:;
#ARTIST:宇多田ひかる;
#TITLETRANSLIT:;
#SUBTITLETRANSLIT:;
#ARTISTTRANSLIT:Utada Hikaru;
#CREDIT:;
#BANNER:KH.png;
#BACKGROUND:KH-bg.png;
#LYRICSPATH:;
#CDTITLE:KHCD.png;
#MUSIC:Kingdom Hearts - Simple and Clean (English Remix).mp3;
#OFFSET:2.880;
#SAMPLESTART:59.180;
#SAMPLELENGTH:14.800;
#SELECTABLE:YES;
#BPMS:0.000=65.010,15.000=69.030,19.000=130.030,20.000=260.060,76.000=130.030,144.000=260.060,208.000=130.030,244.000=65.015,260.000=260.070,324.000=65.018,368.000=32.509,383.000=16.254,398.500=32.509;
#STOPS:;
#BGCHANGES:0.000=black-bg.png=1.000=0=0=1,
3.500=KH opening.avi=1.000=0=0=1,
99999=-nosongbg-=1.000=0=0=0 // don't automatically add -songbackground-
;

//---------------dance-single - ----------------
#NOTES:
     dance-single:
     :
     Beginner:
     1:
     0.117,0.248,0.007,0.041,0.003:
0000
0000
0000
0000
,
1000
0001
0000
1000
,
0100
0010
0000
0001
,
0100
0010
0000
0000
,
0000
0000
0000
1000
,
0001
0000
0000
0000
,
0000
0100
0000
0000
,
0010
0000
0000
0000
,
1000
0000
0000
0000
,
0001
0000
0000
0000
,
0000
0000
0000
0000
,
0100
0000
0000
0000
,
0000
0000
0001
0000
,
0001
0000
0000
0000
,
0000
1000
0000
0000
,
0010
0000
0000
0000
,
0100
0000
0000
0000
,
0001
0000
0000
0000
,
1000
0000
0000
0000
,
1001
0000
0000
0000
,
1000
0000
0000
0000
0000
0100
0000
0000
,
1000
0000
0000
0000
,
0010
0000
0000
0000
,
1000
0000
0000
0000
0000
1000
0000
0000
,
0001
0000
0000
0000
,
0100
0000
0000
0000
,
0001
0000
0000
0000
0000
0100
0000
0000
,
0001
0000
0000
0000
,
1000
0000
0000
0000
,
0001
0000
0100
0000
,
0010
0000
0000
0000
0000
1000
0000
0000
,
1000
0000
0010
0000
,
0100
0000
0000
0000
,
0000
1000
0001
1000
,
0001
0000
1000
0000
,
0020
0000
0130
0000
,
1000
0000
0000
0000
,
0000
0000
1000
0000
,
0001
0000
0000
0000
,
0000
0000
0001
0000
,
0200
0000
0000
0000
,
0000
0000
0000
0301
,
0000
0000
0000
1000
0000
0000
0000
0000
,
0000
0000
1000
0000
,
0001
0000
0000
0000
,
0100
0000
0000
0000
,
0010
0000
0000
0000
,
1000
0000
0000
0000
,
0001
0000
0000
0100
,
0000
0000
0000
0000
,
0001
0000
0000
0000
,
1000
0000
0000
0000
,
0000
0000
0000
0000
,
1000
0000
0010
0000
,
1000
0000
0001
0000
,
0100
0000
0010
0000
,
1000
0000
0010
0000
,
1000
0000
0001
0000
,
0100
0000
0010
0000
,
2000
0000
3001
0000
,
0001
0000
0010
0000
,
1000
1000
0010
0010
,
0100
0100
0001
0001
,
1000
1000
0100
0100
,
0020
0031
0100
0001
,
1000
0000
0000
0000
,
0000
1000
0000
0000
,
0001
0000
0000
0000
,
0000
0000
0100
0000
,
0001
0000
0000
0000
,
0000
0000
0000
0000
,
1000
0000
0000
0000
,
0010
0000
1000
0000
,
0100
0000
0000
0000
,
0000
0100
0000
0000
,
0010
0000
0000
0000
,
0000
0000
0001
0000
,
1000
0000
0000
0000
,
1000
0000
0000
0000
,
0020
0000
0000
0000
,
0000
0000
0030
0000
,
1000
0000
0000
0000
0000
0000
0000
0000
0000
0000
0000
0000
0000
0000
0000
0000
0000
0000
0000
0000
0002
0003
0000
0000
0000
0000
0000
0000
0000
0000
0000
0000
0000
0000
0000
0000
0000
0000
0000
0000
0000
0000
0000
0000
0000
0000
0000
0000
0000
0000
0000
0000
0000
0000
0000
0000
0000
0000
0000
0000
0000
0000
0000
0000
;

//---------------dance-single - ----------------
#NOTES:
     dance-single:
     :
     Easy:
     4:
     0.243,0.496,0.068,0.047,0.047:
0000
0000
0000
0000
,
1000
0100
1000
0000
0000
0000
0002
1000
,
1003
0100
1000
0000
0000
0000
0020
0100
,
0130
0001
1000
0000
0000
0000
1001
0000
,
0000
0000
0000
1100
,
1000
0000
1000
0000
,
1000
0001
0000
0000
,
1000
0000
0010
0000
,
0100
0000
0001
1000
,
0100
0000
0100
0000
,
0000
0100
0000
0000
,
0100
0000
1000
0000
,
0001
0000
1000
0100
,
1000
0000
0010
0000
,
0100
0010
0000
0000
,
1000
0000
1000
0000
,
0001
0000
0001
0100
,
0010
0000
1000
0000
,
0000
0010
0000
0000
,
1001
0000
0110
0000
,
0001
0000
0010
0000
0100
1000
0100
0000
,
0010
0001
0010
0100
,
1000
0000
0010
0000
0100
0010
1000
0000
,
0001
0100
0010
1000
,
0100
0000
0010
0000
0100
1000
0001
0000
,
0100
0010
1000
0100
,
1000
0000
0001
0000
0100
0010
0100
0000
,
0001
0100
0001
0000
1000
0100
1000
0000
,
0001
0000
0100
0000
0010
0000
0000
0000
1000
0000
0000
0100
0000
0000
0010
0000
,
0000
0000
0001
0000
0100
0000
0000
0000
0010
0000
0000
1000
0000
0000
0100
0000
,
1000
0000
0000
0000
0000
0101
0000
0000
,
0000
1000
0010
0000
1000
0000
0001
0000
,
1000
0000
0010
0100
0000
0001
0000
0000
,
1000
0001
0001
0001
,
0101
0000
1000
0010
,
0110
1000
0101
0001
,
1000
0000
0000
1000
,
0000
0000
1000
0000
,
0001
0000
0000
0001
,
0000
0000
0001
0000
,
0100
0000
0010
0000
,
1000
0000
0010
1000
,
0000
0000
0000
0001
0000
0000
0000
0000
,
0000
1000
0001
0000
,
1000
0000
0000
0010
,
1000
0000
0000
0001
,
0100
0000
0000
0010
,
1000
0000
0000
0100
,
1000
0000
0000
1010
,
0000
0000
0000
0001
,
0100
0000
0000
0010
,
0000
1000
0000
1000
,
0000
0001
0000
0000
0000
1000
0000
0000
,
0001
0000
0001
0000
,
1000
0000
0000
0010
0000
0000
1000
0000
,
0002
0000
0000
0000
1003
0000
1000
0100
,
1000
0000
0000
0010
0000
0000
0000
0100
0000
0000
0000
0000
0000
0000
1000
0000
,
0100
0000
0000
0100
0010
0000
0000
0010
,
0001
0000
1000
0000
0010
0000
1000
0100
,
0000
0000
0000
0010
0000
0000
0000
0000
,
0001
0010
0100
1000
,
1000
0000
0000
0000
1000
0000
0000
0000
0001
0000
0000
0100
0000
0000
0001
0000
,
2000
0000
0000
0000
0000
0000
0000
0000
3001
0000
0000
0000
0001
0000
0010
0000
0001
0000
0000
0100
0000
0000
0000
0010
0000
0000
0000
0000
0000
0000
0001
0000
,
0010
0000
0000
0010
0100
0000
0000
0100
1000
0000
0001
0000
0100
0000
0001
0010
,
0000
0000
0000
0100
0000
0000
0000
0000
1000
0000
0100
0000
0010
0000
0001
0000
,
1000
0000
1000
0000
,
1000
0001
0000
0000
,
1000
0000
0010
0000
,
0100
0000
0001
1000
,
0100
0000
0100
0000
,
0000
0100
0000
0000
,
0100
0000
1000
0000
,
0001
0000
1000
0100
,
1000
0000
0010
0000
,
0100
0010
0000
0000
,
1000
0000
1000
0000
,
0001
0000
0001
0100
,
0010
0000
1000
0000
,
0000
0010
0000
0000
,
2002
0000
0000
0000
,
0000
0000
3003
0000
,
1000
0000
0000
0000
0000
0000
0000
0000
0000
0000
0000
0000
0000
0000
0000
0000
0001
0000
0000
0000
2000
3000
0000
0000
0000
0000
0000
0000
0000
0000
0000
0000
0000
0000
0000
0000
0000
0000
0000
0000
0000
0000
0000
0000
0000
0000
0000
0000
0000
0000
0000
0000
0000
0000
0000
0000
0000
0000
0000
0000
0000
0000
0000
0000
;

//---------------dance-single - ----------------
#NOTES:
     dance-single:
     :
     Medium:
     6:
     0.296,0.606,0.169,0.054,0.146:
0000
0000
0000
0000
,
1000
0000
0100
0000
1100
0000
0000
0000
0001
0100
0000
0000
0100
1000
0100
1000
,
0010
0000
0001
0000
0101
0000
0000
0000
1000
0100
0000
0000
0010
0001
0100
0010
,
1000
0100
1100
0000
0000
0000
1001
0000
,
0000
0000
0000
1100
,
1000
0000
0000
0000
1000
0000
0000
0001
,
0000
1000
0000
0000
,
0010
0000
0000
0000
0010
0000
0000
0100
,
0000
0010
1000
0000
,
0001
0000
0001
0000
,
0000
0100
0000
0000
,
0010
0000
1001
0000
,
0000
0000
0000
0000
1000
0010
1000
0010
,
1000
0000
0000
0000
0001
0000
0000
1000
,
0000
0100
0000
0000
,
0001
0000
0000
0000
0010
0000
0000
0001
,
0000
0010
1000
0000
,
0001
0000
1000
0000
,
0000
1000
0000
0000
,
0110
0000
0000
1000
0100
0000
0000
0010
,
0001
0000
0000
0000
0000
0110
0000
0000
,
0000
0000
0000
0000
0000
0000
1000
0000
0100
0000
0000
0000
0000
0000
0000
0010
,
0000
0000
0000
0000
0000
0000
0000
0000
0000
0000
1000
0000
0000
0001
0000
0000
,
0000
0000
0000
0100
0100
0000
0000
0010
,
0010
0000
0000
0000
0000
1100
0010
0000
,
0101
0000
0000
0000
0000
0000
1000
0000
0100
0000
0000
0000
0000
0000
0100
0010
,
0000
0000
0000
0000
0000
1000
0100
1000
,
0100
0010
0001
0010
0001
0100
0010
0100
,
0010
1000
0100
0000
0010
0001
0100
0010
,
0000
0000
1000
0000
0100
0000
0000
0000
0010
0000
0000
0100
0000
0000
1000
0000
,
0001
0000
0000
0000
0000
0000
0000
0100
0000
0000
0100
0000
0000
0000
0000
0000
,
0000
1000
0010
0000
1000
0100
0010
0001
,
0000
0000
0000
0000
0000
0000
0100
0010
0000
0000
1000
0000
0000
1000
0000
0000
,
0001
1100
0101
1001
,
1001
0000
0000
0000
0000
0000
1000
0100
0000
0000
1000
0000
0000
0000
0001
0000
,
0100
0000
0000
0100
0000
0000
0100
0000
0010
0000
0000
0000
1001
0000
0000
0000
,
1000
0000
0000
0001
0000
0000
1000
0000
,
0000
0001
0000
0000
1000
0000
0000
0000
,
0010
0000
0000
0100
0000
0000
0010
0000
,
0000
0100
0000
0000
0010
0000
0000
0000
,
1001
0000
0000
0000
,
0000
0000
1000
0100
,
0000
0000
0000
0101
0000
0000
0000
0000
,
0000
1000
0001
0000
,
1000
0000
0000
0001
0000
0000
1000
0000
,
0010
0000
0000
0100
0000
0000
0010
0000
,
1000
0000
0000
0100
0000
0000
1000
0000
,
0001
0000
0000
0100
0000
0000
0001
0000
,
1000
0000
0000
0000
0000
0000
0001
0100
,
0000
0000
0000
0001
,
1000
0000
0000
0000
0000
0000
0010
0100
,
0000
0100
0000
0110
,
0000
1000
0100
0000
0000
0000
0000
0000
0000
0010
0001
0000
0000
0000
0000
0000
,
1001
0000
0011
0000
,
0001
0000
0000
0010
0000
0000
0001
0000
0100
0000
0000
0000
0010
0000
0100
0000
,
0001
0000
0000
0000
1001
0000
0001
0010
,
0001
0000
0000
0100
0000
0100
0000
0100
0000
0000
0000
0000
0000
0000
0001
0000
,
1000
0000
0000
1000
0000
0000
1000
0000
0010
0000
0000
0010
0000
0000
0010
0000
,
0100
0000
0001
0000
0010
0100
0010
0200
,
0000
0000
0000
0310
0000
0000
0000
0000
,
0001
0000
0000
0000
1000
0000
0000
0000
0001
0000
0000
0100
0000
0000
0001
0000
,
1000
0000
0000
0000
0000
0000
0000
0000
0000
0000
0000
0000
0000
0000
0000
0000
1000
0000
0000
0000
0200
0300
0000
0000
0000
0000
0000
0000
0000
0000
0000
0000
1000
0000
0000
0000
0000
0000
0100
0000
0000
0000
0000
0000
1000
0000
0000
0000
0010
0000
0000
0000
0000
0000
0000
0000
0100
0000
0000
0000
0010
0000
0000
0000
,
1000
0000
0000
0000
0000
0000
0000
0000
1001
0000
0000
0000
1000
0000
0100
0000
1000
0000
0000
0010
0000
0010
0000
0010
0000
0000
0000
0000
0000
0000
1000
0000
,
0001
0000
0000
0001
0000
0000
0001
0000
0100
0000
0000
0100
0000
0000
0100
0000
0010
0000
0000
0000
1000
0000
0000
0000
0100
0000
0010
0000
0100
0000
0020
0000
,
0000
0000
0000
0000
0000
0000
0130
0000
0000
0000
0000
0000
0000
0000
0000
0000
1000
0000
0000
0000
0001
0000
0000
0000
1000
0000
0000
0010
0000
0000
1000
0000
,
0001
0000
0000
0000
0001
0000
0000
1000
,
0000
0001
0000
0000
,
0100
0000
0000
0000
0100
0000
0000
0010
,
0000
0100
0001
0000
,
1000
0000
1000
0000
,
0000
0010
0000
0000
,
0100
0000
1001
0000
,
0000
0000
0000
0000
0001
0100
0001
0100
,
0001
0000
0000
0000
1000
0000
0000
0001
,
0000
0010
0000
0000
,
1000
0000
0000
0000
0100
0000
0000
1000
,
0000
0100
0001
0000
,
1000
0000
0001
0000
,
0000
0001
0000
0000
,
0220
0000
0000
0330
,
2002
0000
3003
0000
,
1000
0000
0000
0000
0000
0000
0000
0000
0100
0000
0000
0000
0000
0000
0000
0000
1000
0000
0000
0000
0020
0030
0000
0000
0000
0000
0000
0000
0000
0000
0000
0000
0000
0000
0000
0000
0000
0000
0000
0000
0000
0000
0000
0000
0000
0000
0000
0000
0000
0000
0000
0000
0000
0000
0000
0000
0000
0000
0000
0000
0000
0000
0000
0000
;

//---------------dance-single - ----------------
#NOTES:
     dance-single:
     :
     Hard:
     7:
     0.378,0.716,0.223,0.169,0.223:
0000
0000
0000
0000
,
1000
0000
1000
0000
0001
0000
0000
0000
0100
0000
0100
0000
0000
0000
0000
0000
0010
0000
0010
0000
0000
0000
0000
0000
1000
0100
1000
0100
1000
0100
1000
0100
,
1000
0000
1000
0000
0010
0000
0000
0000
1000
0000
1000
0000
0000
0000
0000
0000
0001
0000
0001
0000
0000
0000
0000
0000
0100
0010
0100
0010
0100
0010
0100
0010
,
0100
0100
0010
0000
1000
1000
0000
0000
0001
0001
0000
0000
1001
0000
0000
0000
,
0000
0000
0000
1100
,
1000
0000
0000
0000
0001
0000
0000
0001
,
0000
0002
0000
0000
,
1003
0000
0000
0000
0010
0000
0000
0100
,
0000
0100
0001
1000
,
0100
0000
0000
0000
0100
0000
0000
0010
,
0000
0000
0010
0000
0000
0100
0000
0000
,
1000
0000
0000
0000
0001
0000
0000
0100
,
0000
0000
0010
0000
0010
1000
0100
0010
,
0001
0000
0000
0000
1000
0000
0000
1000
,
0000
2000
0000
0000
,
3001
0000
0000
0000
0100
0000
0000
0010
,
0000
0010
1000
0001
,
0010
0000
0000
0000
0010
0000
0000
0100
,
0000
0000
0100
0000
0000
0010
0000
0000
,
0001
0000
0000
0100
0100
0000
0000
0010
,
0010
0000
0000
0000
1000
0000
0000
1000
0000
0000
1001
0000
0000
0000
0000
0000
,
0001
0000
0000
0000
0100
0000
0020
0000
0130
0000
0000
0000
0000
0000
1000
0010
,
0000
0000
0000
0000
0000
0000
0000
0000
0000
0000
2000
0000
0000
3001
0000
0000
,
0000
0000
0000
0100
0020
0000
0000
0130
,
0002
0000
0000
0000
0000
0000
0000
0000
0000
0000
1000
0003
1001
0000
0000
0000
,
0101
0000
0000
0000
0000
0000
1000
0000
0020
0000
0000
0000
0000
0000
1030
0002
,
0000
0000
0000
0000
0000
0100
0100
0100
,
0100
0010
0010
0010
0010
1000
1000
1000
,
1003
0000
0010
0000
0100
0000
0010
0000
1000
0000
0001
0200
0000
0000
0310
0000
,
0000
0000
0100
0000
0100
0000
0010
0000
0010
0000
1000
0100
0000
0000
2000
0000
,
3001
0000
0000
0000
0000
0000
0001
0100
0000
0000
0110
0000
0000
0000
0000
0000
,
0000
0010
0100
0010
1000
0100
1000
0002
,
0000
0000
0000
0000
0000
0000
0010
0010
0003
0000
1000
0000
0000
1000
0000
0000
,
2000
0001
0100
0010
,
3001
0000
0000
0000
0000
0000
1000
0010
0000
0000
1100
0000
0000
0000
0001
0000
,
1000
0000
0000
1000
0000
0000
0010
0000
0200
0000
0000
0000
0301
0000
0000
0000
,
1002
0000
0000
1000
0000
0000
1000
0000
,
0000
1000
0000
0000
2003
0000
0000
0000
,
0010
0000
0000
0010
0000
0000
0010
0000
,
0000
0010
0000
0000
3020
0000
0000
0000
,
2030
0000
0001
0000
,
3001
0000
1000
0001
,
0000
0000
0000
0110
0000
0000
0000
0000
,
0000
2000
3010
0000
,
0210
0000
0000
0010
0000
0000
0310
0000
,
1002
0000
0000
1000
0000
0000
1003
0000
,
2100
0000
0000
0100
0000
0000
3100
0000
,
0201
0000
0000
0001
0000
0000
0301
0000
,
1001
0000
0000
0000
0000
0000
1000
0010
,
0000
0000
0000
1001
,
0101
0000
0000
0000
0000
0000
1000
0010
,
0000
0010
0000
0010
,
0000
1000
0100
0000
0100
0000
0100
0000
0000
0010
0001
0000
0001
0000
0001
0000
,
0110
1000
0101
0001
,
1000
0000
0000
0100
0000
0000
0010
0000
0001
0000
0010
0000
0100
0000
0010
0000
,
1000
0000
0001
0000
0110
0000
1000
0010
,
0100
0010
0000
0010
0000
0010
0000
0110
0000
0000
0000
0000
0000
0000
1000
0000
,
0100
0000
0000
0100
0000
0000
0100
0000
0010
0000
0000
0010
0000
0000
0010
0000
,
0001
0010
0100
1000
0010
0100
0001
1000
,
0000
0000
0000
1001
0000
0000
0000
0000
,
1100
0000
0000
0000
0110
0000
0000
0000
0001
0000
0000
0100
0000
0000
0010
0000
,
1010
0000
0000
0000
0000
0000
0000
0000
1010
0000
0001
0000
0000
0000
0000
0000
1000
0000
0000
0100
0000
0000
0010
0000
0001
0000
0010
0000
0001
0000
0100
0000
,
0010
0000
0000
0000
0000
0000
0000
0000
1100
0000
0000
0000
0001
0000
0100
0000
0010
1000
0000
1000
0000
1000
0000
1001
0000
0000
0000
0000
0000
0000
1000
0000
,
0001
0000
0000
0001
0000
0000
0001
0000
1000
0000
0000
1000
0000
0000
1000
0000
0010
0000
0100
0000
0010
0000
1000
0000
0100
0000
0010
0000
0001
0000
0100
0000
,
0000
0000
0000
0000
0000
0000
0101
0000
0000
0000
0000
0000
0000
0000
0000
0000
1001
0000
0000
0000
1001
0000
0000
0000
1000
0000
0000
1000
0000
0000
1000
0000
,
1001
0000
0000
0000
1000
0000
0000
1000
,
0000
2000
0000
0000
,
3001
0000
0000
0000
0100
0000
0000
0010
,
0000
0010
1000
0001
,
0010
0000
0000
0000
0010
0000
0000
0100
,
0000
0000
0100
0000
0000
0010
0000
0000
,
0001
0000
0000
0000
1000
0000
0000
0010
,
0000
0000
0100
0000
0100
0001
0010
0100
,
1000
0000
0000
0000
0001
0000
0000
0001
,
0000
0002
0000
0000
,
1003
0000
0000
0000
0010
0000
0000
0100
,
0000
0100
0001
1000
,
0100
0000
0000
0000
0100
0000
0000
0010
,
0000
0000
0010
0000
0000
0100
0000
0000
,
1001
0000
0000
0000
,
1100
0000
0000
0000
,
1000
0000
0000
0000
0100
0000
0000
0000
1000
0000
0000
0000
0000
0000
0000
0000
1000
0000
0000
0000
0002
0003
0000
0000
0000
0000
0000
0000
0000
0000
0000
0000
0000
0000
0000
0000
0000
0000
0000
0000
0000
0000
0000
0000
0000
0000
0000
0000
0000
0000
0000
0000
0000
0000
0000
0000
0000
0000
0000
0000
0000
0000
0000
0000
;

//---------------dance-single - ----------------
#NOTES:
     dance-single:
     :
     Challenge:
     8:
     0.449,0.854,0.684,0.169,0.223: // measure 1
0000
0000
0000
0000
,  // measure 2
1001
0000
1000
0000
1001
0000
0000
0000
1001
0000
0001
0000
0000
0000
0000
0000
0101
0000
0100
0000
0000
0000
0000
0000
0001
0010
0100
1000
0001
0010
0100
0010
,  // measure 3
1001
0000
0001
0000
0101
0000
0000
0000
1001
0000
1000
0000
0000
0000
0000
0000
0110
0000
0100
0000
0000
0000
0000
0000
1000
0100
0010
0100
1000
0010
0100
0010
,  // measure 4
1001
0100
0110
0000
1100
1000
0000
0000
0110
0010
0000
0000
2000
0000
0000
0000
,  // measure 5
0000
0000
0000
0000
0000
0000
0000
0000
0000
0000
0000
3000
0110
0000
0000
0000
,  // measure 6
1100
0000
0000
0000
1000
0000
0000
0010
,  // measure 7
0000
0110
0000
0000
,  // measure 8
1001
0000
0000
0000
0101
0000
0000
1001
,  // measure 9
0000
1000
0010
0100
,  // measure 10
0001
0000
0000
0000
0001
0000
0000
1000
,  // measure 11
0000
0000
1000
0000
0000
0010
0000
0000
,  // measure 12
1010
0000
0000
0000
0101
0000
0000
0001
,  // measure 13
0000
0000
1000
0000
0002
1000
1000
1000
,  // measure 14
1003
0000
0000
0000
0001
0000
0000
0010
,  // measure 15
0000
1001
0000
0000
,  // measure 16
1000
0000
0000
0000
0010
0000
0000
0100
,  // measure 17
0000
0001
0010
0100
,  // measure 18
1000
0000
0000
0000
0001
0000
0000
0100
,  // measure 19
0000
0000
0010
0000
0000
1000
0000
0000
,  // measure 20
1001
0000
0000
0001
0200
0000
0000
0310
,  // measure 21
1000
0000
0000
0000
0001
0000
0000
1000
0000
0000
0110
0000
0000
0000
0000
0000
,  // measure 22
1000
0000
0000
0000
0001
0000
0100
0000
0010
0000
0000
0000
0000
0000
1000
0010
,  // measure 23
0000
0000
0000
0000
0000
0000
0000
0000
0000
0000
1010
0000
0000
0101
0000
0000
,  // measure 24
0000
0000
0000
1001
0101
0000
0000
1001
,  // measure 25
1001
0000
1000
0000
0010
1010
0101
0000
,  // measure 26
1001
0000
0000
0000
1000
0000
0010
0000
0200
0000
0000
0000
0000
0000
0301
1000
,  // measure 27
0000
0000
0000
0000
0000
1100
0101
1001
,  // measure 28
1001
1100
0110
1001
0101
1001
1100
0110
,  // measure 29
1001
0000
1000
0000
0001
0000
0100
0000
0010
0000
1000
0200
0000
0000
0310
0000
,  // measure 30
0000
0000
0001
0000
0100
0000
0010
0000
1000
0000
0010
0100
0000
0000
0010
0000
,  // measure 31
2000
0000
0000
0000
0000
0000
3001
0100
0000
0000
0110
0000
0000
0000
0000
0000
,  // measure 32
0000
1000
0010
1000
0001
0010
0100
1000
,  // measure 33
0000
0000
0000
0000
0000
0000
1000
0010
0000
0000
0110
0000
0000
1001
0000
0000
,  // measure 34
1001
1100
0110
1001
,  // measure 35
0101
0000
0000
0000
0000
0000
1000
0010
0000
0000
0110
0000
0000
0000
0001
0000
,  // measure 36
0100
0000
0000
0010
0000
0000
1000
0000
0001
0000
0000
0000
1001
0000
0000
0000
,  // measure 37
1100
0000
0000
0101
0000
0000
1001
0000
,  // measure 38
0000
0101
0000
0000
1001
0000
0000
0000
,  // measure 39
1100
0000
0000
0110
0000
0000
0101
0000
,  // measure 40
0000
1001
0000
0000
0101
0000
0000
0000
,  // measure 41
2000
0000
0010
0000
,  // measure 42
0010
0000
3010
0100
,  // measure 43
0000
0000
0000
0101
0000
0000
0000
0000
,  // measure 44
0000
1001
0101
0000
,  // measure 45
1100
0000
0000
0010
0000
0000
0100
0000
,  // measure 46
0011
0000
0000
0100
0000
0000
0010
0000
,  // measure 47
1100
0000
0000
0100
0000
0000
0010
0000
,  // measure 48
1001
0000
0000
0001
0000
0000
0100
0000
,  // measure 49
1001
0000
0000
0000
0000
0000
0100
0020
,  // measure 50
0000
0000
0000
1030
,  // measure 51
0002
0000
0000
0000
0000
0000
0103
0010
,  // measure 52
0000
0010
0000
1000
,  // measure 53
0000
0001
1000
0000
0010
0000
0100
0000
0000
0001
0010
0000
0100
0000
1000
0000
,  // measure 54
1002
1003
0101
0001
,  // measure 55
1000
0000
0000
0100
0000
0000
0010
0000
0100
0000
1000
0000
0010
0000
0100
0000
,  // measure 56
2001
0000
3010
0000
0101
0000
1000
0010
,  // measure 57
1000
0001
0000
0100
0000
0010
0000
2000
0000
0000
0000
0000
0000
0000
3001
0000
,  // measure 58
0110
0000
0000
1000
0000
0000
0001
0000
0101
0000
0000
0010
0000
0000
1000
0000
,  // measure 59
0001
0100
0010
1000
0100
0010
0100
2000
,  // measure 60
0000
0000
0000
0002
0000
0000
0000
3003
,  // measure 61
0101
0000
0000
0000
1001
0000
0000
0000
1100
0000
0000
0010
0000
0000
0100
0000
,  // measure 62
1001
0000
0000
0000
0100
0000
0000
0000
0101
0000
1100
0000
0000
0000
0000
0000
0001
0000
0000
0001
0000
0000
0001
0000
1000
0000
0100
0000
0010
0000
0100
0000
,  // measure 63
2000
0000
0000
0000
3001
0000
0000
0000
0101
0000
0000
0000
1000
0000
0001
0000
1000
0100
0000
0010
0000
0010
0000
0200
0000
0000
0000
0000
0000
0000
0310
0000
,  // measure 64
1100
0000
0000
0001
0000
0000
0100
0000
0110
0000
0000
0010
0000
0000
1000
0000
0100
0000
0010
0000
0001
0000
1000
0000
0100
0000
1000
0000
0010
0000
0200
0000
,  // measure 65
0000
0000
0000
0000
0000
0000
0020
0000
0000
0000
0000
0000
0000
0000
0330
0000
1001
0000
0000
0000
0101
0000
0000
0000
0001
0000
0000
0010
0000
0000
1000
0000
,  // measure 66
0101
0000
0000
0000
0100
0000
0000
1000
,  // measure 67
0000
1001
0000
0000
,  // measure 68
0110
0000
0000
0000
0011
0000
0000
0110
,  // measure 69
0000
0100
1000
0001
,  // measure 70
0010
0000
0000
0000
0010
0000
0000
0100
,  // measure 71
0000
0000
0100
0000
0000
1000
0000
0000
,  // measure 72
1100
0000
0000
0000
0011
0000
0000
0010
,  // measure 73
0000
0000
0100
0000
0020
0100
0100
0100
,  // measure 74
0130
0000
0000
0000
0010
0000
0000
1000
,  // measure 75
0000
0110
0000
0000
,  // measure 76
0100
0000
0000
0000
1000
0000
0000
0001
,  // measure 77
0000
0010
1000
0001
,  // measure 78
0100
0000
0000
0000
0010
0000
0000
0001
,  // measure 79
0000
0000
1000
0000
0000
0100
0000
0000
,  // measure 80
0220
0000
0000
0000
0000
0000
0000
0330
,  // measure 81
2002
0000
3003
0000
,  // measure 82
0110
0000
0000
0000
0100
0000
0000
0000
0010
0000
0000
0000
0000
0000
0000
0000
0010
0000
0000
0000
2200
3300
0000
0000
0000
0000
0000
0000
0000
0000
0000
0000
0000
0000
0000
0000
0000
0000
0000
0000
0000
0000
0000
0000
0000
0000
0000
0000
0000
0000
0000
0000
0000
0000
0000
0000
0000
0000
0000
0000
0000
0000
0000
0000
;
