#TITLE:Kids In America;
#SUBTITLE:(Long Version);
#ARTIST:Kim Wilde;
#TITLETRANSLIT:;
#SUBTITLETRANSLIT:;
#ARTISTTRANSLIT:;
#CREDIT:;
#BANNER:Kids In America.png;
#BACKGROUND:Kids In America-bg.png;
#LYRICSPATH:;
#CDTITLE:kykaCD.png;
#MUSIC:Kim Wilde - Kids In America.mp3;
#OFFSET:-0.380;
#SAMPLESTART:45.380;
#SAMPLELENGTH:12.000;
#SELECTABLE:YES;
#BPMS:0.000=160.030;
#STOPS:;
#BGCHANGES:;

//---------------dance-single - ----------------
#NOTES:
     dance-single:
     :
     Challenge:
     8:
     0.549,0.668,0.577,0.176,0.029: // measure 1
1000
0100
1000
0100
1000
0100
1000
0100
,  // measure 2
0010
0001
0010
0001
0010
0001
0010
0001
,  // measure 3
1000
0001
1000
0001
1000
0001
1000
0001
,  // measure 4
0010
0100
0010
0100
0010
0100
0010
0100
,  // measure 5
1000
0100
1000
0100
1000
0100
1000
0100
,  // measure 6
0010
0001
0010
0001
0010
0001
0010
0001
,  // measure 7
1000
0001
1000
0001
1000
0001
1000
0001
,  // measure 8
0010
0100
0010
0100
0010
0100
0010
0100
,  // measure 9
1000
0000
0001
1000
0010
0000
1000
0100
,  // measure 10
0000
0010
0001
0000
1100
0000
0110
0000
,  // measure 11
0000
0000
1000
0100
1000
0000
0010
0100
,  // measure 12
0000
0001
1000
0000
0001
1000
0001
0000
,  // measure 13
0010
0000
1000
0000
0010
0000
0000
0000
0000
0001
0000
0000
,  // measure 14
1000
0100
0010
1001
,  // measure 15
0110
0000
0000
1100
0000
0000
0101
0000
,  // measure 16
1001
0000
0000
1100
0000
0000
0110
0000
,  // measure 17
1001
1000
0002
0000
0000
0000
0000
0000
,  // measure 18
0000
0000
0000
1003
,  // measure 19
0000
0000
1000
0100
1000
0000
0010
1000
,  // measure 20
0000
0001
0010
0000
0001
0000
1000
0000
,  // measure 21
0000
0000
0010
1000
0010
0000
0100
0010
,  // measure 22
0000
1000
0010
0000
0100
0000
0100
0000
,  // measure 23
0010
1000
0100
0000
1000
0000
0010
0000
,  // measure 24
0100
0001
1000
1001
,  // measure 25
0101
0000
0000
1100
0000
0000
0101
0000
,  // measure 26
0011
0000
0000
1001
0000
0000
1100
0000
,  // measure 27
0010
1000
0010
0000
0110
0000
0010
1000
,  // measure 28
0000
0010
0100
0000
1001
0000
1100
0000
,  // measure 29
0000
0000
0011
0000
0101
0000
0001
1000
,  // measure 30
0000
0000
0010
0000
1000
0000
0000
0000
0100
0000
0010
0100
1000
0000
0001
1000
,  // measure 31
0001
0000
1000
0100
0020
0000
0031
0001
,  // measure 32
0002
0000
0100
0103
0000
0000
1001
1001
,  // measure 33
0000
0000
0100
0010
0200
0000
0301
1000
,  // measure 34
0200
0000
0010
0310
0000
0000
0011
0011
,  // measure 35
0000
0000
1000
0100
1000
0000
0010
0100
,  // measure 36
0000
0100
0010
0100
0000
0100
0001
0000
,  // measure 37
1100
0010
1000
0010
0100
0001
1000
0001
,  // measure 38
0100
0001
1000
0100
1000
0010
0100
0010
,  // measure 39
0000
0000
1000
0000
0100
0000
0010
0001
,  // measure 40
0000
0100
0001
0000
1000
0000
0010
0000
,  // measure 41
0000
0000
0100
0000
0001
1000
0010
1000
,  // measure 42
0000
0010
0100
0000
0001
0000
0001
1000
,  // measure 43
0001
1000
0010
0000
1000
0000
0010
0000
,  // measure 44
0100
0001
1000
0011
,  // measure 45
1001
0000
0000
1100
0000
0000
0110
0000
,  // measure 46
1001
0000
0000
0101
0000
0000
1001
0000
,  // measure 47
1000
0010
2000
0000
0010
0000
3001
0000
,  // measure 48
0100
0001
1000
0001
,  // measure 49
0100
0000
0001
1000
0001
0000
1000
0010
,  // measure 50
0000
0100
0010
0000
1000
0000
1001
0000
,  // measure 51
0000
0000
1000
0000
0001
0000
1000
0010
,  // measure 52
0000
0100
0001
1000
0001
0000
1000
0000
,  // measure 53
0010
0100
0010
0000
1000
0000
0010
0000
,  // measure 54
0100
0001
1000
0011
,  // measure 55
0101
0000
0000
1001
0000
0000
1100
0000
,  // measure 56
0110
0000
0000
1001
0000
0000
0101
0000
,  // measure 57
1000
0001
1100
0000
1010
0000
0100
0010
,  // measure 58
0000
1000
0001
0000
0011
0000
1001
0000
,  // measure 59
0000
0000
1100
0000
0110
0000
1000
0001
,  // measure 60
0000
0000
0100
0000
0001
0000
0000
0000
1001
0000
1000
0100
1000
0000
0010
1000
,  // measure 61
0001
0000
0001
0010
0200
0000
1300
1000
,  // measure 62
2000
0000
0010
3010
0000
0000
1001
1001
,  // measure 63
0000
0000
0010
0100
0020
0000
1030
0001
,  // measure 64
0020
0000
0100
0130
0000
0000
0110
0110
,  // measure 65
0000
0000
0001
0010
0001
0000
0100
0010
,  // measure 66
0000
1000
0100
0010
0000
0010
0001
0000
,  // measure 67
1001
1100
0011
1001
,  // measure 68
1000
0100
0000
0001
0010
0000
0000
0000
,  // measure 69
0000
0011
1001
1100
,  // measure 70
0010
1000
0000
0011
0000
0000
1001
0000
,  // measure 71
0000
0011
1100
1001
,  // measure 72
0001
0010
0000
1000
0100
0000
0000
0000
,  // measure 73
0000
1100
1001
0011
,  // measure 74
0100
0001
0000
1100
0000
0000
0000
0000
,  // measure 75
1001
0000
0000
1000
0000
0000
1001
0000
0000
0000
0000
0000
0000
0000
0000
0000
,  // measure 76
0002
0100
0100
0100
2003
0010
0010
0010
,  // measure 77
3010
0000
0001
1000
0001
0000
0100
0010
,  // measure 78
0000
1000
0100
0000
0001
0000
1001
0000
,  // measure 79
0000
0000
1000
0100
1000
0000
0010
0100
,  // measure 80
0000
0001
1000
0000
0001
0100
0001
0000
,  // measure 81
1000
0010
2000
0000
3001
0100
0001
0100
,  // measure 82
0000
0000
0000
0000
0010
1000
1010
0010
,  // measure 83
1100
0000
0000
0011
0000
0000
0101
0000
,  // measure 84
1001
0000
0000
1100
0000
0000
0101
0000
,  // measure 85
1001
1000
0002
0000
1003
0001
1000
0001
,  // measure 86
0000
0000
0000
0000
1000
0100
1000
0100
,  // measure 87
0000
0000
1000
0000
0001
0000
1000
0001
,  // measure 88
0000
0010
0001
0000
0100
0000
0110
0000
,  // measure 89
0000
0000
1000
0000
0010
0000
0100
0010
,  // measure 90
0000
1000
0010
0000
0100
0000
0001
0000
,  // measure 91
1000
0010
0100
0000
0001
1000
0001
1000
,  // measure 92
0000
0000
0000
1100
,  // measure 93
0011
0000
0000
1001
0000
0000
0101
0000
,  // measure 94
0011
0000
0000
1001
0000
0000
1100
0000
,  // measure 95
0000
0000
1001
0000
1100
0000
0001
1000
,  // measure 96
0000
0100
1000
0100
0000
0000
0011
0000
,  // measure 97
0000
0000
1000
0100
1000
0000
0010
0100
,  // measure 98
0000
0001
1000
0001
0000
0000
1001
0000
,  // measure 99
0001
0000
0001
0010
0200
0000
1300
1000
,  // measure 100
2000
0000
0010
3010
0000
0000
1001
1001
,  // measure 101
0000
0000
0010
0100
0020
0000
1030
0001
,  // measure 102
0020
0000
0100
0130
0000
0000
0110
0110
,  // measure 103
0000
0000
0001
0010
0001
0000
0100
0010
,  // measure 104
0000
1000
0100
0010
0000
0010
0001
0000
,  // measure 105
1001
0011
1100
1001
,  // measure 106
0001
0010
0000
1000
0100
0000
0000
0000
,  // measure 107
0000
1100
1001
0011
,  // measure 108
0100
0001
0000
1100
0000
0000
1001
0000
,  // measure 109
0000
1100
0011
1001
,  // measure 110
1000
0100
0000
0001
0010
0000
0000
0000
,  // measure 111
0000
0011
1001
1100
,  // measure 112
0010
1000
0000
0011
0000
0000
0000
0000
,  // measure 113
1001
0000
0000
0001
0000
0000
1001
0000
0000
0000
0000
0000
0000
0000
0000
0000
,  // measure 114
2000
0001
0001
3001
0002
1000
1000
1003
,  // measure 115
1000
0010
0100
0010
1000
0010
0100
0001
,  // measure 116
0010
0001
0100
0001
1000
0100
1000
0010
,  // measure 117
0100
0010
1000
0001
0100
0001
0010
0001
,  // measure 118
1000
0100
0010
0001
0100
0010
1000
0010
,  // measure 119
0100
0001
0010
0001
1000
0001
0100
0001
,  // measure 120
1000
0100
1000
0010
0100
0001
0010
0001
,  // measure 121
1000
0001
0100
0001
1000
0100
1000
0010
,  // measure 122
0100
0001
1000
0000
0010
1000
0100
0000
0010
0001
1000
0000
0001
0100
0010
0000
,  // measure 123
0100
0000
0001
1000
2002
0000
0000
0000
,  // measure 124
3003
0000
1000
0100
2200
0000
0000
0000
,  // measure 125
3300
0000
0001
0100
0101
0000
1000
0001
,  // measure 126
0200
0000
0010
0310
0000
0000
0000
0000
,  // measure 127
0000
0000
1000
0001
0022
0000
0000
0000
,  // measure 128
0033
0000
0010
1000
0220
0000
0000
0000
,  // measure 129
0330
0000
1000
0001
0200
0000
0301
1000
,  // measure 130
0200
0000
0010
0310
0000
0000
0000
0000
,  // measure 131
0000
0000
0001
1000
2200
0000
0000
0000
,  // measure 132
3300
0000
0100
0001
0220
0000
0000
0000
,  // measure 133
0330
0000
0001
1000
0020
0000
1030
0001
,  // measure 134
0020
0000
0100
0130
0000
0000
0000
0000
;
