#TITLE:Jingle Bells;
#SUBTITLE:(Techno Remix);
#ARTIST:Basshunter;
#TITLETRANSLIT:;
#SUBTITLETRANSLIT:;
#ARTISTTRANSLIT:;
#CREDIT:;
#BANNER:;
#BACKGROUND:;
#LYRICSPATH:;
#CDTITLE:kykaxmasstyleCD.png;
#MUSIC:Jingle Bells [Techno Remix].mp3;
#OFFSET:-3.280;
#SAMPLESTART:51.280;
#SAMPLELENGTH:13.600;
#SELECTABLE:YES;
#BPMS:0.000=70.000,20.000=140.000;
#STOPS:;
#BGCHANGES:;

//---------------dance-single - ----------------
#NOTES:
     dance-single:
     :
     Medium:
     7:
     0.429,0.450,0.111,0.018,0.265:
1000
0000
1000
0000
1000
0000
0000
0000
0001
0000
0001
0100
0000
0000
0000
0000
,
0010
0000
0010
0000
0010
0000
0000
1000
0001
0000
0000
0000
0000
0000
0000
0000
,
1000
0000
0100
0000
0010
0000
0000
0001
1000
0000
0001
1000
0000
0000
0010
0100
,
0010
1000
0001
1000
1001
0000
0000
0000
,
1001
0000
0000
0000
,
0000
1000
0000
0010
0000
0100
0000
0010
,
0000
1000
0000
0001
0000
0100
0000
0001
,
0000
0010
0000
0001
0000
0100
0000
0010
,
0000
1000
0000
0100
0000
1000
0000
0010
,
0000
0100
0000
0001
0000
0100
0000
0001
,
0000
1000
0000
0100
0000
1000
0000
0010
,
0000
0100
0000
0010
0000
1000
0000
0001
,
0101
0100
0000
0001
1001
1000
1001
0001
,
0110
0000
0000
0000
,
0000
0000
0000
0000
,
1000
0100
1000
0100
1000
0000
0000
0001
,
0100
0010
0100
0010
0100
0000
0000
0000
,
0010
1000
0010
1000
0010
0000
0000
0000
,
0100
0010
0100
0000
1010
0000
0010
0000
,
0100
0001
0100
0001
0100
0000
0000
0000
,
0010
1000
0010
1000
0010
0000
0000
1000
,
0001
0100
0001
0100
0010
1000
0010
1000
,
0010
0100
0010
0100
0010
0000
0000
0000
,
1000
0100
1000
0000
0001
0100
0001
0000
,
1000
0001
1000
0000
1001
0000
0000
0000
,
0010
0100
0010
0000
1000
0100
1000
0001
,
0100
0001
0100
0001
2000
0000
0000
0000
,
3100
1000
0100
0000
0010
0001
0010
0000
,
0001
0100
0001
0000
1001
0000
0000
0000
,
1000
0100
1000
0000
0010
0100
0001
1000
,
0100
1000
0010
1000
0010
0000
0000
0000
,
1000
0100
1000
0100
1000
0000
0000
0000
,
1001
0110
1001
0000
,
1000
0000
0000
0100
0000
0000
1000
0000
0010
0000
0000
0100
0000
0000
0001
0000
,
0010
0000
0000
0001
0000
0000
0100
0000
0001
0000
1000
0000
0001
0000
1000
0000
,
0001
0000
0000
0100
0000
0000
0001
0000
1000
0000
0000
0100
0000
0000
1000
0000
,
0010
0000
0000
0100
0000
0000
0010
0000
1000
0000
0001
0000
0100
0000
0001
0000
,
1000
0000
0000
0010
0000
0000
0100
0000
0010
0000
0000
1000
0000
0000
0001
0000
,
0100
0000
0000
0001
0000
0000
0010
0000
0001
0000
0010
0000
0001
0000
0010
0000
,
0100
0000
0000
1000
0000
0000
0010
0000
0100
0000
0000
0010
0000
0000
1000
0000
,
0001
0000
0000
1000
0000
0000
0100
0000
1000
0000
0010
0000
1000
0000
0001
0000
,
1000
0000
0000
0100
0000
0000
1000
0000
0010
0000
0000
0100
0000
0000
0001
0000
,
0010
0000
0000
0001
0000
0000
0100
0000
0001
0000
1000
0000
0001
0000
1000
0000
,
0001
0000
0000
0100
0000
0000
0001
0000
1000
0000
0000
0100
0000
0000
1000
0000
,
0010
0000
0000
0100
0000
0000
0010
0000
1000
0000
0001
0000
0100
0000
0001
0000
,
1000
0000
0000
0010
0000
0000
0100
0000
0010
0000
0000
1000
0000
0000
0001
0000
,
0100
0000
0000
0001
0000
0000
0010
0000
0001
0000
0010
0000
0001
0000
0010
0000
,
0100
0000
0000
1000
0000
0000
0010
0000
0100
0000
0000
0010
0000
0000
1000
0000
,
0001
0000
0000
1000
0000
0000
0100
0000
1000
0000
0010
0000
1000
0000
0001
0000
,
2000
0000
0000
0000
,
3002
0000
0000
0000
,
1003
0001
1000
0001
1000
0000
0000
0001
,
1000
0010
1000
0010
1000
0000
0000
0000
,
0001
1000
0001
1000
0001
0000
0000
0000
,
0100
0001
0100
0000
0110
0000
0010
0000
,
1000
0001
1000
0001
1000
0000
0000
0000
,
0010
0100
0010
0100
0010
0000
0000
1000
,
0010
1000
0010
1000
0001
0100
0001
0100
,
0010
1000
0010
1000
0010
0000
0000
0000
,
1001
0000
1000
0001
,
1000
0000
0001
1000
0000
0000
0001
0000
1000
0001
0000
0000
,
0100
0000
0010
0100
0000
0010
0100
0000
0000
0000
0000
0000
,
0001
0000
1000
0100
0000
1000
0100
0000
1000
0100
0000
0010
,
0001
0000
0010
0001
0000
0010
0001
0000
0000
0000
0000
0000
,
1000
0000
0100
1000
0000
0000
0010
0000
0100
0010
0000
0000
,
0100
0000
0001
1000
0000
0001
1000
0000
0000
0000
0000
0000
,
0010
0000
1000
0100
0000
1000
0100
0000
1000
0100
0000
1000
,
0010
0000
1000
0010
0000
1000
0010
0000
0000
0000
0000
0000
,
1001
0000
0000
0000
,
1100
0101
1001
0000
,
1000
0000
0000
0100
0000
0000
0010
0001
0010
0001
0000
0000
,
0100
0010
0100
0010
0000
0100
0010
0000
0000
1000
0000
0000
,
0001
0000
0000
0100
0000
0000
0001
1000
0001
1000
0000
0000
,
0010
0000
0000
1000
0000
0000
0100
0000
0010
0001
0000
0100
,
0001
0000
0000
1000
0000
0000
0100
1000
0100
1000
0000
0000
,
0001
0100
0001
0100
0000
0001
1000
0000
0000
0001
0000
0000
,
0100
0000
0000
0010
0000
0000
1000
0001
1000
0001
0000
0000
,
1000
0000
0000
0100
0000
0000
0010
0000
0001
1000
0001
1000
,
0001
0000
0000
0010
0000
0000
0001
1000
0001
1000
0000
0000
,
0010
1000
0010
1000
0000
0001
0100
0000
0000
0001
0000
0000
,
1000
0000
0000
0010
0000
0000
1000
0010
1000
0010
0000
0000
,
0100
0000
0000
0001
0000
0000
0010
0000
0001
1000
0000
0010
,
1000
0000
0000
0001
0000
0000
0100
0001
0100
0001
0000
0000
,
1000
0001
1000
0001
0000
1000
0001
0000
0000
1000
0000
0000
,
0010
0000
0000
0100
0000
0000
0001
0100
0001
0100
0000
0000
,
0001
0000
0000
0010
0000
0000
0100
0000
0000
1000
0010
1000
,
0010
0000
0000
0000
;

//---------------dance-single - ----------------
#NOTES:
     dance-single:
     :
     Hard:
     10:
     0.642,0.696,0.135,0.240,0.677: // measure 1
1000
0000
0010
0000
2000
0000
0000
0000
3010
0000
0100
0020
0000
0000
0000
0000
,  // measure 2
1030
0000
0001
0000
0100
0000
0000
0010
2000
0000
0000
0000
0000
0000
0000
0000
,  // measure 3
3001
0000
0100
0000
0002
0000
0000
1003
0010
0000
0100
0010
0000
0000
1000
0100
,  // measure 4
1000
0001
1000
0001
0220
0000
0000
0000
,  // measure 5
0000
0000
0000
0000
0000
0000
0000
0330
,  // measure 6
0000
0000
0010
0000
0000
0000
0100
0010
0000
0000
0001
0000
0000
0000
1000
0100
,  // measure 7
0000
0000
0001
0000
0000
0000
1000
0100
0000
0000
0010
0000
0000
0001
1000
0010
,  // measure 8
0000
0000
0100
0000
0000
0000
0001
0100
0000
0000
0010
0000
0000
0000
1000
0100
,  // measure 9
0000
0000
0010
0000
0000
0000
0001
1000
0000
0000
0001
0000
0000
1000
0010
0100
,  // measure 10
0000
0000
0010
0000
0000
0000
0100
0010
0000
0000
1000
0000
0000
0000
0001
0100
,  // measure 11
0000
0000
1000
0000
0000
0000
0001
0010
0000
0000
0100
0000
0000
1000
0001
0100
,  // measure 12
0000
0000
0010
0000
0000
0000
1000
0010
0000
0000
0100
0000
0000
0000
0001
0010
,  // measure 13
1010
0000
0100
0000
0000
0000
1000
0001
1010
0000
1000
0000
0110
0001
0100
0010
,  // measure 14
1001
0000
0000
0000
,  // measure 15
0000
0000
0000
0000
,  // measure 16
0100
0000
0010
0000
1000
0000
0001
0000
0020
0000
0000
0000
0001
0000
0031
1000
,  // measure 17
0001
0100
0010
1000
0002
0000
1000
0000
,  // measure 18
1003
0100
1000
0010
0200
0000
0001
0000
,  // measure 19
0301
0000
1000
0000
0010
0000
0000
0100
0020
0000
0000
0000
1000
0000
0000
0000
,  // measure 20
1030
0001
0100
0001
0020
0000
0001
0000
,  // measure 21
0031
1000
0100
1000
0020
0000
0000
1030
,  // measure 22
0001
0100
0010
1000
0001
0100
0010
1000
,  // measure 23
0001
0100
0010
1000
0002
1000
1000
1000
,  // measure 24
1003
0010
0200
0000
0301
1000
0002
0000
,  // measure 25
1003
0000
0100
0000
1000
0000
0000
0010
0200
0000
0000
0000
0010
0000
0000
0000
,  // measure 26
0310
0000
1000
0000
0001
0000
0000
1000
0100
0000
0010
0000
0001
0000
1000
0010
,  // measure 27
1000
0001
0100
0001
2000
0000
0001
0000
,  // measure 28
3001
1000
0020
0000
1030
0100
0020
0000
,  // measure 29
0031
0000
1000
0000
0001
0000
0000
1000
0020
0000
0000
0000
1000
0000
0000
0000
,  // measure 30
1030
0000
0001
0000
1000
0000
0000
0010
0100
0000
0001
0000
1000
0000
0010
1000
,  // measure 31
0001
1000
0010
0100
0002
0000
1000
0000
,  // measure 32
1003
0010
1000
0001
1000
0000
0000
0000
,  // measure 33
1001
0000
0110
1000
1010
0100
0001
0000
,  // measure 34
1000
0000
0001
0010
0000
0001
1000
0100
1000
0000
0010
0100
0000
0001
1000
0001
,  // measure 35
1000
0000
0010
0100
0000
0010
1000
0001
0100
0000
0001
0000
1000
0000
0100
0000
,  // measure 36
0010
0000
0001
0100
0000
0010
1000
0100
1000
0000
0010
0100
0000
0001
0010
0001
,  // measure 37
0100
0000
0010
1000
0000
0100
1000
0010
0100
0000
0110
0000
1001
0000
0001
1000
,  // measure 38
0001
0000
1000
0100
0000
1000
0001
0010
0001
0000
0100
0010
0000
1000
0001
1000
,  // measure 39
0001
0000
0100
0010
0000
0100
0001
1000
0010
0000
1000
0000
0001
0000
0010
0000
,  // measure 40
0100
0000
1000
0010
0000
0100
0001
0010
0001
0000
0100
0010
0000
1000
0100
1000
,  // measure 41
0010
0100
0010
1000
0000
0001
0100
0001
1000
0000
0001
0000
1000
0000
0001
0000
,  // measure 42
0100
0000
0001
0010
0000
0001
1000
0100
1000
0000
0010
0100
0000
0001
1000
0001
,  // measure 43
1000
0000
0010
0100
0000
0010
1000
0001
0100
0000
0001
0000
1000
0000
0100
0000
,  // measure 44
0010
0000
0001
0100
0000
0010
1000
0100
1000
0000
0010
0100
0000
0001
0010
0001
,  // measure 45
0100
0000
0010
1000
0000
0100
1000
0010
0100
0000
0110
0000
1001
0000
0001
1000
,  // measure 46
0001
0000
1000
0100
0000
1000
0001
0010
0001
0000
0100
0010
0000
1000
0001
1000
,  // measure 47
0001
0000
0100
0010
0000
0100
0001
1000
0010
0000
1000
0000
0001
0000
0010
0000
,  // measure 48
0100
0000
1000
0010
0000
0100
0001
0010
0001
0000
0100
0010
0000
1000
0100
1000
,  // measure 49
0010
0100
0010
1000
0000
0010
1000
0100
0010
0000
0100
0000
1000
0001
0100
0001
,  // measure 50
1000
0001
0100
0010
1000
0010
0100
0001
,  // measure 51
1000
0001
1000
0001
0200
0000
0010
0000
,  // measure 52
0310
0000
0100
0000
0001
0000
1000
0000
0200
0000
0000
0000
1000
0000
1300
0001
,  // measure 53
1000
0010
0100
0001
2000
0000
0001
0000
,  // measure 54
3001
0010
0001
0100
0020
0000
1000
0000
,  // measure 55
1030
0000
0001
0000
0100
0000
0000
0010
0200
0000
0000
0000
0001
0000
0000
0000
,  // measure 56
0301
1000
0010
1000
0200
0000
1000
0000
,  // measure 57
1300
0001
0010
0001
0200
0000
0000
0301
,  // measure 58
1000
0010
0100
0001
1000
0010
0100
0001
,  // measure 59
1000
0010
0100
0001
2000
0001
0001
0001
,  // measure 60
3001
0000
0000
1000
0000
0000
0010
0000
0000
0100
0000
0000
0010
0000
0000
0000
0010
0000
1000
0000
0000
0000
1000
0000
,  // measure 61
0001
0000
0001
0200
0000
0000
0310
0000
0010
2000
0000
0000
,  // measure 62
3010
0000
0010
1000
0000
1000
0200
0000
0000
1000
0000
0000
,  // measure 63
1300
0000
1000
0010
0000
0010
0100
0000
0100
0001
0000
0001
,  // measure 64
1000
0000
1000
0001
0000
0001
2000
0000
0000
0100
0000
0000
,  // measure 65
3100
0000
0100
2000
0000
0000
3010
0000
0010
0200
0000
0000
,  // measure 66
0310
0000
0010
1000
0000
1000
0020
0000
0000
0100
0000
0000
,  // measure 67
0130
0000
0100
0001
0000
0001
1000
0000
1000
0100
0000
0100
,  // measure 68
1000
0000
1000
0001
0000
0001
0200
0000
0000
0001
0000
0000
,  // measure 69
0301
1000
0010
1000
0001
0000
0000
0000
,  // measure 70
1001
0000
0000
0011
0000
0000
0110
0000
0001
1000
0000
0000
,  // measure 71
0001
0000
0001
0100
0000
0100
0010
1000
0010
1000
0000
1000
,  // measure 72
0001
0010
0001
0100
0010
0100
0001
0000
0001
1000
0000
1000
,  // measure 73
0010
0000
0010
0100
0000
0100
0001
1000
0001
1000
0000
1000
,  // measure 74
0010
0000
0010
0100
0000
0100
0001
0000
1001
1010
1000
0001
,  // measure 75
1000
0000
1000
0010
0000
0010
0100
0001
0100
0001
0000
0001
,  // measure 76
1000
0100
1000
0010
0100
0010
1000
0000
1000
0001
0000
0001
,  // measure 77
0100
0000
0100
0010
0000
0010
1000
0001
1000
0001
0000
0001
,  // measure 78
0100
0000
0100
0010
0000
0010
1000
0000
1010
0101
0001
1000
,  // measure 79
0001
0000
0001
1000
0000
1000
0010
0100
0010
1000
0000
1000
,  // measure 80
0001
1000
0001
0100
0001
0100
0001
0000
0001
1000
0000
1000
,  // measure 81
0001
0000
0001
0100
0000
0100
0001
0010
0001
1000
0000
1000
,  // measure 82
0010
0000
0010
0100
0000
0100
0001
0000
1001
1010
1000
0001
,  // measure 83
1000
0000
1000
0010
0000
0010
0100
0001
0100
0001
0000
0001
,  // measure 84
1000
0010
1000
0010
0100
0010
1000
0000
1000
0001
0000
0001
,  // measure 85
0100
0000
0100
0010
0000
0010
1000
0001
1000
0001
0000
0001
,  // measure 86
0100
0000
0100
0010
0000
0010
1000
0000
1000
0001
1000
0010
,  // measure 87
0220
0000
0000
0000
,  // measure 88
0330
0000
0000
0000
;

//---------------dance-single - ----------------
#NOTES:
     dance-single:
     :
     Easy:
     4:
     0.336,0.344,0.283,0.209,0.006:
1000
0000
0000
0000
1000
0000
0000
0000
0001
0000
0000
0001
0000
0000
0000
0000
,
0100
0010
0100
0000
2002
0000
0000
3003
,
1000
0000
0000
0000
0001
0000
0000
0000
0100
0000
0000
0010
0000
0000
0000
0000
,
1000
0001
1000
0001
1000
0000
0000
0000
,
0110
0000
0000
0000
,
1000
0100
1000
0010
,
0100
0001
0010
0001
,
0100
0001
1000
0001
,
0100
0010
1000
0100
,
1000
0010
0100
0001
,
0010
0001
0100
0001
,
1000
0100
1000
0100
,
0011
0001
1001
1100
,
1001
0000
0000
0000
,
0000
0000
0000
0000
,
1000
0010
2000
0000
,
3010
0100
0002
0000
,
1003
0010
0200
0000
,
0310
1000
0002
1003
,
0001
0100
0020
0000
,
1030
0100
2000
0000
,
3001
0100
0001
0100
,
0010
1000
0020
0000
,
1030
1100
0001
0101
,
1000
1001
0110
0000
,
0010
1010
0001
0101
,
0001
1001
1100
0000
,
0010
0110
1000
1001
,
0001
0011
1100
0000
,
0010
1100
0001
0110
,
0001
1100
0110
0000
,
1001
0000
0000
0000
,
1100
1100
0011
0000
,
1000
0010
0100
0001
,
0010
0001
0100
0001
,
1000
0100
1000
0010
,
0100
0001
0010
0001
,
0100
0001
0100
0001
,
1000
0010
1000
0100
,
1000
0010
0100
0001
,
0010
0001
0100
0001
,
1000
0100
1000
0010
,
0100
0001
0010
0001
,
0100
0001
0100
0010
,
1000
0100
1000
0010
,
0100
0001
1000
0001
,
0100
0001
0010
0001
,
1000
0010
0100
0001
,
1000
0001
0100
0001
,
0020
0000
0000
0000
,
0230
0000
0000
0000
,
1300
0001
0200
0000
,
0301
1000
0200
0000
,
0310
0001
0200
0000
,
0310
1000
0020
0130
,
0010
1000
0200
0000
,
0310
0001
2000
0000
,
3001
0100
0001
1000
,
0100
1000
0010
0100
,
0001
0000
0001
0001
,
1000
1100
0100
1100
,
0010
0101
1001
0000
,
0010
1100
0001
1100
,
0001
1100
1100
0000
,
1000
1100
0010
0110
,
0001
1001
1100
0000
,
0010
1010
1000
1100
,
0010
0101
1001
0000
,
0101
0000
0000
0000
,
1001
0110
1001
0000
,
1000
0100
2000
3100
,
0020
0032
0103
0010
,
1000
0001
0200
0310
,
1000
0001
0100
0001
,
1000
0001
0200
0310
,
2000
3002
0103
0010
,
1000
0100
2000
3010
,
0100
0001
0010
0001
,
1000
0001
0200
0301
,
2000
3020
0130
0001
,
1000
0100
2000
3010
,
0100
0001
0010
0001
,
0100
0001
2000
3100
,
2000
3200
1300
0010
,
0100
0001
2000
3001
,
0100
0010
1000
0002
,
1003
0000
0000
0000
;

//---------------dance-single - ----------------
#NOTES:
     dance-single:
     :
     Beginner:
     2:
     0.239,0.265,0.068,0.640,0.000:
1001
0000
0110
0000
,
1001
0000
0110
0000
,
1100
0000
0011
0000
,
0101
0000
1010
0000
,
1001
0000
0000
0000
,
1000
0000
1000
0000
,
0010
0000
0010
0000
,
0100
0000
0100
0000
,
0001
0000
0001
0000
,
0010
0000
0010
0000
,
0001
0000
0001
0000
,
1000
0000
1000
0000
,
0100
0000
0100
0000
,
1001
0000
0000
0000
,
0000
0000
0000
0000
,
0200
0300
0100
0000
,
0020
0030
0010
0000
,
2000
3000
1000
0000
,
0002
0003
0001
0001
,
2000
3000
1000
0000
,
0020
0030
0010
0000
,
0200
0000
0000
0000
,
0000
0000
0300
0000
,
0002
0003
2000
3000
,
0020
0030
0100
0000
,
0002
0003
2000
3000
,
0002
0003
1000
0000
,
0200
0300
2000
3000
,
0020
0030
0100
0000
,
0002
0003
2000
3000
,
0020
0030
0100
0000
,
1001
0000
0000
0000
,
1000
1000
1000
0000
,
0002
0003
2000
3000
,
0020
0030
0200
0300
,
0002
0003
2000
3000
,
0020
0030
0200
0300
,
0002
0003
0020
0030
,
0002
0003
0200
0300
,
0020
0030
2000
3000
,
0020
0030
0200
0300
,
0002
0003
0020
0030
,
0002
0003
2000
3000
,
0200
0300
2000
3000
,
0020
0030
0200
0300
,
0002
0003
2000
3000
,
0002
0003
0020
0030
,
0002
0003
0200
0300
,
0020
0030
2000
3000
,
0002
0000
0000
0000
,
0000
0000
0000
0000
,
0203
0300
0100
0000
,
0020
0030
0010
0000
,
2000
3000
1000
0000
,
0002
0003
0001
0001
,
2000
3000
1000
0000
,
0020
0030
0010
0000
,
0200
0000
0000
0000
,
0000
0000
0300
0000
,
0001
0000
0000
0000
,
2000
3000
2000
3000
,
0020
0000
0030
0000
,
0200
0300
0002
0003
,
2000
0000
3000
0000
,
0020
0030
0200
0300
,
0002
0000
0003
0000
,
2000
3000
0200
0300
,
2000
0000
3000
0000
,
0002
0000
0000
0000
,
1000
1000
1003
0000
,
0200
0000
0320
0000
,
2030
0000
3002
0000
,
0203
0000
0302
0000
,
0023
0000
0032
0000
,
2003
0000
3200
0000
,
2300
0000
3020
0000
,
2030
0000
3002
0000
,
0203
0000
0320
0000
,
0230
0000
0320
0000
,
2030
0000
3002
0000
,
0203
0000
0302
0000
,
0023
0000
0032
0000
,
2003
0000
3200
0000
,
2300
0000
3020
0000
,
2030
0000
3002
0000
,
0203
0000
0320
0000
,
0130
0000
0000
0000
;
