#TITLE:JAEGER BOMB;
#SUBTITLE:;
#ARTIST:L.E.D -G Vs. aCo;
#TITLETRANSLIT:;
#SUBTITLETRANSLIT:;
#ARTISTTRANSLIT:;
#CREDIT:aCo;
#BANNER:jbomb.png;
#BACKGROUND:jbomb-bg.png;
#LYRICSPATH:;
#CDTITLE:kykaCD.png;
#MUSIC:jaeger bomb.mp3;
#OFFSET:0.001;
#SAMPLESTART:23.220;
#SAMPLELENGTH:12.200;
#SELECTABLE:YES;
#DISPLAYBPM:310.000;
#BPMS:0.000=155.000,60.000=620.015,64.000=310.000,72.000=155.000,79.000=310.000;
#STOPS:60.000=1.160
,200.000=0.780
;
#BGCHANGES:;

//---------------dance-single - ----------------
#NOTES:
     dance-single:
     :
     Hard:
     10:
     0.811,0.890,0.283,0.037,0.148:
1001
0000
0000
0000
,
0000
0000
0000
0000
0000
0000
0000
0000
0000
0000
0000
0000
0000
0000
1000
0001
,
1000
0000
0000
0000
,
0000
0000
0000
0000
,
1100
0000
0000
0000
,
0000
0000
0000
0000
0000
0000
0000
0101
,
0000
1001
0000
0000
0000
0000
0000
0000
,
0000
0000
0000
0000
0000
0000
0000
0000
0000
0000
0000
0000
0010
0100
0010
0100
,
0010
0000
0000
0001
0000
0000
1000
0000
0000
0001
0000
0000
0100
0000
0010
0000
,
1000
0000
0000
0100
0000
0000
1000
0000
0000
0010
0000
0000
0100
0000
0001
1000
,
0001
0000
0000
1000
0000
0000
0001
0000
0000
1000
0000
0000
0001
0000
0010
0000
,
0100
0000
0000
1000
0000
0000
0010
0000
0000
0100
0000
0000
0010
1000
0010
1000
,
0010
0000
0000
0100
0000
0000
0001
0000
0000
1000
0000
0000
0010
0000
0100
0000
,
0001
0000
0000
0010
0000
0000
0001
0000
0000
1000
0000
0000
0010
0100
0010
1000
,
0010
0000
0000
0100
0000
0000
0010
0000
0000
0100
0000
0000
0010
0000
1000
0000
,
1001
0000
0000
0000
,
1000
0000
0010
1000
0010
0000
0100
0000
,
0001
1000
0001
0000
1000
0100
1000
0000
,
0010
0000
1000
0000
0010
0000
0000
0100
0001
0000
1000
0000
0001
0000
0100
0000
,
0010
0000
1000
0000
0010
0000
0000
0100
0010
0000
1000
0000
0010
0000
1000
0000
,
0010
1000
0010
0100
,
0101
0000
0000
1001
0000
0000
1001
0000
,
1000
0000
0010
1000
0010
0000
0100
0000
,
0001
0000
1000
0100
1000
0010
0110
0000
,
0000
1001
0000
0000
,
1001
0000
0000
1100
0000
0000
0110
0000
,
0010
1000
0010
0100
,
0001
1000
0001
1000
0010
0100
0010
0100
,
0010
0000
0000
1000
0000
0000
0010
0000
,
0110
0000
0000
0010
0000
0000
1000
0000
,
0011
0000
1001
0000
,
1000
0000
0000
0010
0000
0000
0100
0010
,
1000
0000
0000
0001
0000
0000
1000
0000
,
0010
0000
0000
0100
0000
0000
0010
0000
,
1100
1000
1010
1000
,
0110
0010
1010
0010
,
1001
0000
1000
0100
0010
0100
1000
0000
,
0001
0000
0100
0000
0010
1000
0001
0100
,
0010
0000
1000
0100
0010
0000
0001
0000
,
1000
0010
0100
0000
0001
0100
0001
1000
,
0010
0000
1000
0001
1000
0010
1000
0000
,
0010
0000
0100
0000
0010
0100
0010
1000
,
0010
0000
1000
0010
1000
0000
0001
0000
,
1000
0100
1000
0000
0001
0010
0001
1000
,
0001
0000
1000
0010
1000
0001
1000
0000
,
0010
0000
0100
0000
0010
0100
0001
0100
,
0010
0000
1000
0010
0100
0000
0001
0000
,
1000
0010
1000
0000
0100
1000
0010
0001
,
0010
0100
0010
0100
0001
1000
0001
1000
,
0010
1000
0010
1000
0001
0100
0001
0100
,
0002
0000
1003
0010
,
1001
0000
0001
1000
0001
0000
0100
0000
,
0010
1000
0010
1000
0010
0000
0100
0000
,
0001
0000
1000
0100
1000
0010
0100
0000
,
0010
1000
0010
0000
0100
0001
0100
0000
,
0001
1000
0100
1000
0000
0010
1000
0010
,
0100
0010
0000
1000
0001
0100
0001
0000
,
1000
0100
0010
0001
0000
0100
0010
1000
,
0001
0100
0000
0001
1000
0001
0100
0000
,
0001
0000
1000
0010
0100
0000
0001
0000
,
1000
0100
0010
0100
1000
0000
0100
0000
,
0001
0000
0100
1000
0010
0100
0010
0000
,
1000
0001
0100
0000
0001
1000
0100
0000
,
0010
0001
0100
0001
0000
1000
0100
1000
,
0010
1000
0000
0001
0100
0010
1000
0000
,
0001
1000
0100
1000
0000
0010
0100
0001
,
0010
0001
0000
1000
0100
1000
0010
0000
,
0010
0000
1000
0001
1000
0000
0010
0000
,
0100
0001
0100
0001
0100
0000
0010
0000
,
1000
0000
0001
0010
0001
0100
0010
0000
,
0100
0001
0100
0000
0010
1000
0010
0000
,
1000
0001
0010
0001
0000
0100
0001
0100
,
0010
0100
0000
0001
1000
0010
1000
0000
,
0001
0010
0100
1000
0000
0010
0100
0001
,
1000
0010
0000
1000
0001
1000
0010
0000
,
1000
0000
0001
0100
0010
0000
1000
0000
,
0001
0010
0100
0010
0001
0000
0010
0000
,
1000
0000
0010
0001
0100
0010
0100
0000
,
0001
1000
0010
0000
1000
0001
0010
0000
,
0100
1000
0010
1000
0000
0001
0010
0001
,
0100
0001
0000
1000
0010
0100
0001
0000
,
1000
0001
0010
0001
0000
0100
0010
1000
,
0100
1000
0000
0001
0010
0001
0100
0001
,
2002
0000
0000
0000
,
0000
0000
0000
0000
,
3003
0000
0000
0000
;

//---------------dance-single - ----------------
#NOTES:
     dance-single:
     :
     Challenge:
     11:
     0.940,1.000,0.480,0.148,0.166: // measure 1
2020
0000
0000
0000
,  // measure 2
0000
0000
0000
0000
0000
0000
0000
0000
3030
0000
0000
0000
0000
0000
0010
1000
,  // measure 3
2020
0000
0000
0000
,  // measure 4
0000
0000
0000
3030
,  // measure 5
0220
0000
0000
0000
,  // measure 6
0000
0000
0000
0000
0330
0000
0000
1100
,  // measure 7
0000
0022
0000
0000
0000
0000
0000
0000
,  // measure 8
0000
0000
0000
0000
0000
0000
0000
0000
0033
0000
0000
0000
1000
0100
1000
0100
,  // measure 9
1000
0000
0000
0010
0000
0000
0100
0000
0000
0001
0000
0000
0010
0000
0001
0000
,  // measure 10
1000
0000
0000
0010
0000
0000
0100
0000
0000
0010
0000
0000
1000
0000
0001
0010
,  // measure 11
0001
0000
0000
0100
0000
0000
0001
0000
0000
1000
0000
0000
0100
0000
0010
0000
,  // measure 12
0001
0000
0000
1000
0000
0000
0010
0000
0000
0100
0000
0000
0001
0100
1000
0100
,  // measure 13
0001
0000
0000
1000
0000
0000
0010
0000
0000
1000
0000
0000
0001
0000
0100
0000
,  // measure 14
0010
0000
0000
1000
0000
0000
0001
0000
0000
0100
0000
0000
0010
1000
0001
1000
,  // measure 15
0001
0000
0000
1000
0000
0000
0010
0000
0000
1000
0000
0000
0001
0000
0100
0000
,  // measure 16
2002
0000
0000
0000
0000
0000
0000
3003
,  // measure 17
0100
0000
0010
0100
0001
0000
1000
0010
,  // measure 18
1000
0100
1000
0001
1000
0010
0100
0001
,  // measure 19
1000
0000
0001
0010
0001
0000
0000
0100
0010
0000
1000
0000
0001
0000
1000
0010
,  // measure 20
1000
0000
0001
0010
0001
0000
0000
0100
0010
0000
1000
0000
0001
0000
0010
0000
,  // measure 21
0001
0100
0001
1000
0100
1000
0010
0000
,  // measure 22
1010
0000
0000
1001
0000
0000
0110
0000
,  // measure 23
1000
0000
0001
0100
0010
0000
0100
0000
,  // measure 24
0001
0000
1000
0010
1000
0001
0011
0000
,  // measure 25
0000
1010
1001
0000
,  // measure 26
0011
0000
0000
1010
0000
0000
1001
0000
,  // measure 27
1000
0001
1000
0010
,  // measure 28
1000
0010
1000
0100
1000
0010
0100
0001
,  // measure 29
1001
0000
0000
0101
0000
0000
0110
0000
,  // measure 30
1001
0000
0000
1010
0000
0000
1001
0000
,  // measure 31
0011
0000
1001
0000
,  // measure 32
0011
0000
0000
0110
0000
0000
0001
1000
,  // measure 33
1010
0000
0000
0001
0000
0000
0100
0000
,  // measure 34
0110
0000
0000
0100
0000
0000
0001
0000
,  // measure 35
1001
0000
0011
0000
,  // measure 36
1100
0100
1000
0010
1010
0100
0001
0100
,  // measure 37
1001
0000
0001
0100
0001
0100
0010
0000
,  // measure 38
1000
0001
1000
0010
0100
0001
0100
0001
,  // measure 39
1000
0100
1000
0010
1000
0001
1000
0000
,  // measure 40
0001
0100
0010
0100
0001
1000
0010
1000
,  // measure 41
1001
0000
1000
0010
1000
0010
0100
0000
,  // measure 42
0001
1000
0001
0100
0010
1000
0010
1000
,  // measure 43
0001
0010
0001
0100
0001
1000
0001
0000
,  // measure 44
1000
0010
0100
0010
1000
0001
0100
0001
,  // measure 45
1001
0000
0001
0100
0001
0100
0010
0000
,  // measure 46
1000
0001
1000
0010
0100
0001
0100
0001
,  // measure 47
0100
0000
0001
1000
0001
0100
0001
1000
,  // measure 48
0100
1000
0010
0100
0010
0000
1000
0000
,  // measure 49
0001
0100
0010
0100
0001
1000
0010
1000
,  // measure 50
0100
1000
0010
1000
0001
0010
0001
0100
,  // measure 51
0110
0000
1001
0110
,  // measure 52
1001
0000
0001
0100
0010
0100
0001
0000
,  // measure 53
1000
0010
1000
0001
1000
0001
0100
0001
,  // measure 54
0100
0000
0010
1000
0001
0010
0001
0000
,  // measure 55
0100
0010
0100
0001
1000
0100
1000
0010
,  // measure 56
1000
0100
1000
0100
0000
1000
0010
1000
,  // measure 57
0010
1000
0000
0010
0100
0001
1000
0000
,  // measure 58
0001
1000
0001
0010
0000
0100
0001
0100
,  // measure 59
1000
0100
0000
0010
1000
0010
0001
0010
,  // measure 60
0001
0000
1000
0001
0100
0001
1000
0000
,  // measure 61
0001
0100
0010
1000
0001
0010
0100
1000
,  // measure 62
0010
0000
0100
0001
1000
0100
1000
0000
,  // measure 63
0010
1000
0001
1000
0100
0010
0001
1000
,  // measure 64
0100
0010
0001
1000
0000
0010
1000
0010
,  // measure 65
0100
0010
0000
0100
0001
1000
0001
0000
,  // measure 66
1000
0100
1000
0001
0000
1000
0001
0100
,  // measure 67
0001
0010
0000
0001
0010
0100
1000
0001
,  // measure 68
1000
0000
0001
0100
0001
1000
0001
0000
,  // measure 69
0100
0010
1000
0100
1000
0001
0010
0001
,  // measure 70
0100
0000
0010
1000
0010
0100
0001
0000
,  // measure 71
0100
0001
1000
0001
0010
0100
1000
0100
,  // measure 72
1000
0001
0100
0001
0000
1000
0010
0100
,  // measure 73
0010
1000
0000
0001
0010
0001
1000
0000
,  // measure 74
0001
0100
0001
0010
0000
0001
1000
0010
,  // measure 75
1000
0100
0000
1000
0001
1000
0100
0010
,  // measure 76
0001
0000
1000
0001
0100
0010
1000
0000
,  // measure 77
0001
0100
0010
1000
0100
1000
0001
1000
,  // measure 78
0010
0000
0100
0001
0100
0010
1000
0000
,  // measure 79
0001
0100
0010
1000
0001
0010
0100
1000
,  // measure 80
0001
0010
0100
1000
0000
0010
1000
0010
,  // measure 81
0100
0001
0000
1000
0100
0010
0001
0000
,  // measure 82
1000
0001
0010
0100
0000
0010
0100
0010
,  // measure 83
0001
0010
0000
0100
1000
0100
0001
0100
,  // measure 84
2002
0000
0000
0000
,  // measure 85
0000
0000
0000
0000
,  // measure 86
3003
0000
0000
0000
;

//---------------dance-double - ----------------
#NOTES:
     dance-double:
     :
     Hard:
     10:
     0.746,0.883,0.074,0.025,0.677:
00000000
00000000
00000000
00000000
,
00000000
00000000
00000000
00000000
00000000
00000000
00000000
00000000
00000000
00000000
00000000
00000000
00000000
10000000
01000000
10000000
,
00000000
00000000
00000000
01000000
00000000
00000000
00000000
00100000
00000000
00000000
00000000
00010000
00000000
00000000
00000000
00001000
,
00000000
00000000
00000000
00000100
00000000
00000000
00000000
00000010
00000000
00000000
00000000
00000001
00000000
00000000
00000000
00011000
,
00000000
00000000
00000000
00000000
00000000
00010000
00000000
00000000
00000000
01000000
00000000
00000000
00000000
00100000
00000000
00000000
,
00000000
00000000
00000000
00010000
00000000
00000000
00000000
00000000
00000000
00000000
00000000
00000000
00000100
00000000
00000000
00000000
,
00000000
00000010
00000000
00001000
00000000
00000000
00000000
00000000
00000000
00000000
00000000
00010000
00000000
00000000
00000000
00000000
,
00000000
00000000
00000000
01000000
00000000
00000000
00000000
00000000
00000000
00000000
00000000
00010000
10000000
00010000
10000000
00010000
,
00000000
00000000
01000000
00000000
00000000
00100000
00000000
00000000
00010000
00000000
00000000
00001000
00000000
00010000
00000000
00001000
,
00000000
00000000
00000100
00000000
00000000
00000010
00000000
00000000
00000001
00000000
00000000
00000010
00000001
00000010
00000001
00000010
,
00000000
00000000
00000100
00000000
00000000
00001000
00000000
00000000
00100000
00000000
00000000
01000000
00000000
00010000
00000000
10000000
,
00000000
00000000
01000000
00000000
00000000
00100000
00000000
00000000
10000000
00000000
00000000
01000000
10000000
00010000
10000000
00010000
,
00000000
00000000
00001000
00000000
00000000
00001000
00000000
00000000
00000100
00000000
00000000
00000001
00000000
00000100
00000000
00000010
,
00000000
00000000
00001000
00000000
00000000
00010000
00000000
00000000
01000000
00000000
00000000
10000000
00100000
10000000
00100000
10000000
,
00000000
00000000
01000000
00000000
00000000
01000000
00000000
00000000
00000000
10000000
00000000
01000000
00000000
00010000
00000000
00022000
,
00033000
00000000
00000000
00000000
00000000
00010000
00000000
00001000
,
00010000
00001000
00000000
00100000
00000000
00010000
00000000
00100000
,
01000000
00000000
10000000
00000000
01000000
00000000
00100000
00000000
00100000
01000000
00100000
01000000
10000000
00000000
10000000
00010000
,
10000000
00000000
01000000
00000000
00100000
00000000
00010000
00000000
00001000
00000100
00000010
00000000
00000001
00000000
00000000
00000000
,
00000010
00000100
00001000
00000000
00010000
00000000
01000000
00000000
00100000
00000000
01000000
00000000
00000000
00000000
00000000
00000000
,
10000000
01000000
00100000
01000000
10000000
00010000
00100000
01000000
,
10000000
01000000
00100000
00000000
00000000
01000000
00000000
00010000
,
00000000
00001000
00000000
00000010
00000000
00000010
00000000
00000100
,
00000000
00001000
00000000
00001000
00000000
00000000
00000100
00000000
,
00000000
00000000
00001000
00000010
00001000
00000100
00001000
00000100
,
00001000
00000100
00000010
00000001
00000000
00000000
00000000
00000000
,
00000000
00000000
00000000
00010000
00001000
00010000
00000100
00010000
,
00001000
00100000
00001000
00010000
00000000
00010000
00000000
00100000
,
00000000
01000000
00000000
10000000
00000000
00100000
00000000
10000000
,
00000000
01000000
00000000
00100000
00000000
00010000
00000000
00001000
,
00000000
00000100
00000000
00010000
00000000
01000000
00000000
10000000
,
00000000
01000000
00000000
10010000
00000000
00100000
00000000
00010000
,
00000000
00001000
00000000
00000110
00000000
00001000
00000000
00000100
,
00000000
00000010
00000000
00001001
00000000
00000100
00000000
00001000
,
00000000
00010000
00000000
10000000
01000000
10000000
00100000
10000000
,
01000000
00000000
10000000
00000000
00010000
00000000
00000000
01000000
00010000
01000000
00000000
00010000
00000000
01000000
00000000
01000000
,
00000000
00010000
00000000
00001000
00000000
00001000
00000000
00000100
00000010
00000100
00000000
00000001
00000000
00000010
00000000
00000100
,
00000000
00000010
00000000
00001000
00000000
00001000
00000000
00010000
00001000
00010000
00000000
00100000
00000000
00010000
00000000
00100000
,
00000000
01000000
00000000
00100000
00000000
00010000
00000000
00100000
00010000
00100000
00000000
00001000
00000000
00001000
00000000
00000100
,
00000000
00000010
00000000
00000001
00000100
00000001
00000000
00000100
00000000
00001000
00000000
00010000
00000000
00001000
00000000
00010000
,
00100000
00010000
00000000
00100000
00000000
01000000
00000000
10000000
00000000
01000000
00000000
10000000
00000000
00100000
00000000
00010000
,
00100000
00010000
00000000
01000000
00000000
00010000
00000000
00010000
00000000
00001000
00000000
00000100
00000000
00000010
00000000
00001000
,
00000000
00000100
00000010
00000001
00000000
00000000
00000011
00000000
00000000
00000000
00000000
00000000
00000100
00000000
00001000
00000000
,
00000100
00010000
00100000
00100000
,
00010000
00000000
00001000
00000000
00000100
00000010
00000100
00000000
,
00000001
00000001
00000010
00000100
,
00001000
00000000
00000100
00000000
00000010
00000100
00000010
00000001
,
00000000
00000010
00000100
00001000
00000100
00000010
00000000
00000001
,
00000010
00000100
00001000
00000000
00000001
00000010
00000001
00000010
,
00000000
00001000
00000100
00000010
00000001
00000010
00000000
00000100
,
00001000
00000100
00001000
00010000
00100000
00000000
01000000
00000000
,
10000000
00000000
00100000
00000000
,
01000000
00000000
00010000
00000000
,
01000000
00100000
10000000
01000000
,
10000000
00010000
01000000
00100000
,
10000000
00000000
00010000
00000000
10000000
00010000
01000000
00100000
,
00000000
00010000
00100000
01000000
00100000
00010000
00000000
10000000
,
01000000
00100000
00010000
00000000
10000000
01000000
10000000
01000000
,
00000000
00100000
01000000
00010000
00100000
01000000
00000000
00100000
,
01000000
00100000
01000000
00000000
00010000
00000000
00001000
00000000
,
00000100
00001000
00010000
00100000
,
00010000
00001000
00000100
00000010
,
00000001
00001000
00001000
00000010
,
00000010
00000000
00001000
00000000
00000100
00001000
00000100
00001000
,
00000000
00000100
00001000
00000100
00001000
00000100
00000000
00000010
,
00000100
00000010
00000001
00000000
00000001
00000010
00000100
00000010
,
00000000
00001000
00000100
00001000
00000100
00001000
00000000
00001000
,
00010000
00001000
00100000
00010000
00100000
00000000
00100000
00000000
,
00010000
00010000
10000000
01000000
,
00100000
00010000
10000000
01000000
,
10000000
00100000
10000000
01000000
,
00100000
00000000
00010000
00000000
01000000
00100000
01000000
00010000
,
00000000
10000000
01000000
10000000
00010000
00100000
00000000
01000000
,
10000000
00100000
10000000
00000000
01000000
10000000
00010000
10000000
,
00000000
01000000
00100000
00010000
00100000
01000000
00000000
10000000
,
00010000
10000000
01000000
00000000
00010000
00000000
00000000
00000000
;

//---------------dance-double - Copied from----------------
#NOTES:
     dance-double:
     Copied from:
     Challenge:
     11:
     0.781,1.000,0.074,0.025,0.677:
00000000
00000000
00000000
00000000
,
00000000
00000000
00000000
00000000
00000000
00000000
00000000
00000000
00000000
00000000
00000000
00000000
00000000
10000000
01000000
10000000
,
00000000
00000000
00000000
01000000
00000000
00000000
00000000
00100000
00000000
00000000
00000000
00010000
00000000
00000000
00000000
00001000
,
00000000
00000000
00000000
00000100
00000000
00000000
00000000
00000010
00000000
00000000
00000000
00000001
00000000
00000000
00000000
00011000
,
00000000
00000000
00000000
00000000
00000000
00010000
00000000
00000000
00000000
01000000
00000000
00000000
00000000
00100000
00000000
00000000
,
00000000
00000000
00000000
00010000
00000000
00000000
00000000
00000000
00000000
00000000
00000000
00000000
00000100
00000000
00000000
00000000
,
00000000
00000010
00000000
00001000
00000000
00000000
00000000
00000000
00000000
00000000
00000000
00010000
00000000
00000000
00000000
00000000
,
00000000
00000000
00000000
01000000
00000000
00000000
00000000
00000000
00000000
00000000
00000000
00010000
10000000
00010000
10000000
00010000
,
00000000
00000000
01000000
00000000
00000000
00100000
00000000
00000000
00010000
00000000
00000000
00001000
00000000
00010000
00000000
00001000
,
00000000
00000000
00000100
00000000
00000000
00000010
00000000
00000000
00000001
00000000
00000000
00000010
00000001
00000010
00000001
00000010
,
00000000
00000000
00000100
00000000
00000000
00001000
00000000
00000000
00100000
00000000
00000000
01000000
00000000
00010000
00000000
10000000
,
00000000
00000000
01000000
00000000
00000000
00100000
00000000
00000000
10000000
00000000
00000000
01000000
10000000
00010000
10000000
00010000
,
00000000
00000000
00001000
00000000
00000000
00001000
00000000
00000000
00000100
00000000
00000000
00000001
00000000
00000100
00000000
00000010
,
00000000
00000000
00001000
00000000
00000000
00010000
00000000
00000000
01000000
00000000
00000000
10000000
00100000
10000000
00100000
10000000
,
00000000
00000000
01000000
00000000
00000000
01000000
00000000
00000000
00000000
10000000
00000000
01000000
00000000
00010000
00000000
00022000
,
00033000
00000000
00000000
00000000
00000000
00010000
00000000
00001000
,
00010000
00001000
00000000
00100000
00000000
00010000
00000000
00100000
,
01000000
00000000
10000000
00000000
01000000
00000000
00100000
00000000
00100000
01000000
00100000
01000000
10000000
00000000
10000000
00010000
,
10000000
00000000
01000000
00000000
00100000
00000000
00010000
00000000
00001000
00000100
00000010
00000000
00000001
00000000
00000000
00000000
,
00000010
00000100
00001000
00000000
00010000
00000000
01000000
00000000
00100000
00000000
01000000
00000000
00000000
00000000
00000000
00000000
,
10000000
01000000
00100000
01000000
10000000
00010000
00100000
01000000
,
10000000
01000000
00100000
00000000
00000000
01000000
00000000
00010000
,
00000000
00001000
00000000
00000010
00000000
00000010
00000000
00000100
,
00000000
00001000
00000000
00001000
00000000
00000000
00000100
00000000
,
00000000
00000000
00001000
00000010
00001000
00000100
00001000
00000100
,
00001000
00000100
00000010
00000001
00000000
00000000
00000000
00000000
,
00000000
00000000
00000000
00010000
00001000
00010000
00000100
00010000
,
00001000
00100000
00001000
00010000
00000000
00010000
00000000
00100000
,
00000000
01000000
00000000
10000000
00000000
00100000
00000000
10000000
,
00000000
01000000
00000000
00100000
00000000
00010000
00000000
00001000
,
00000000
00000100
00000000
00010000
00000000
01000000
00000000
10000000
,
00000000
01000000
00000000
10010000
00000000
00100000
00000000
00010000
,
00000000
00001000
00000000
00000110
00000000
00001000
00000000
00000100
,
00000000
00000010
00000000
00001001
00000000
00000100
00000000
00001000
,
00000000
00010000
00000000
10000000
01000000
10000000
00100000
10000000
,
01000000
00000000
10000000
00000000
00010000
00000000
00000000
01000000
10000000
01000000
00000000
10000000
00010000
10000000
00000000
00010000
,
01000000
00010000
00000000
00001000
00010000
00001000
00000000
00000100
00000010
00000100
00000000
00000001
00000100
00000001
00000000
00000010
,
00000100
00000010
00000000
00001000
00000100
00001000
00000000
00010000
00001000
00010000
00000000
00100000
00010000
00100000
00000000
01000000
,
00100000
01000000
00000000
00100000
01000000
00100000
00000000
00100000
00010000
00100000
00000000
00001000
00010000
00001000
00000000
00000100
,
00000010
00000100
00000000
00000001
00000100
00000001
00000000
00000100
00001000
00000100
00000000
00001000
00010000
00001000
00000000
00010000
,
00100000
00010000
00000000
00100000
10000000
00100000
00000000
01000000
10000000
00100000
00000000
10000000
01000000
10000000
00000000
00010000
,
00100000
00010000
00000000
01000000
00100000
00010000
00000000
01000000
00100000
01000000
00010000
00001000
00010000
00001000
00100000
00001000
,
00010000
00000100
00000010
00000001
00000000
00000000
00000011
00000000
00000000
00000000
00000000
00000000
00000100
00000000
00001000
00000000
,
00010000
01000000
01000000
00100000
,
00010000
00000000
00001000
00000000
00000100
00000010
00000100
00000000
,
00000001
00000001
00000010
00000100
,
00001000
00000000
00000100
00000000
00000010
00000100
00000010
00000001
,
00000000
00000010
00000100
00001000
00000100
00000010
00000000
00000001
,
00000010
00000100
00001000
00000000
00000001
00000010
00000001
00000010
,
00000000
00001000
00000100
00000010
00000001
00000010
00000000
00000100
,
00001000
00010000
00001000
00010000
00100000
00000000
01000000
00000000
,
10000000
00000000
00100000
00000000
,
01000000
00000000
00010000
00000000
,
01000000
00100000
10000000
01000000
,
10000000
00010000
01000000
00100000
,
10000000
00000000
00010000
00000000
10000000
00010000
01000000
00100000
,
00000000
00010000
00100000
01000000
00100000
00010000
00000000
10000000
,
01000000
00100000
00010000
00000000
10000000
01000000
10000000
01000000
,
00000000
00100000
00010000
00010000
00100000
01000000
00000000
00100000
,
01000000
00100000
01000000
00000000
00010000
00000000
00001000
00000000
,
00000100
00001000
00010000
00100000
,
00010000
00001000
00000100
00000010
,
00000001
00001000
00001000
00000010
,
00000010
00000000
00001000
00000000
00000100
00001000
00000100
00001000
,
00000000
00000100
00001000
00000100
00001000
00000000
00000000
00000000
,
00000100
00000010
00000001
00000000
00000001
00000010
00000100
00000010
,
00000000
00001000
00000100
00001000
00000001
00000010
00000000
00000100
,
00001000
00010000
00010000
00001000
00100000
00000000
00100000
00000000
,
00001000
00010000
10000000
01000000
,
00100000
00010000
10000000
01000000
,
10000000
00100000
10000000
01000000
,
00100000
00000000
00010000
00000000
01000000
00100000
01000000
00010000
,
00000000
10000000
01000000
10000000
00010000
00100000
00000000
01000000
,
10000000
00100000
10000000
00000000
01000000
10000000
00010000
10000000
,
00000000
01000000
00100000
00010000
00100000
01000000
00000000
10000000
,
00010000
10000000
01000000
00000000
00010000
00000000
00000000
00000000
;

//---------------dance-single - ----------------
#NOTES:
     dance-single:
     :
     Medium:
     7:
     0.586,0.733,0.234,0.025,0.043:
1001
0000
0000
0000
,
0000
0000
0000
0000
0000
0000
0000
1000
,
0010
0000
0000
0000
,
0000
0000
0000
0000
,
1001
0000
0000
0000
,
0000
0000
0000
0000
0000
0000
0000
1001
,
0000
1001
0000
0000
0000
0000
0000
0000
,
0000
0000
0000
0000
0000
0000
1000
0010
,
1000
0000
0000
0001
0000
0000
0010
0000
0000
0000
0000
0000
0001
0000
0100
0000
,
0001
0000
0000
1000
0000
0000
0010
0000
0000
0000
0000
0000
1000
0000
0010
0000
,
1000
0000
0000
0010
0000
0000
0100
0000
0000
0000
0000
0000
0010
0000
1000
0000
,
0001
0000
0000
1000
0000
0000
0001
0000
0000
0000
0000
0000
1000
0000
0100
0000
,
1000
0000
0000
0001
0000
0000
0010
0000
0000
0000
0000
0000
0001
0000
0100
0000
,
0001
0000
0000
1000
0000
0000
0010
0000
0000
0000
0000
0000
1000
0000
0100
0000
,
1000
0000
0000
0001
0000
0000
0100
0000
0000
0000
0000
0000
0010
0000
0100
0000
,
0110
0000
0000
0000
,
1001
1000
0010
0100
,
0001
1000
0001
0100
,
0001
1000
0100
0000
1000
0010
0100
0000
,
0010
1000
0001
0000
0100
0001
1000
0000
,
0010
0100
0010
1000
,
0001
0100
0001
0010
,
0001
0100
0001
1000
,
0010
0100
0001
1100
,
0000
0011
0000
0000
,
1000
0000
0000
0010
0000
0000
0100
0000
,
0010
0000
0000
1000
0000
0000
0001
0000
,
0100
0010
1000
0001
,
0100
0000
0000
0001
0000
0000
0010
0000
,
0001
0000
0000
0100
0000
0000
0010
0000
,
1000
0000
1001
0000
,
0001
0000
0000
1000
0000
0000
0010
0000
,
0100
0000
0000
0010
0000
0000
1000
0000
,
0001
0000
0000
0010
0000
0000
0001
0000
,
0101
0000
1001
0000
,
1100
0000
0110
0000
,
1001
0100
0010
1000
,
0001
0100
0001
0010
,
0001
1000
0100
1000
,
0010
0100
0010
1000
,
0001
0100
0001
1000
,
0100
1000
0010
0100
,
0001
1000
0100
1000
,
0010
0100
0001
1000
,
0100
1000
0010
0100
,
0001
1000
0001
0100
,
0001
1000
0100
1000
,
0010
0100
0010
1000
,
0001
1000
0001
0000
0100
0010
0100
0000
,
0010
1000
0010
0000
0100
0001
0100
0000
,
1001
0000
1000
0100
,
1100
0000
0001
1000
0001
0000
0100
0000
,
0010
1000
0100
1000
,
0110
0000
0010
1000
0010
0000
0100
0000
,
0001
1000
0001
1000
,
0010
0000
1000
0001
0000
0000
1000
0000
,
0010
1000
0000
0000
0010
0000
0100
0001
,
0000
0000
1000
0000
0100
1000
0000
0000
,
0001
0100
0001
1000
,
0010
0000
1000
0100
1000
0000
0010
0000
,
0100
0001
1000
0001
,
1000
0000
0010
0100
0010
0000
1000
0000
,
0001
0100
0001
0010
,
0001
0000
1000
0100
0000
0000
0010
0000
,
0100
1000
0000
0000
0010
0000
0100
0001
,
0000
0000
0001
0000
0010
0001
0000
0000
,
1000
0010
1000
0001
,
1000
0000
0001
1000
0001
0000
0100
0000
,
0010
1000
0100
1000
,
0110
0000
0010
1000
0010
0000
0100
0000
,
0001
1000
0001
1000
,
0010
0000
1000
0001
0000
0000
1000
0000
,
0010
1000
0000
0000
0010
0000
0100
0001
,
0000
0000
1000
0000
0100
1000
0000
0000
,
0001
0100
0001
1000
,
0010
0000
1000
0100
1000
0000
0010
0000
,
0100
0001
1000
0001
,
1000
0000
0010
0100
0010
0000
1000
0000
,
0001
0100
0001
0010
,
0001
0000
1000
0100
0000
0000
0010
0000
,
0100
1000
0000
0000
0010
0000
0100
0001
,
0000
0000
0001
0000
0010
0001
0000
0000
,
1000
0010
1000
0001
,
2002
0000
0000
0000
,
0000
0000
0000
0000
,
3003
0000
0000
0000
;

//---------------dance-single - ----------------
#NOTES:
     dance-single:
     :
     Easy:
     5:
     0.352,0.523,0.172,0.012,0.000:
1001
0000
0000
0000
,
0000
0000
0000
0000
,
1100
0000
0000
0000
,
0000
0000
0000
0000
,
1001
0000
0000
0000
,
0000
0000
0000
0000
0000
0000
0000
1000
,
0000
0010
0000
0000
0000
0000
0000
0000
,
0000
0000
0000
1000
,
0010
0000
0000
1000
0000
0000
0001
0000
,
0100
0000
0000
0010
0000
0000
1000
0100
,
1000
0000
0000
0010
0000
0000
0100
0000
,
0001
0000
0000
0010
0000
0000
0001
1000
,
0001
0000
0000
0100
0000
0000
0010
0000
,
1000
0000
0000
0010
0000
0000
0100
0001
,
1000
0000
0000
0001
0000
0000
1000
0001
,
1001
0000
0000
0000
,
1000
0000
0010
0000
,
0100
0010
1000
0001
,
1000
0000
0001
0000
0100
0000
0001
1000
,
0010
1000
0010
1000
,
0001
0000
0000
0000
,
1001
0000
0000
1100
,
0000
0000
0000
0000
,
0000
0000
0000
1001
,
0000
0110
0000
0000
,
1000
0000
0000
0000
,
0001
0000
0000
0000
,
0100
0001
1000
0001
,
1000
0000
0000
0000
,
0001
0000
0000
0000
,
0100
0000
0001
0000
,
1000
0000
0000
0000
,
0001
0000
0000
0000
,
0100
0000
0000
0000
,
1001
0000
1100
0000
,
1001
0000
0101
0000
,
1001
0000
1000
0000
,
0010
0000
0100
0000
,
0001
0000
1000
0000
,
0001
0000
0010
0000
,
0001
0000
0100
0000
,
0001
0000
1000
0000
,
0100
0000
1000
0000
,
0010
0000
0100
0000
,
0010
0000
1000
0000
,
0001
0000
0010
0000
,
0001
0000
0100
0000
,
0001
0000
1000
0000
,
0100
0010
1000
0010
,
0001
0100
0001
1000
,
1001
0000
1000
0001
,
1000
0000
0010
0000
,
0100
0000
0001
0000
,
1000
0000
0100
0000
,
1000
0000
0010
0000
,
0100
0000
0000
0001
0000
0000
1000
0000
,
0000
0010
0000
0000
0100
0000
0000
0010
,
0000
0000
1000
0000
0000
0001
0000
0000
,
0100
0001
1000
0100
,
1000
0000
0010
0000
,
0100
0000
0001
0000
,
0010
0000
0001
0000
,
1000
0000
0001
0000
,
1000
0000
0000
0010
0000
0000
1000
0000
,
0000
0001
0000
0000
0010
0000
0000
0001
,
0000
0000
0100
0000
0000
0001
0000
0000
,
1000
0100
0010
0001
,
1000
0000
0010
0000
,
0100
0000
0001
0000
,
1000
0000
0100
0000
,
1000
0000
0010
0000
,
0100
0000
0000
0001
0000
0000
1000
0000
,
0000
0010
0000
0000
0100
0000
0000
0010
,
0000
0000
1000
0000
0000
0001
0000
0000
,
0100
0001
1000
0100
,
1000
0000
0010
0000
,
0100
0000
0001
0000
,
0010
0000
0001
0000
,
1000
0000
0001
0000
,
1000
0000
0000
0010
0000
0000
1000
0000
,
0000
0001
0000
0000
0010
0000
0000
0001
,
0000
0000
0100
0000
0000
0001
0000
0000
,
1000
0100
0010
0001
,
2000
0000
0000
0000
,
0000
0000
0000
0000
,
3000
0000
0000
0000
;

//---------------dance-single - ----------------
#NOTES:
     dance-single:
     :
     Beginner:
     2:
     0.146,0.209,0.000,0.062,0.000:
2000
0000
0000
0000
,
0000
0000
0000
0000
,
3002
0000
0000
0000
,
0000
0000
0000
0000
,
0203
0000
0000
0000
,
0000
0000
0000
0000
0000
0000
0000
0320
,
0000
0000
0000
0000
,
0000
0000
0000
0000
,
1030
0000
0000
0000
,
0001
0000
0000
0000
,
0100
0000
0000
0000
,
0010
0000
0000
0000
,
1000
0000
0000
0000
,
0001
0000
0000
0000
,
0100
0000
0000
0000
,
0001
0000
0000
0000
,
0000
0000
0000
0000
,
0000
0000
0000
0000
,
1000
0000
0000
0000
,
0010
0000
0000
0000
,
0000
0000
0000
0000
,
0001
0000
0000
0000
,
1000
0000
0000
0000
,
0001
0000
0000
0000
,
0100
0000
0000
0000
,
0001
0000
0000
0000
,
1000
0000
0000
0000
,
0100
0000
0000
0000
,
1000
0000
0000
0000
,
0010
0000
0000
0000
,
0100
0000
0000
0000
,
0001
0000
0000
0000
,
1000
0000
0000
0000
,
0001
0000
0000
0000
,
0100
0000
0000
0000
,
0001
0000
0000
0000
,
1000
0000
0000
0000
,
0001
0000
0000
0000
,
0100
0000
0000
0000
,
0001
0000
0000
0000
,
1000
0000
0000
0000
,
0010
0000
0000
0000
,
1000
0000
0000
0000
,
0010
0000
0000
0000
,
0100
0000
0000
0000
,
0001
0000
0000
0000
,
1000
0000
0000
0000
,
0001
0000
0000
0000
,
0100
0000
0000
0000
,
0001
0000
0000
0000
,
0010
0000
0001
0000
,
1000
0000
0000
0000
,
0001
0000
0000
0000
,
0100
0000
0000
0000
,
0001
0000
0000
0000
,
1000
0000
0000
0000
,
0100
0000
0000
0000
,
1000
0000
0000
0000
,
0010
0000
0000
0000
,
0100
0000
0000
0000
,
0001
0000
0000
0000
,
1000
0000
0000
0000
,
0001
0000
0000
0000
,
0100
0000
0000
0000
,
0001
0000
0000
0000
,
0010
0000
0000
0000
,
0001
0000
0000
0000
,
1000
0000
0000
0000
,
0100
0000
0000
0000
,
1000
0000
0000
0000
,
0010
0000
0000
0000
,
0100
0000
0000
0000
,
0001
0000
0000
0000
,
0010
0000
0000
0000
,
0001
0000
0000
0000
,
1000
0000
0000
0000
,
0100
0000
0000
0000
,
0010
0000
0000
0000
,
0001
0000
0000
0000
,
0100
0000
0000
0000
,
0010
0000
0000
0000
,
1000
0000
0000
0000
,
0001
0000
0000
0000
,
0200
0000
0000
0000
,
0000
0000
0000
0000
,
0300
0000
0000
0000
;
