#TITLE:IT'S A SMALL WORLD;
#SUBTITLE:(Ducking Hardcore MIX)(FROM NONSTOP MEGAMIX);
#ARTIST:TOMOSUKE / U1-ASAMi;
#TITLETRANSLIT:;
#SUBTITLETRANSLIT:;
#ARTISTTRANSLIT:;
#CREDIT:;
#BANNER:IT'S A SMALL WORLD (Ducking Hardcore MIX).png;
#BACKGROUND:IT'S A SMALL WORLD (Ducking Hardcore MIX)-bg.png;
#LYRICSPATH:;
#CDTITLE:./CDTITLES/DANCING STAGE FEAT. DISNEY'S RAVE.PNG;
#MUSIC:Its a small world ducking hardcore mix [FNSM].mp3;
#OFFSET:-0.165;
#SAMPLESTART:49.680;
#SAMPLELENGTH:11.500;
#SELECTABLE:YES;
#DISPLAYBPM:183.000;
#BPMS:0.000=183.000;
#STOPS:;
#BGCHANGES:;

//---------------dance-single - ----------------
#NOTES:
     dance-single:
     :
     Easy:
     4:
     0.339,0.419,0.342,0.167,0.000: // measure 1
1001
0000
0000
0000
,  // measure 2
1000
0000
0020
0000
,  // measure 3
0130
0000
0000
0000
,  // measure 4
0001
0000
2000
0000
,  // measure 5
3001
0000
1000
0000
,  // measure 6
0100
0000
1000
0000
,  // measure 7
0110
0000
1001
0000
,  // measure 8
1000
0001
1001
0000
,  // measure 9
1000
1000
1000
0000
,  // measure 10
0010
0010
0010
0000
,  // measure 11
0100
0100
0100
0000
,  // measure 12
0001
0001
0001
0000
,  // measure 13
1010
0000
0110
0000
,  // measure 14
1001
0000
0101
0000
,  // measure 15
1000
0001
1000
0001
,  // measure 16
1001
0000
0000
0000
,  // measure 17
1000
1000
1000
0000
,  // measure 18
0010
0010
0010
0000
,  // measure 19
0100
0100
0100
0000
,  // measure 20
0001
0001
0001
0000
,  // measure 21
1100
0000
0011
0000
,  // measure 22
0101
0000
1001
0000
,  // measure 23
1000
0010
0100
0001
,  // measure 24
1001
0000
0000
0000
,  // measure 25
0001
0000
0010
0010
,  // measure 26
0020
0000
0000
0000
,  // measure 27
0031
0000
0001
0001
,  // measure 28
0002
0000
0000
0000
,  // measure 29
1003
0000
1000
1000
,  // measure 30
2000
0000
0000
3010
,  // measure 31
0020
0000
0200
0330
,  // measure 32
2002
0000
0000
3003
,  // measure 33
1000
0010
0100
0000
,  // measure 34
0001
1000
0001
0000
,  // measure 35
1000
0100
1000
0000
,  // measure 36
0010
0100
0010
0000
,  // measure 37
1001
0000
1001
0000
,  // measure 38
0001
0100
0001
0000
,  // measure 39
0100
0100
0100
0000
,  // measure 40
0001
0001
0001
0000
,  // measure 41
1000
1000
1000
0000
,  // measure 42
0010
0010
0010
0000
,  // measure 43
0110
0000
1001
0000
,  // measure 44
1100
0000
0101
0000
,  // measure 45
0001
1000
0100
1000
,  // measure 46
1010
0000
0000
0000
,  // measure 47
1000
1000
1000
0000
,  // measure 48
0001
0001
0001
0000
,  // measure 49
0100
0100
0100
0000
,  // measure 50
0010
0010
0010
0000
,  // measure 51
1010
0000
1010
0000
,  // measure 52
0101
0000
0101
0000
,  // measure 53
1000
0001
0010
0001
,  // measure 54
1001
0000
0000
0000
,  // measure 55
1000
0000
0001
0100
,  // measure 56
0002
0000
0000
0000
,  // measure 57
1003
0000
0100
1000
,  // measure 58
0020
0000
0000
0000
,  // measure 59
1030
0000
0001
0100
,  // measure 60
0002
0000
0000
0013
,  // measure 61
0002
0000
2000
3003
,  // measure 62
0220
0000
0000
0330
,  // measure 63
1001
0000
0000
0000
,  // measure 64
1000
0000
0020
0000
,  // measure 65
0130
0000
0000
0000
,  // measure 66
0001
0000
0200
0000
,  // measure 67
0301
0000
1100
0000
,  // measure 68
1001
0000
1001
0000
,  // measure 69
0101
0000
1001
0000
,  // measure 70
1000
0100
1000
0000
,  // measure 71
0010
1000
0010
0100
,  // measure 72
0001
0000
1000
0000
,  // measure 73
0001
0100
0001
0010
,  // measure 74
0001
0000
1000
0000
,  // measure 75
0010
1000
0010
0100
,  // measure 76
0001
0000
1000
0000
,  // measure 77
0100
1000
0010
0100
,  // measure 78
0001
0000
1000
0000
,  // measure 79
0001
0100
0001
0010
,  // measure 80
0001
0000
1000
0000
,  // measure 81
0000
1001
0000
1100
,  // measure 82
0000
1010
1010
1010
,  // measure 83
0001
1000
0100
1000
,  // measure 84
0010
0000
0010
0000
,  // measure 85
1000
0001
1000
0001
,  // measure 86
0100
0001
0010
0001
,  // measure 87
2000
0000
0000
0000
,  // measure 88
3000
0000
0000
0000
;

//---------------dance-single - ----------------
#NOTES:
     dance-single:
     :
     Medium:
     6:
     0.456,0.572,0.614,0.131,0.000: // measure 1
1001
0000
1000
0000
,  // measure 2
1000
0000
1001
0000
,  // measure 3
0101
0000
0001
0000
,  // measure 4
0001
0000
1001
0000
,  // measure 5
1100
0000
0101
0000
,  // measure 6
1001
0000
1100
0000
,  // measure 7
1001
0000
1001
0000
,  // measure 8
0110
1001
0110
1000
,  // measure 9
0100
0010
0001
0100
,  // measure 10
0001
0010
0001
0100
,  // measure 11
0001
1000
0100
1000
,  // measure 12
0010
0100
0010
1000
,  // measure 13
0001
0100
0001
0010
,  // measure 14
0001
0100
0001
1000
,  // measure 15
0100
1000
0010
0100
,  // measure 16
0001
1000
1001
0000
,  // measure 17
0001
1000
0100
1000
,  // measure 18
0010
0100
0010
1000
,  // measure 19
0001
0100
0001
0010
,  // measure 20
0001
1000
0100
1000
,  // measure 21
0010
0100
0010
1000
,  // measure 22
0001
0100
0001
1000
,  // measure 23
1001
0110
1001
0110
,  // measure 24
2002
0000
0000
3003
,  // measure 25
1001
0000
1000
0100
,  // measure 26
2200
0000
0000
3300
,  // measure 27
0101
0000
0001
0100
,  // measure 28
0202
0000
0000
0303
,  // measure 29
1001
0000
1000
0001
,  // measure 30
2002
0000
3003
1001
,  // measure 31
0100
0010
1000
0001
,  // measure 32
0200
0000
0000
0000
,  // measure 33
0310
0000
1000
0000
0001
0000
0000
1000
,  // measure 34
0000
0001
0100
0000
0001
0000
0000
1000
,  // measure 35
0010
0000
0100
0000
0010
0000
0000
1000
,  // measure 36
0000
0001
1000
0000
0001
0000
0000
1000
,  // measure 37
0001
0000
1000
0000
0001
0000
0000
1000
,  // measure 38
0000
0010
0100
0000
1010
0000
1000
0000
,  // measure 39
0100
0010
0001
0100
,  // measure 40
0001
0010
0001
0100
,  // measure 41
0010
1000
0100
1000
,  // measure 42
0010
0100
0001
1000
,  // measure 43
0001
0100
0001
0010
,  // measure 44
0001
0100
0001
1000
,  // measure 45
0100
0110
1001
1100
,  // measure 46
1001
0001
1000
0001
,  // measure 47
0100
0001
0010
0001
,  // measure 48
0100
0001
1000
0100
,  // measure 49
1000
0010
0100
0010
,  // measure 50
1000
0001
0100
0001
,  // measure 51
0010
0001
0100
0001
,  // measure 52
1000
0001
0100
0001
,  // measure 53
1000
1001
1100
0110
,  // measure 54
2002
0000
0000
3003
,  // measure 55
1010
0000
1000
0001
,  // measure 56
1001
0100
0100
0000
,  // measure 57
1001
0000
0001
1000
,  // measure 58
1100
0010
0010
0000
,  // measure 59
0101
0000
1001
1100
,  // measure 60
1001
0000
0000
0000
0000
0000
1000
0100
,  // measure 61
1000
0000
0001
0000
,  // measure 62
2002
0000
0000
3003
,  // measure 63
1001
0000
1000
0000
,  // measure 64
1000
0000
1001
0000
,  // measure 65
0101
0000
0001
0000
,  // measure 66
1000
0000
1100
0000
,  // measure 67
1010
0000
1001
0000
,  // measure 68
1100
0000
1001
0000
,  // measure 69
0101
0000
1001
0000
,  // measure 70
1100
0011
0101
1001
,  // measure 71
1000
0010
0100
0010
,  // measure 72
1000
0000
0000
0001
0000
0000
1000
0000
,  // measure 73
0010
0100
0001
1000
,  // measure 74
0001
0000
0000
1000
0000
0000
0010
0000
,  // measure 75
0100
0001
1000
0001
,  // measure 76
0100
0000
0000
0001
0000
0000
1000
0000
,  // measure 77
0100
1000
0010
0100
,  // measure 78
0001
0000
0000
1000
0000
0000
0001
0000
,  // measure 79
0100
0001
0010
0001
,  // measure 80
1000
0000
0000
0010
0000
0000
0100
0000
,  // measure 81
0001
1001
1000
1100
,  // measure 82
1000
1010
1001
0101
,  // measure 83
1001
0010
1000
0001
,  // measure 84
0100
0000
0000
1001
0000
0000
1000
0000
,  // measure 85
0010
0100
0001
1000
,  // measure 86
1001
1100
1010
1001
,  // measure 87
0220
0000
0000
0000
,  // measure 88
0330
0000
0000
0000
;

//---------------dance-single - ----------------
#NOTES:
     dance-single:
     :
     Hard:
     8:
     0.612,0.686,0.561,0.237,0.022: // measure 1
1001
1000
0010
0100
,  // measure 2
0001
1000
2002
3003
,  // measure 3
1010
0100
0010
1000
,  // measure 4
0001
0100
2002
3003
,  // measure 5
1001
0100
1001
0010
,  // measure 6
1001
0100
1001
0010
,  // measure 7
1001
0100
1001
0010
,  // measure 8
1001
0000
0110
0000
1001
0000
1000
0100
,  // measure 9
1000
0000
0010
0000
0100
0000
0001
0010
,  // measure 10
0001
0000
0100
0000
0001
0000
1000
0100
,  // measure 11
1000
0000
0010
0000
0100
0000
0001
1000
,  // measure 12
0001
0000
1000
0000
0100
0000
1000
0100
,  // measure 13
1100
0000
0010
0100
0110
0000
1000
0001
,  // measure 14
1001
0000
0010
0100
0110
0000
1000
0001
,  // measure 15
1001
1000
0100
0010
,  // measure 16
0001
0100
0001
1000
1001
0000
1000
0010
,  // measure 17
0100
0000
0010
0000
0010
0000
1000
0100
,  // measure 18
0010
0000
0001
0000
0001
0000
0100
0001
,  // measure 19
0010
0000
0001
0000
0001
0000
1000
0100
,  // measure 20
1000
0000
0010
0000
0010
0000
0100
0001
,  // measure 21
1001
0000
0010
1000
1001
0000
0100
0001
,  // measure 22
1001
0000
0010
1000
1001
0000
0100
0001
,  // measure 23
1001
1100
0110
1001
,  // measure 24
0202
0000
0000
0303
,  // measure 25
1001
0000
0000
1000
0100
0000
0010
0000
,  // measure 26
0002
1000
1003
0000
,  // measure 27
1010
0000
0000
0100
0001
0000
1000
0000
,  // measure 28
0200
0010
0310
0000
,  // measure 29
0011
0000
0000
0001
1000
0000
1000
0000
,  // measure 30
0020
0000
0000
0000
0000
0000
0100
0130
,  // measure 31
0020
1030
2000
3001
,  // measure 32
2002
0000
0000
0000
0000
0000
0000
3003
,  // measure 33
1000
0000
0000
0000
0001
0000
0000
0000
1000
0000
0000
0010
0000
0000
0100
0000
,  // measure 34
0000
0000
0001
0000
1000
0000
0000
0000
0001
0000
0000
0100
0000
0000
0001
0000
,  // measure 35
1000
0000
0000
0000
0010
0000
0000
0000
0100
0000
0000
0010
0000
0000
1000
0000
,  // measure 36
0000
0000
0001
0000
0100
0000
0000
0000
0001
0000
0000
1000
0000
0000
0010
0000
,  // measure 37
0100
0000
0000
0000
0001
0000
0000
0000
1000
0000
0000
0001
0000
0000
0100
0000
,  // measure 38
0000
0001
1000
0000
0001
0000
1000
0100
,  // measure 39
0010
0000
0100
0000
0100
0000
0010
0001
,  // measure 40
1000
0000
0010
0000
0010
0000
0100
0001
,  // measure 41
0010
0000
0001
0000
0001
0000
1000
0100
,  // measure 42
1000
0000
0001
0000
0001
0000
0100
0010
,  // measure 43
1000
0000
0001
0100
0010
0000
1000
0100
,  // measure 44
1000
0000
0010
0100
0001
0000
1000
0001
,  // measure 45
1000
0110
1001
1100
,  // measure 46
1001
0100
0010
0100
0010
0000
1000
0001
,  // measure 47
0010
0000
0001
0000
0001
0000
0100
0010
,  // measure 48
1000
0000
1000
0000
0010
0000
0100
0001
,  // measure 49
1000
0000
0010
0000
0010
0000
0100
0001
,  // measure 50
0010
0000
0001
0000
1000
0000
0010
1000
,  // measure 51
0010
0000
0100
0001
1000
0000
0010
0100
,  // measure 52
0001
0000
1000
0100
1000
0000
0010
0100
,  // measure 53
0001
1001
1100
0110
,  // measure 54
2002
0000
0000
0000
0000
0000
0000
3003
,  // measure 55
0110
0000
0000
0001
0010
0000
0100
0000
,  // measure 56
2000
0001
3001
0000
,  // measure 57
0101
0000
0000
0010
1000
0000
0001
0000
,  // measure 58
0020
0100
0130
0000
,  // measure 59
1100
0000
0000
1000
0001
0000
0001
0000
,  // measure 60
0200
0000
0000
0000
0000
0000
0010
0310
,  // measure 61
0200
0301
0002
1003
,  // measure 62
2002
0000
0000
0000
0000
0000
0000
3003
,  // measure 63
0101
0010
1000
0001
,  // measure 64
0100
0001
0022
0033
,  // measure 65
1001
0100
0001
0010
,  // measure 66
0001
1000
2200
3300
,  // measure 67
1001
0100
0011
0001
,  // measure 68
1001
1000
1100
0010
,  // measure 69
0110
1000
1001
0001
,  // measure 70
1001
1100
1010
1001
,  // measure 71
1000
0000
0010
0000
0100
0001
1000
0001
,  // measure 72
1000
0000
0010
1000
0000
0010
0100
0010
,  // measure 73
1000
0000
0001
0000
0100
0001
0010
0001
,  // measure 74
1000
0000
0100
1000
0000
0010
0100
0010
,  // measure 75
1010
0000
0100
0000
0001
0010
0001
0100
,  // measure 76
0001
0000
1000
0100
0000
1000
0010
0100
,  // measure 77
0010
0000
1000
0000
0001
0100
0001
0010
,  // measure 78
0001
0000
1000
0010
0000
0100
0010
1000
,  // measure 79
0001
0000
1000
0000
0010
0100
0010
1000
,  // measure 80
0001
0000
0100
0001
0000
1000
0001
1000
,  // measure 81
0010
1100
0000
1001
,  // measure 82
0000
0101
1001
1100
,  // measure 83
0001
0000
1000
0000
0010
0100
0001
1000
,  // measure 84
0100
0000
1000
0010
0000
0100
0001
1000
,  // measure 85
0001
0010
0100
1000
0001
0010
0100
1000
,  // measure 86
0001
0100
0010
1000
0100
1000
0010
0100
,  // measure 87
0002
0000
0000
0000
,  // measure 88
0003
0000
0000
0000
;

//---------------dance-double - ----------------
#NOTES:
     dance-double:
     :
     Easy:
     6:
     0.342,0.410,0.316,0.000,0.000:
00000000
00000000
00000000
00000000
,
00000000
00000000
00000000
00000000
,
00000000
00000000
00000000
00000000
,
00000000
00000000
00000000
00000000
,
10000000
00100000
10000000
00100000
,
01000000
00010000
01000000
00010000
,
00100000
00001000
00100000
00001000
,
00010000
00000100
00000000
00000010
,
00001001
00001001
00000100
00000010
,
00001000
00000100
00010000
00001000
00000000
00000000
01000000
00000000
,
10010000
10010000
00100000
01000000
,
00100000
10000000
01000000
00000000
00100000
00000000
00010000
00000000
,
00011000
00011000
00001000
00000010
,
00000001
00001000
00000100
00000001
,
00000010
00000100
00001000
00000010
,
00000100
00000000
00000001
00000000
00000010
00000010
00000010
00000000
,
00000100
00000100
00001000
00001000
,
00010000
00010000
01000000
01000000
,
10000000
10000000
00100000
01000000
,
10010000
10010000
10010000
00000000
,
00011000
00011000
00010000
00000100
,
00000010
00000001
00001000
00000001
,
00001001
00000000
00001001
00000000
,
00000100
00000100
00000100
00000000
,
00000001
00000100
00001000
00010000
,
01000000
00010000
00001000
00000100
,
00000001
00000010
00000100
00001000
,
00100000
00001000
00000100
00000010
,
00000001
00000100
00000010
00001000
,
00000100
00010000
00001000
00100000
,
00010000
01000000
00100000
10000000
,
00010000
00000000
00000000
00000000
,
10000000
00100000
00010000
00001000
,
00000010
00001000
00010000
00100000
,
10000000
01000000
00100000
00010000
,
00000100
00010000
00100000
01000000
,
10000000
00100000
01000000
00010000
,
00100000
00001000
00010000
00000100
,
00001000
00000010
00000100
00000001
,
00001000
00000000
00000000
00000000
,
00001001
00000000
00001001
00000000
,
00001001
00000000
00000000
00000000
00000010
00001000
00000010
00000000
,
00011000
00000000
00011000
00000000
,
00011000
00000000
00000000
00000000
00001000
00010000
00001000
00000000
,
01010000
00000000
01010000
00000000
,
01010000
00000000
00000000
00000000
00100000
01000000
00100000
00000000
,
10000000
00000000
01000000
00000000
,
00100000
00000000
00000000
00000000
,
10010000
00000000
00000000
00000000
,
00000000
00000000
00000000
00000000
,
00001001
00000000
00000000
00000000
,
00000000
00000000
00000000
00000000
,
00000010
00000000
00001000
00000000
,
00000100
00000000
00000010
00000000
,
00000001
00000000
00000100
00000000
,
00000010
00000010
00001000
00000100
,
00000010
00000000
00000001
00000000
00000100
00000001
00000100
00000000
,
00001000
00010000
01000000
10000000
,
00100000
00000000
01000000
00000000
00010000
10000000
00010000
00000000
,
00100000
01000000
10000000
00010000
,
01000000
10000000
01100000
01100000
,
00010000
00001000
00000010
00000010
,
00001001
00001001
00000100
00000010
,
00000001
00000000
00001000
00000000
00000010
00000100
00000010
00000000
,
00001000
00000100
00010100
00010100
,
00001000
00100000
01000000
00010000
,
10000000
01000000
00100000
00010000
,
10000000
10010000
10010000
10010000
,
10000000
01000000
00100000
00011000
,
00000100
00000001
00000010
00000100
,
00011000
00100000
10000000
01000000
,
00100000
00010000
01000000
10010000
,
01000000
00000000
00000000
00000000
;

//---------------dance-double - ----------------
#NOTES:
     dance-double:
     :
     Medium:
     10:
     0.428,0.568,0.342,0.000,0.035:
00000000
00000000
00000000
00000000
,
00000000
00000000
00000000
00000000
,
00000000
00000000
00000000
00000000
,
00000000
00000000
00000000
00000000
,
10000000
00100000
01000000
00010000
,
00001000
00000010
00000100
00000001
,
00000010
00000100
00001000
00010000
,
00100000
01000000
10000000
00100000
,
10010000
10010000
01000000
00100000
,
00001000
00010000
00010000
00000100
,
00000010
00000001
00000001
00000100
,
00000010
00000000
00001000
00000000
00000100
00010000
00001000
00000000
,
00010100
00011000
00001000
01000000
,
00100000
10000000
01000000
00000000
00100000
00000000
00010000
00000000
,
01000000
00100000
01000000
00000000
00001000
00000000
00010000
00000000
,
00001000
00000000
00001000
00000000
00001000
00000010
00000001
00000100
,
00001001
00000000
00000000
00000000
00001001
00000000
00000000
00000000
00000000
00000001
00000000
00000000
00000100
00000000
00000000
00000100
,
00000000
00000000
00000001
00000000
00000100
00000000
00000000
00000000
00000000
00000010
00000000
00000000
00000010
00000000
00000000
00000010
,
00001001
00000000
00001100
00000000
,
00010100
00011000
01001000
00000000
,
00011000
00000000
00000000
00000000
00011000
00000000
00000000
00000000
00000000
00001000
00000000
00000000
01000000
00000000
00000000
01000000
,
00000000
00000000
00010000
00000000
00010000
00000000
00000000
00000000
00000000
00100000
00000000
00000000
00100000
00000000
00000000
00100000
,
10010000
00000000
10010000
00000000
,
10000000
00000000
10000000
00000000
10000000
00000000
01000000
10000000
,
00100000
00000000
00010000
00000000
00001000
00000000
00000010
00000001
,
00000100
00000000
00001000
00000000
00010000
00000000
01000000
10000000
,
00100000
00000000
00010000
00000000
00001000
00000000
00000010
00000001
,
00000100
00000000
00001000
00000000
00010000
00000000
01000000
10000000
,
00100000
00000000
00010000
00001000
00100000
00000000
01000000
10000000
,
00100000
00000000
00010000
00001000
00100000
00000000
01000000
10000000
,
00100000
00010000
00001000
00000010
,
00000001
00000000
00000000
00000000
00000000
00000000
00000010
00000001
,
00000100
00000000
00001000
00000000
00010000
00000000
01000000
10000000
,
00100000
00000000
00010000
00000000
00001000
00000000
00000010
00000001
,
00000100
00000000
00001000
00000000
00010000
00000000
01000000
10000000
,
00100000
00000000
00010000
00000000
00001000
00000000
00000010
00000001
,
00000100
00000000
00001000
00010000
00000100
00000000
00000010
00000001
,
00000100
00000000
00001000
00010000
00000100
00000000
00000010
00000001
,
00000100
00001000
00010000
01000000
,
10000000
00000000
00000000
00000000
,
00011000
00000000
00011000
00000000
,
00011000
00000000
00000000
00000000
00001000
00010000
00001000
00000000
,
01001000
00000000
01001000
00000000
,
01001000
00000000
00000000
00000000
00001000
00010000
00001000
00000000
,
00010100
00000000
00010100
00000000
,
00010100
00000000
00000000
00000000
00010000
00001000
00010000
00000000
,
00000001
00000000
00000010
00000000
,
00000100
00000000
00000000
00000000
,
00001001
00000000
00000000
00000000
,
00000000
00000000
00000000
00000000
,
10010000
00000000
00000000
00000000
,
00000000
00000000
00000000
00000000
,
10010000
00000000
10100000
00000000
,
01010000
00000000
00011000
00000000
,
00001100
00000000
00000011
00000000
,
00001000
00000010
00000100
00000001
,
00001001
00000000
00000101
00000000
00000010
00001000
00010000
01000000
,
00100000
00000000
10000000
00010000
00000000
00100000
00010000
00001000
,
00000100
00000000
00000010
00000000
00000001
00000010
00000100
00001000
,
00010000
00000000
00100000
01000000
00000000
10000000
00100000
00000000
,
10010000
00000000
10100000
00000000
01000000
00010000
00001000
00000100
,
00000010
00000000
00001000
00000001
00000000
00000100
00001000
00010000
,
00100000
00000000
01000000
00000000
10000000
01000000
00100000
00010000
,
00001000
00000000
00000100
00000010
00000000
00000001
00000100
00000000
,
00001001
00000000
00000101
00000000
00000001
00000010
00000001
00000010
,
00000001
00000010
00000001
00000010
00000001
00000010
00000100
00001000
,
00000010
00001000
00000010
00010000
00000100
00010000
00000100
00001000
,
00010000
01000000
00100000
10000000
00010000
01000000
00100000
10000000
,
00010000
01000000
00100000
10000000
01000000
00100000
00010000
00001000
,
00000100
00000010
00000001
00000100
00000010
00001000
00000100
00000010
,
00000001
00001000
00000001
00000100
00000010
00001000
00000001
00000100
,
00000010
00001000
00010000
01000000
00100000
10000000
01000000
00100000
,
10010000
00000000
00000000
00000000
;

//---------------dance-single - ----------------
#NOTES:
     dance-single:
     :
     Challenge:
     10:
     0.763,0.991,1.000,0.245,0.118: // measure 1
1001
0000
0000
1000
0000
0000
0001
0000
0100
0000
0000
0010
0000
0000
0100
0000
,  // measure 2
0001
0000
0000
0000
0000
0000
0000
0000
0000
1000
0000
0000
0000
0000
0000
0000
0000
0000
0010
0000
0000
0000
0000
0000
2002
0000
0000
0000
0000
0000
0000
0000
0000
0000
0000
0000
0000
0000
0000
0000
3003
0000
0000
0000
0000
0000
0000
0000
,  // measure 3
0010
0000
0000
1000
0000
0000
0010
0000
1000
0000
0000
0100
0000
0000
0010
0000
,  // measure 4
0001
0000
0000
0000
0000
0000
0000
0000
0000
1000
0000
0000
0000
0000
0000
0000
0000
0000
0010
0000
0000
0000
0000
0000
2002
0000
0000
0000
0000
0000
0000
0000
0000
0000
0000
0000
0000
0000
0000
0000
0000
0000
0000
0000
3003
0000
0000
0000
,  // measure 5
1100
0100
0011
0001
,  // measure 6
0101
0010
1100
0010
,  // measure 7
1100
0000
0001
0100
0101
0100
0001
0000
,  // measure 8
1100
0000
0011
0000
0101
0000
1000
0100
,  // measure 9
1000
0000
0110
0000
0110
0000
0001
1000
,  // measure 10
0001
0000
1100
0000
1100
0000
0010
0001
,  // measure 11
0010
0000
0110
0000
0110
0000
0001
1000
,  // measure 12
0001
0000
1100
0000
1100
0000
0010
0001
,  // measure 13
0101
0000
0010
1000
1010
0000
1000
0100
,  // measure 14
1100
0000
0001
0010
0011
0000
0100
0010
,  // measure 15
1001
1100
0110
1001
,  // measure 16
0101
0000
0100
0001
0100
0000
0001
0000
0010
0000
0000
0000
0001
0000
0010
0000
,  // measure 17
0001
0000
0110
0000
0110
0000
1000
0001
,  // measure 18
1000
0000
0011
0000
0011
0000
0100
1000
,  // measure 19
0100
0000
0110
0000
0110
0000
1000
0001
,  // measure 20
1000
0000
0011
0000
0011
0000
0100
1000
,  // measure 21
1010
0000
0100
0001
0101
0000
0001
0010
,  // measure 22
0011
0000
1000
0100
1100
0000
0010
0100
,  // measure 23
1001
0011
0110
1001
,  // measure 24
2020
0000
0000
3030
,  // measure 25
1001
0000
0000
1000
0002
0000
0100
0000
,  // measure 26
0103
1010
1001
0000
,  // measure 27
1010
0000
0000
0010
0200
0000
0001
0000
,  // measure 28
0301
0000
1001
1000
1010
0000
0000
0000
,  // measure 29
0110
0000
0000
0010
2000
0000
0001
0000
,  // measure 30
0002
0000
0000
0000
0000
3003
1000
0010
,  // measure 31
2010
3010
0102
0103
,  // measure 32
0210
0000
0001
0000
0010
0000
0000
0310
,  // measure 33
1000
0000
0000
0000
0001
0000
0000
0000
0100
0000
0000
0010
0000
0000
0100
0000
,  // measure 34
0000
0001
1000
0000
1001
0000
0000
0000
,  // measure 35
1010
0000
0000
0000
0101
0000
0000
0000
1001
0000
0000
1100
0000
0000
0110
0000
,  // measure 36
0000
0000
1000
0000
0001
0000
0000
0000
1100
0000
0000
0110
0000
0000
1001
0000
,  // measure 37
0101
0000
0000
0000
1001
0000
0000
0000
1100
0000
0000
0011
0000
0000
0101
0000
,  // measure 38
0000
1000
0010
0000
1100
0000
0001
0010
,  // measure 39
0001
0000
0110
0000
0110
0000
1000
0001
,  // measure 40
1000
0000
0011
0000
0011
0000
0100
1000
,  // measure 41
0100
0000
0110
0000
0110
0000
1000
0001
,  // measure 42
1000
0000
0011
0000
0011
0000
0100
1000
,  // measure 43
1010
0000
0100
0001
0101
0000
0001
0010
,  // measure 44
0011
0000
1000
0100
1100
0000
0010
0100
,  // measure 45
1001
0011
0110
1001
,  // measure 46
1010
0000
0010
1000
0010
0000
1000
0000
0100
0000
0000
0000
1000
0000
0100
0000
,  // measure 47
1000
0000
0110
0000
0110
0000
0001
1000
,  // measure 48
0001
0000
1100
0000
1100
0000
0010
0001
,  // measure 49
0010
0000
0110
0000
0110
0000
0001
1000
,  // measure 50
0001
0000
1100
0000
1100
0000
0010
0001
,  // measure 51
0101
0000
0010
1000
1010
0000
1000
0100
,  // measure 52
1100
0000
0001
0010
0011
0000
0100
0010
,  // measure 53
1001
1100
0110
1001
,  // measure 54
0202
0000
0000
0303
,  // measure 55
1001
0000
0000
0001
2000
0000
0010
0000
,  // measure 56
3010
0101
1001
0000
,  // measure 57
0101
0000
0000
0100
0020
0000
1000
0000
,  // measure 58
1030
0000
1001
0001
0101
0000
0000
0000
,  // measure 59
0110
0000
0000
0100
0002
0000
1000
0000
,  // measure 60
2000
0000
0000
0000
0000
3003
0001
0100
,  // measure 61
0102
0103
2010
3010
,  // measure 62
0120
0000
1000
0000
0100
0000
0000
0030
,  // measure 63
1001
0000
0000
0001
0000
0000
1000
0000
0010
0000
0000
0100
0000
0000
0010
0000
,  // measure 64
1000
0000
0000
0000
0000
0000
0000
0000
0000
0001
0000
0000
0000
0000
0000
0000
0000
0000
0100
0000
0000
0000
0000
0000
2002
0000
0000
0000
0000
0000
0000
0000
0000
0000
0000
0000
0000
0000
0000
0000
3003
0000
0000
0000
0000
0000
0000
0000
,  // measure 65
0100
0000
0000
0001
0000
0000
0100
0000
0001
0000
0000
0010
0000
0000
0100
0000
,  // measure 66
1000
0000
0000
0000
0000
0000
0000
0000
0000
0001
0000
0000
0000
0000
0000
0000
0000
0000
0100
0000
0000
0000
0000
0000
2002
0000
0000
0000
0000
0000
0000
0000
0000
0000
0000
0000
0000
0000
0000
0000
0000
0000
0000
0000
3003
0000
0000
0000
,  // measure 67
0011
0010
1100
1000
,  // measure 68
1010
0100
0011
0100
,  // measure 69
0011
0000
1000
0010
1010
0010
1000
0000
,  // measure 70
0011
1100
1010
0011
,  // measure 71
1001
0000
1100
0000
0001
1000
0100
1000
,  // measure 72
0010
0000
0100
0010
0000
1000
0001
0100
,  // measure 73
0001
0000
1000
0100
1000
0010
0100
0010
,  // measure 74
1000
0000
0001
0100
0001
0000
1000
0000
0010
0000
0100
0000
0010
0000
1000
0000
,  // measure 75
0011
0000
1001
0000
1000
0100
1000
0010
,  // measure 76
0100
0000
0001
0010
0000
0001
1000
0010
,  // measure 77
0101
0000
1100
0000
0010
0100
0010
1000
,  // measure 78
0001
0000
0100
0001
0000
1000
0100
1000
,  // measure 79
0110
0000
0101
0000
1000
0010
0100
0001
,  // measure 80
0010
0000
0001
1000
0000
0010
0100
0010
,  // measure 81
1000
0011
0100
1001
,  // measure 82
1000
0110
1010
0110
,  // measure 83
1000
0001
0100
0001
1000
0100
1000
0010
,  // measure 84
0100
0010
1000
0001
0100
0001
0010
0001
,  // measure 85
0100
0010
1000
0010
0100
0001
1000
0001
,  // measure 86
0010
0100
0010
0100
0010
0100
0010
0100
0010
0100
0010
0100
0010
0100
0010
0100
,  // measure 87
0220
0000
0000
0000
,  // measure 88
0330
0000
0000
0000
;

//---------------dance-single - ----------------
#NOTES:
     dance-single:
     :
     Beginner:
     1:
     0.124,0.188,0.000,0.000,0.000: // measure 1
0000
0000
0000
0000
,  // measure 2
0000
0000
1000
0000
,  // measure 3
0001
0000
0000
0000
,  // measure 4
0000
0000
0100
0000
,  // measure 5
0010
0000
0010
0000
,  // measure 6
0010
0000
0010
0000
,  // measure 7
1000
0000
1000
0000
,  // measure 8
1000
0000
0000
0000
,  // measure 9
0001
0000
0000
0000
,  // measure 10
1000
0000
0000
0000
,  // measure 11
0010
0000
0000
0000
,  // measure 12
0100
0000
0000
0000
,  // measure 13
0001
0000
1000
0000
,  // measure 14
0001
0000
1000
0000
,  // measure 15
0001
0000
1000
0000
,  // measure 16
0001
0000
0100
0000
,  // measure 17
0010
0000
0000
0000
,  // measure 18
1000
0000
0000
0000
,  // measure 19
0001
0000
0000
0000
,  // measure 20
0100
0000
0000
0000
,  // measure 21
0010
0000
1000
0000
,  // measure 22
0001
0000
0100
0000
,  // measure 23
0001
0000
0001
0000
,  // measure 24
1000
0000
0000
0000
,  // measure 25
0001
0000
0000
0000
,  // measure 26
0100
0000
0000
0000
,  // measure 27
0010
0000
0000
0000
,  // measure 28
1000
0000
0000
0000
,  // measure 29
0001
0000
0000
0000
,  // measure 30
0100
0000
0000
0000
,  // measure 31
0001
0000
1000
0000
,  // measure 32
0001
0000
0000
0000
,  // measure 33
1000
0000
0000
0000
,  // measure 34
0001
0000
0000
0000
,  // measure 35
0100
0000
0000
0000
,  // measure 36
0010
0000
0000
0000
,  // measure 37
1000
0000
0000
0000
,  // measure 38
0001
0000
0000
0000
,  // measure 39
0100
0000
0000
0000
,  // measure 40
0010
0000
0000
0000
,  // measure 41
0100
0000
0000
0000
,  // measure 42
0001
0000
0000
0000
,  // measure 43
1000
0000
0000
0000
,  // measure 44
0010
0000
0000
0000
,  // measure 45
0100
0000
0001
0000
,  // measure 46
0100
0000
0000
0000
,  // measure 47
0010
0000
0000
0000
,  // measure 48
1000
0000
0000
0000
,  // measure 49
0001
0000
0000
0000
,  // measure 50
0100
0000
0000
0000
,  // measure 51
0001
0000
0000
0000
,  // measure 52
1000
0000
0000
0000
,  // measure 53
0010
0000
1000
0000
,  // measure 54
0010
0000
0000
0000
,  // measure 55
1000
0000
0000
0000
,  // measure 56
0001
0000
0000
0000
,  // measure 57
0100
0000
0000
0000
,  // measure 58
0001
0000
0000
0000
,  // measure 59
0010
0000
0000
0000
,  // measure 60
0001
0000
0000
0000
,  // measure 61
1000
0000
0001
0000
,  // measure 62
1000
0000
0000
0000
,  // measure 63
1000
0000
0000
0000
,  // measure 64
0000
0000
0001
0000
,  // measure 65
0100
0000
0000
0000
,  // measure 66
0000
0000
0010
0000
,  // measure 67
1000
0000
0010
0000
,  // measure 68
1000
0000
0010
0000
,  // measure 69
0100
0000
0001
0000
,  // measure 70
0100
0000
0000
0000
,  // measure 71
0001
0000
0000
0000
,  // measure 72
0000
0000
0000
0000
,  // measure 73
1000
0000
0000
0000
,  // measure 74
0000
0000
0000
0000
,  // measure 75
0001
0000
0000
0000
,  // measure 76
0000
0000
0000
0000
,  // measure 77
0100
0000
0000
0000
,  // measure 78
0000
0000
0000
0000
,  // measure 79
0010
0000
0000
0000
,  // measure 80
0000
0000
0000
0000
,  // measure 81
0000
1000
0000
1000
,  // measure 82
0000
1000
0000
0000
,  // measure 83
0001
0000
0000
0000
,  // measure 84
1000
0000
0000
0000
,  // measure 85
0001
0000
0000
0000
,  // measure 86
0100
0000
0000
0000
,  // measure 87
0010
0000
0000
0000
;
