#TITLE:INSERTiON;
#SUBTITLE:(FROM NONSTOP MEGAMIX);
#ARTIST:NAOKI underground;
#TITLETRANSLIT:;
#SUBTITLETRANSLIT:;
#ARTISTTRANSLIT:;
#CREDIT:;
#BANNER:INSERTiON.png;
#BACKGROUND:INSERTiON-bg.png;
#LYRICSPATH:;
#CDTITLE:;
#MUSIC:INSERTION (FROM NONSTOP MEGAMIX).mp3;
#OFFSET:-0.046;
#SAMPLESTART:53.790;
#SAMPLELENGTH:13.400;
#SELECTABLE:YES;
#BPMS:0.000=142.930;
#STOPS:;
#BGCHANGES:;

//---------------dance-single - BASIC----------------
#NOTES:
     dance-single:
     BASIC:
     Easy:
     3:
     0.228,0.267,0.014,0.000,0.000:
0000
0000
0000
0000
,
0000
0000
0000
0000
,
0000
0000
0000
0000
,
0000
0000
0000
0000
,
1000
0100
0000
0000
,
0010
0001
0000
0000
,
0100
0010
0000
0000
,
1000
0100
0000
0000
,
0001
0100
0000
1000
,
0000
0010
0000
0100
,
0001
1000
0000
0010
,
0000
0100
0000
0001
,
1000
0100
0000
0010
,
0000
0001
0000
1000
,
0010
1000
0010
0100
,
0010
0010
0010
0010
,
0100
0000
0000
0001
0000
0001
0000
0000
,
1000
0000
0000
0010
0000
0000
1000
0000
,
0001
0000
0000
0100
0000
0100
0000
0000
,
0010
0000
0000
1000
0000
0000
0100
0000
,
0010
0000
0000
0001
0000
0001
0000
0000
,
0100
0000
0000
0001
0000
0000
1000
0000
,
0010
0000
0000
1000
0000
1000
0000
0000
,
0010
0000
0000
0100
0000
0000
0001
0000
,
0100
0000
0000
0001
0000
0001
0000
0000
,
1000
0000
0000
0010
0000
0000
1000
0000
,
0001
0000
0000
0100
0000
0100
0000
0000
,
0010
0000
0000
1000
0000
0000
0100
0000
,
0010
0000
0000
0001
0000
0001
0000
0000
,
0100
0000
0000
0001
0000
0000
1000
0000
,
0000
1000
0000
0001
0000
1000
0000
0001
,
0000
0100
0000
0010
0000
0100
0000
0010
,
1000
0000
0000
0100
0000
0000
0010
0000
,
0001
0000
0000
0100
0000
0000
0001
0000
,
1000
0000
0000
0010
0000
0000
0100
0000
,
0010
0000
0000
1000
0000
0000
0100
0000
,
0010
0000
0000
0001
0000
0000
0100
0000
,
0001
0000
0000
1000
0000
0000
0010
0000
,
0100
0000
0000
0001
0000
0000
1000
0000
,
0100
0000
0000
1000
0000
0000
0010
0000
,
0000
0100
0000
0000
0000
0100
0000
0000
,
0000
0100
0000
0000
0000
0010
0000
0000
,
0000
1000
0000
0001
0000
0100
0000
0010
,
0000
1000
0000
0100
0000
0010
0000
0011
;

//---------------dance-single - ANOTHER----------------
#NOTES:
     dance-single:
     ANOTHER:
     Medium:
     6:
     0.344,0.445,0.014,0.000,0.386:
0000
0000
0000
0000
,
0000
0000
0000
0000
,
0000
0000
0000
0000
,
0000
0000
0000
0000
,
1000
0000
0000
0001
0000
1000
0000
0000
0000
0000
0000
0000
0000
0000
0000
0000
,
0010
0000
0000
1000
0000
0100
0000
0000
0000
0000
0000
0000
0000
0001
0000
0000
,
1000
0000
0000
0100
0000
1000
0000
0000
0000
0000
0000
0000
0000
0000
0000
0000
,
0010
0000
0000
0100
0000
0001
0000
0000
0000
0000
0000
0000
0000
1000
0000
0000
,
0010
0000
0000
1000
0000
0001
0000
0000
0000
0000
0000
0000
0000
0000
0000
0000
,
1000
0000
0000
0000
0010
0000
0000
0000
0000
1000
0000
0100
0000
0000
0000
0000
,
0001
0000
0000
1000
0000
0100
0000
0000
0000
0000
0000
0000
0000
0000
0000
0000
,
0010
0000
0000
0000
0001
0000
0000
0000
0000
0010
0000
1000
0000
0000
0000
0000
,
0001
0000
0000
0100
0000
0010
0000
0000
0000
0000
0000
0000
0000
0000
0000
0000
,
1000
0000
0000
0000
0100
0000
0000
0000
0000
1000
0000
0001
0000
0000
0000
0000
,
1000
0100
1000
0000
0001
0100
0001
0000
,
1000
0001
0100
0001
1000
0100
1000
0010
,
0100
0000
0000
0001
0000
0001
0000
0001
,
1000
0000
0000
0000
0100
0000
0010
0000
0000
0010
0000
0001
0000
0000
0000
0000
,
1000
0000
0000
0100
0000
0100
0000
0100
,
0010
0000
0000
0000
0010
0000
1000
0000
0000
0001
0000
0100
0000
0000
0000
0000
,
0010
0000
0000
1000
0000
1000
0000
1000
,
0001
0000
0000
0000
0010
0000
0100
0000
0000
0100
0000
1000
0000
0000
0000
0000
,
0001
0000
0000
0010
0000
0010
0000
0010
,
0100
0000
0000
0000
0100
0000
0001
0000
0000
1000
0000
0010
0000
0000
0000
0000
,
0010
0000
0000
1000
0000
1000
0000
1000
,
0001
0000
0000
0000
0010
0000
0100
0000
0000
0100
0000
1000
0000
0000
0000
0000
,
0001
0000
0000
0010
0000
0010
0000
0010
,
0100
0000
0000
0000
0100
0000
0001
0000
0000
1000
0000
0010
0000
0000
0000
0000
,
0100
0000
0000
0001
0000
0001
0000
0001
,
1000
0000
0000
0000
0100
0000
0010
0000
0000
0010
0000
0001
0000
0000
0000
0000
,
1000
0100
0000
0100
0000
0100
0000
0100
,
0000
0100
0000
0100
0000
0100
0000
0100
,
0001
0000
0000
1000
0000
0000
0001
0000
0000
0100
0000
0000
0010
0000
0000
0000
,
0100
0000
0000
0001
0000
0000
1000
0000
0000
0010
0000
0000
0100
0000
0000
0000
,
0010
0000
0000
1000
0000
0000
0010
0000
0000
1000
0000
0000
0010
0000
0000
0000
,
1000
0000
0000
0001
0000
0000
0100
0000
0000
0001
0000
0000
0010
0000
0000
0000
,
0001
0000
0000
1000
0000
0000
0100
0000
0000
1000
0000
0000
0010
0000
0000
0000
,
1000
0000
0000
0001
0000
0000
1000
0000
0000
0010
0000
0000
0100
0000
0000
0000
,
0010
0000
0000
1000
0000
0000
0001
0000
0000
0100
0000
0000
0010
0000
0000
0000
,
0100
0000
0000
0001
0000
0000
0100
0000
0000
0001
0000
0000
0100
0000
0000
0000
,
0000
0000
0001
0000
0000
1000
0000
0000
0000
0000
0001
0000
0000
1000
0000
0000
,
0000
0000
0001
0000
0000
1000
0000
0000
0000
0001
0000
1000
0000
0000
0000
0000
,
0000
0001
0000
1000
0000
0001
0000
0100
,
0000
0001
0000
1000
0000
0010
0000
0110
;

//---------------dance-single - MANIAC----------------
#NOTES:
     dance-single:
     MANIAC:
     Hard:
     8:
     0.510,0.623,0.108,0.000,0.453:
0000
0000
0000
0000
,
0000
0000
0000
0000
,
0000
0000
0000
0000
,
0000
0000
0000
0000
0000
0000
0000
0000
0000
0000
0000
0000
0000
1000
0000
0000
,
0001
1000
0001
1000
0000
0001
0000
0000
0000
0000
0000
0000
0000
0000
0000
0000
,
1000
0100
1000
0100
0000
1000
0000
0000
0000
0000
0000
0000
0000
0010
0000
0000
,
0100
0010
0100
0010
0000
0100
0000
0000
0000
0000
0000
0000
0000
0000
0000
0000
,
0001
1000
0001
1000
0000
0001
0000
0000
0000
0000
0000
0000
0000
0010
0000
0000
,
0100
1000
0100
1000
0000
0100
0000
0000
0000
0000
0000
0000
0000
0000
0000
0000
,
1000
0001
0000
0001
1000
0000
0010
0100
0000
0100
0010
0100
0000
0000
0000
0000
,
0001
1000
0001
1000
0000
0010
0000
0000
0000
0000
0000
0000
0000
0000
0000
0000
,
1000
0100
0000
1000
0100
0000
0010
0001
0000
0010
0001
1000
0000
0000
0000
0000
,
0010
1000
0010
1000
0000
0010
0000
0000
0000
0000
0000
0000
0000
0000
0000
0000
,
0100
0010
0000
0100
0010
0000
1000
0001
0000
1000
0001
1000
0000
0000
0000
0000
,
1000
0100
0010
0001
0100
0001
0010
0001
,
0100
0000
0010
0000
1000
0000
0001
0000
1000
0001
1000
0001
0100
0010
0100
0010
,
1000
0000
0010
0100
0000
0100
0000
0100
,
0010
1000
0001
0100
0000
0001
1000
0100
,
0010
0000
0001
0100
0000
0010
0000
1000
,
0100
1000
0010
0100
0000
0001
0100
0001
,
1000
0000
0100
1000
0000
0010
0000
0100
,
0001
1000
0001
0010
0000
0001
0100
0010
,
1000
0000
0010
1000
0000
0001
0000
0100
,
0001
1000
0100
0010
0000
0010
0100
1000
,
0001
0000
0100
0010
0000
0010
0000
0010
,
0100
0001
1000
0010
0000
1000
0001
0010
,
0100
0000
1000
0010
0000
0100
0000
0001
,
0010
0001
0100
0010
0000
1000
0010
1000
,
0001
0000
0010
0001
0000
0100
0000
0010
,
1000
0001
1000
0100
0000
1000
0010
0100
,
0001
1000
0100
1000
0010
0100
0010
1000
,
0001
0100
0001
0010
0001
1000
0001
0100
,
0010
0000
0000
1000
0000
0000
0010
0000
0000
0100
0000
0000
0010
0000
1000
0000
,
0001
0000
0000
0010
0000
0000
0001
0000
0000
0100
0000
0000
0001
0000
1000
0000
,
0100
0000
0000
0010
0000
0000
0100
0000
0000
1000
0000
0000
0001
0000
0100
0000
,
0010
0000
0000
1000
0000
0000
0100
0000
0000
1000
0000
0000
0001
0000
0010
0000
,
0001
0000
0000
1000
0000
0000
0100
0000
0000
1000
0000
0000
0010
0000
0100
0000
,
0001
0000
0000
1000
0000
0000
0100
0000
0000
0010
0000
0000
0001
0000
1000
0000
,
0001
0000
0000
1000
0000
0000
0100
0000
0000
1000
0000
0000
0010
0000
0100
0000
,
0010
0000
0000
1000
0000
0000
0001
0000
0000
0100
0000
0000
0001
0000
1000
0000
,
0000
0000
0001
1000
0000
0001
1000
0000
0000
0000
0100
0010
0000
0100
0010
0000
,
0000
0000
0100
1000
0000
0100
1000
0000
0000
0001
1000
0001
0000
0000
0000
0000
,
0000
1100
0000
0110
0000
1001
0000
0101
,
0000
1001
0000
1100
0000
0110
0000
1001
;

//---------------dance-double - BASIC----------------
#NOTES:
     dance-double:
     BASIC:
     Easy:
     4:
     0.369,0.419,0.135,0.000,0.000:
00000000
00000000
00000000
00000000
,
00000000
00000000
00000000
00000000
,
10000000
00010000
10000000
00010000
,
10000000
00010000
10000000
00010000
,
10000000
01000000
00010000
00001000
,
00010000
00001000
00010000
00001000
,
00000010
00000001
00000100
00000010
,
00001000
00000001
00001000
00000001
,
00000100
00000110
00001000
00000100
,
00010000
00001000
00100000
01100000
,
10000000
10010000
01000000
00001000
,
00010000
01000000
00010000
00011000
,
00000010
00001001
00000100
00001000
,
00010000
01000000
10000000
10010000
,
00100000
01100000
00010000
00001000
,
00000010
00000100
00000010
00001001
,
00000100
00010000
00001000
00100000
,
00010000
01000000
10000000
01000000
,
00100000
00001000
00010000
00000100
,
00001000
00000010
00000001
00000010
,
00000100
00001000
00000010
00001000
,
00000100
00010000
00001000
00100000
,
00010000
01000000
00010000
00100000
,
00001000
00001000
00010000
00010000
,
00001000
00010000
00000000
00000000
,
00000000
00000000
00000000
00000010
,
00000100
00000001
00000000
00000000
,
00000000
00000000
00000000
00000000
,
00000000
00001000
00000000
00000000
,
00000000
00010000
00000000
00000000
,
00000000
10000000
00000000
00000000
,
00000000
01000000
00000000
00000000
,
00000000
00100000
00000000
00000000
,
00000000
01000000
00000000
00000000
,
00000000
00100000
00010000
01000000
,
00001000
00010000
01000000
10000000
,
00010000
01000000
00001000
00010000
,
00000010
00001000
00000100
00010000
,
00001000
00100000
10000000
00100000
,
00010000
01000000
00100000
10000000
,
01000000
00100000
00001000
00010000
,
00000100
00000010
00000001
00000100
,
00001000
00000100
00000001
00000010
,
00001000
00010000
00100000
10000000
,
00010000
01000000
00010000
00100000
,
00001000
00010000
01000000
10000000
,
00010000
01000000
01000000
01000000
,
01000000
00001000
00001000
00001000
,
00001000
00010000
00010000
00010000
,
00010000
00000010
00000010
00000100
,
00000100
00001001
00000000
00000000
,
00000000
00000100
00000100
00000100
,
00000100
00010000
00001000
00010000
,
00001000
00100000
00010000
10000000
,
00100000
01000000
00001000
00010000
,
00001000
00000000
00000000
00000000
,
00000000
00011000
00000000
00000000
,;

//---------------dance-double - ANOTHER----------------
#NOTES:
     dance-double:
     ANOTHER:
     Medium:
     6:
     0.551,0.647,0.392,0.000,0.000:
00000000
00000000
00000000
00000000
,
00000000
00000000
00000000
00000000
,
10000000
01000000
00100000
00000000
00010000
01000000
00100000
00000000
,
10000000
01000000
00010000
00000000
00001000
00010000
00001000
00000000
,
00000010
00000001
00000100
00000000
00001100
00000000
00001100
00000000
,
00010000
00001000
00100000
00000000
10010000
00000000
10010000
00000000
,
00100000
01000000
00010000
00000000
00101000
00000000
00101000
00000000
,
00010000
00000100
00000010
00000000
00001001
00000000
00001001
00000000
,
00000100
00010000
00001000
00100000
00010000
01000000
00100000
00000000
,
01000000
00000000
10010000
00000000
00100000
01000000
00010000
00000000
,
00100000
00001000
00010000
00000100
00001000
00000001
00000100
00000000
,
00000010
00000000
00001001
00000000
00000100
00000010
00000001
00000000
,
00001000
00000010
00000100
00001000
00010000
01000000
10000000
00000000
,
00100000
00000000
01010000
00000000
00100000
01000000
10000000
00000000
,
00010000
01000000
00010000
01000000
00010000
01000000
00010000
01000000
,
00001000
00010000
00000100
00000010
00000001
00000100
00000010
00001000
,
00000001
00000000
00000001
00000001
00000000
00001000
00000000
00000100
,
00000000
00010000
00000000
00001000
00000000
00100000
00010000
01000000
,
00100000
00000000
00100000
00100000
00000000
10000000
00000000
00010000
,
00000000
00100000
00000000
01000000
00000000
00010000
00001000
00010000
,
00000010
00000000
00000010
00000010
00000000
00000100
00000000
00000001
,
00000000
00000010
00000000
00000100
00000000
00001000
00000010
00000100
,
00001000
00000000
00001000
00001000
00000000
00010000
00000000
00010000
,
00000000
00100000
00000000
00100000
00000000
01000000
00000000
01000000
,
00010000
10000000
10000000
10000000
,
00000000
00000000
00000000
00100000
,
01000000
00010000
00000000
10000000
,
00000000
01000000
00010000
00001000
,
00000100
00000001
00000000
00000001
,
00000000
00001000
00000000
00001000
,
00000000
00000100
00010000
00001000
,
00100000
10000000
00100000
00010000
,
01000000
00100000
00100000
00100000
,
00100000
10000000
00010000
10000000
,
00010000
00100000
01000000
00010000
,
00001000
00000000
00000100
00000001
00000010
00000000
00000100
00001000
,
00000010
00000100
00001000
00010000
,
01000000
00000000
10000000
00010000
01000000
00000000
00100000
10000000
,
00010000
00000000
00100000
01000000
00010000
00000000
00001000
00000100
,
00000001
00001100
00000101
00000011
,
00001100
00000000
00000010
00010000
00000100
00000000
00001000
00000001
,
00000100
00001010
00010100
00101000
,
01010000
00000000
10000000
01000000
00100000
00000000
00010000
01000000
,
00100000
10010000
01001000
00110000
,
11000000
00000000
00010000
01000000
00001000
00000000
00010000
00000010
,
00001000
00000101
00000011
00001100
,
00011000
00000000
00100000
00010000
01000000
00000000
00100000
00000000
,
00100000
00000000
10000000
01000000
00100000
00000000
00010000
00000000
,
00010000
00000000
01000000
00001000
00010000
00000000
01000000
10000000
,
00100000
00000000
01000000
00001000
00010000
00000010
00001000
00000100
,
00000010
00001001
00000000
00000000
,
00000000
00000100
00000100
00000100
,
00000100
00010000
00001000
00000010
,
00000001
00000100
00001000
00010000
,
01000000
10000000
00010000
01000000
,
00100000
00000000
00000000
00000000
,
00000000
10010000
00000000
00000000
,;

//---------------dance-double - MANIAC----------------
#NOTES:
     dance-double:
     MANIAC:
     Hard:
     8:
     0.613,0.685,0.014,0.000,0.257:
00000000
00000000
00000000
00000000
,
00000000
00000000
00000000
00000000
,
00000000
00000000
10000000
00000000
00000000
00010000
00000000
00010000
00000000
00000000
00100000
00000000
00000000
00001000
00000000
00001000
,
00000000
00000000
00000010
00000000
00000000
00000001
00000000
00000001
00000000
00000000
00000100
00000000
00000000
00000010
00000000
00000010
,
00001000
00000100
00000010
00000001
00000100
00001000
00010000
00000000
,
00100000
10000000
00010000
00100000
01000000
10000000
00010000
00000000
,
01000000
00001000
00010000
00000010
00010000
00001000
01000000
00000000
,
00010000
00100000
01000000
00010000
00001000
00010000
00000100
00000000
,
00000010
00000000
00000001
00000000
00000100
00000000
00000000
00000000
00000010
00001000
00000000
00000001
00000100
00000000
00000000
00000000
,
00000010
00000000
00001000
00000000
00000100
00000000
00000000
00000000
00010000
00001000
00000000
00001000
00000000
00000000
00000000
00000000
,
00100000
00000000
01000000
00000000
10000000
00000000
00000000
00000000
00100000
01000000
00000000
00010000
00100000
00000000
00000000
00000000
,
00001000
00000000
00010000
00000000
00000010
00000000
00000000
00000000
00001000
00000100
00000000
00000100
00000000
00000000
00000000
00000000
,
00010000
00000000
00001000
00000000
00000100
00000000
00000000
00000000
00000001
00000010
00000000
00000100
00001000
00000000
00000000
00000000
,
00000010
00000000
00010000
00000000
00001000
00000000
00000000
00000000
00100000
01000000
00000000
01000000
00000000
00000000
00000000
00000000
,
10000000
00000000
00010000
00000000
01000000
00000000
00000000
00000000
00100000
10000000
00000000
01000000
00100000
00000000
00000000
00000000
,
00001000
00000000
00010000
00000000
00000100
00000000
00000000
00000000
00000010
00000001
00000000
00000001
00000000
00000000
00000000
00000000
,
00001000
00000100
00000010
00000001
00000100
00000010
00001000
00000100
,
00000010
00000000
00001000
00000000
00010000
00000000
00100000
00000000
10000000
00000000
01000000
00000000
00100000
00010000
00100000
00000000
,
00001000
00010000
00001000
00000100
00000001
00000010
00000100
00001000
,
00000010
00000000
00010000
00000000
00001000
00000000
01000000
00000000
00010000
00000000
00100000
00000000
01000000
10000000
01000000
00000000
,
00100000
00010000
01000000
00100000
10000000
01000000
00100000
00010000
,
10000000
00000000
01000000
00000000
00010000
00000000
00001000
00000000
00000100
00000000
00000001
00000000
00000010
00000100
00000010
00000000
,
00000001
00001000
00000100
00010000
00001000
00010000
00001000
00000100
,
00000001
00000000
00000010
00000000
00000100
00000000
00001000
00000000
00000010
00000100
00000010
00000000
00010000
00000000
00001000
00000000
,
00100000
00000000
10000000
00010000
00100000
00001000
00010000
00000100
,
00000010
00000001
00000100
00000000
00000000
00000000
00000100
00000000
,
00010000
00000000
00001000
00000000
00000000
00100000
01000000
00000000
,
00000000
00000000
00000000
00000000
,
00000000
00000000
00001000
00000000
00000000
00000000
00010000
00000100
,
00000000
00000010
00000000
00000000
00000001
00000000
00000000
00000000
00000000
00000000
00000000
00000000
00001000
00000000
00000000
00000000
,
00000100
00000000
00000000
00000000
00010000
00000000
00000000
00000000
00000000
00000000
00001000
00000000
00001000
00000000
00000000
00100000
,
00000000
01000000
00000000
00000000
00000000
00000000
10000000
00000000
,
00000000
00010000
00000000
00000000
,
00000000
01000000
00001000
00010000
,
00000010
00000000
00001000
00000001
00000010
00000100
00001000
00000001
,
00000100
00001000
00010000
00001000
00010000
00100000
10000000
01000000
,
00100000
00010000
01000000
00100000
10000000
01000000
00010000
00001000
,
00010000
00000010
00000100
00000001
00000010
00000100
00001000
00000001
,
00000100
00000000
00000010
00000000
00001000
00000000
00000000
00000100
00000000
00000000
00010000
00000000
00000000
00000000
00001000
00000000
,
00001000
00000000
00000000
00000000
00010000
00000000
00000000
01000000
00000000
00000000
10000000
00000000
00000000
00000000
00010000
00000000
,
01000000
00000000
00100000
00000000
10000000
00000000
00000000
01000000
00000000
00000000
00010000
00000000
00000000
00000000
00001000
00000000
,
00000100
00000000
00000000
00000000
00000001
00000000
00000000
00000010
00000000
00000000
00000100
00000000
00000000
00000000
00010000
00000000
,
00000010
00000000
00000100
00000000
00001000
00000000
00000000
00001000
00000000
00000000
00010000
00000000
00000000
00000000
00100000
00000000
,
00100000
00000000
00000000
00000000
10000000
00000000
00000000
00010000
00000000
00000000
00100000
00000000
00000000
00000000
01000000
00000000
,
10000000
00000000
00010000
00000000
01000000
00000000
00000000
00100000
00000000
00000000
00010000
00000000
00000000
00000000
00001000
00000000
,
00000010
00000000
00000000
00000000
00000001
00000000
00000000
00001000
00000000
00000000
00000010
00000000
00000000
00000000
00000100
00000000
,
00001000
00010000
00000000
01000000
10000000
00010000
00000000
01000000
,
00100000
10000000
00000000
01000000
00010000
00001000
00000100
00000001
,
00000010
00000100
00000000
00001000
00000000
00001000
00000000
00001000
,
00000000
00000010
00000000
00000010
00000000
00010000
00000000
00010000
,
00000000
00001000
00000000
00000000
00000000
00100000
00000000
00100000
,
00000000
01000000
00000000
01000000
00000000
00010000
00000000
00001000
,
00000000
00010000
00001000
00000000
00010000
00000000
00100000
00000000
,
10000000
00000000
01000000
00010000
01000000
00000000
00010000
00001000
,
00010000
00001000
00010000
00000000
00000100
00000010
00000100
00000010
,
00000100
00000010
00000000
00000000
00000000
00000000
00000000
00000000
,
00000000
00001001
00000000
00000000
,;

//---------------dance-single - ONI----------------
#NOTES:
     dance-single:
     ONI:
     Challenge:
     9:
     0.636,0.980,0.582,0.000,0.697: // measure 1
0000
0000
0000
0000
,  // measure 2
0000
0000
0000
0000
,  // measure 3
0000
0000
0000
0000
,  // measure 4
0000
0000
0000
0000
0000
0000
0000
0000
0000
0000
0000
0000
0000
1001
0000
0000
,  // measure 5
1000
0100
0010
0001
0000
0001
0000
0000
0000
0000
0000
0000
0000
0000
0000
0000
,  // measure 6
0100
0001
1000
0001
0000
0001
0000
0000
0000
0000
0000
0000
0000
1100
0000
0000
,  // measure 7
1000
0001
1000
0100
0000
0100
0000
0000
0000
0000
0000
0000
0000
0000
0000
0000
,  // measure 8
0010
0001
1000
0100
0000
0100
0000
0000
0000
0000
0000
0000
0000
0101
0000
0000
,  // measure 9
0001
1000
0100
1000
0000
1000
0000
0000
0000
0000
0000
0000
0000
0000
0000
0000
,  // measure 10
0010
1000
0000
1000
0000
0001
1000
0001
1000
0010
1000
0010
0000
0000
0000
0000
,  // measure 11
0010
1000
0001
0100
0000
0100
0000
0000
0000
0000
0000
0000
0000
0000
0000
0000
,  // measure 12
0001
0100
0000
0010
0000
1000
0100
1000
0001
0100
0010
0100
0000
0000
0000
0000
,  // measure 13
0001
0010
0100
0010
0000
0010
0000
0000
0000
0000
0000
0000
0000
0000
0000
0000
,  // measure 14
0100
0010
0000
1000
0000
0001
0100
1000
0010
0100
0010
0100
0000
0000
0000
0000
,  // measure 15
1001
1001
1001
1001
0110
0110
0110
0110
,  // measure 16
1000
0100
1000
0100
1000
0100
1000
0100
0010
0001
0010
0001
0010
0001
0010
0001
,  // measure 17
0100
0001
1000
0001
0000
0001
0000
0100
,  // measure 18
0010
0000
1000
0000
0010
0000
0100
0000
0000
0010
0000
0010
0000
0000
0000
0000
,  // measure 19
1000
0000
0010
1000
0000
0001
0000
0100
,  // measure 20
0001
0000
1000
0000
0100
0000
0010
0000
0000
0001
0000
0001
0000
0000
0000
0000
,  // measure 21
1000
0000
0010
0100
0000
0001
0000
1000
,  // measure 22
0100
0000
1000
0000
0001
0000
0010
0000
0000
0100
0000
0100
0000
0000
0000
0000
,  // measure 23
0010
0000
0001
1000
0000
0010
0000
0001
,  // measure 24
1000
0000
0001
0000
0100
0000
0010
0000
0000
1000
0000
1000
0000
0000
0000
0000
,  // measure 25
0010
1000
0001
1000
0000
1000
0000
0010
,  // measure 26
0100
0000
0001
0000
0100
0000
0010
0000
0000
0100
0000
0100
0000
0000
0000
0000
,  // measure 27
0001
0000
0100
0001
0000
1000
0000
0010
,  // measure 28
1000
0000
0001
0000
0010
0000
0100
0000
0000
1000
0000
1000
0000
0000
0000
0000
,  // measure 29
0001
0000
0100
0010
0000
1000
0000
0001
,  // measure 30
0010
0000
0001
0000
1000
0000
0100
0000
0000
0010
0000
0010
0000
0000
0000
0000
,  // measure 31
1100
1100
1100
1100
0011
0011
0011
0011
,  // measure 32
0100
0010
0100
0010
0100
0010
0100
0010
1000
0001
1000
0001
1000
0001
1000
0001
,  // measure 33
0010
0000
0001
1000
0000
0001
1000
0000
0000
0010
0000
0000
0100
0000
0001
0000
,  // measure 34
1001
0000
0000
1100
0000
0000
0110
0000
0000
1001
0000
0000
0001
0000
1000
0000
,  // measure 35
0010
0000
1000
0010
0000
0100
0010
0000
0000
1000
0000
0000
0001
0000
0010
0000
,  // measure 36
1100
0000
0000
1010
0000
0000
0110
0000
0000
1001
0000
0000
0001
0000
1000
0000
,  // measure 37
0010
0000
0001
0010
0000
1000
0100
0000
0000
0010
0000
0000
0001
0000
1000
0000
,  // measure 38
0011
0000
0000
0101
0000
0000
1100
0000
0000
1010
0000
0000
0001
0000
0100
0000
,  // measure 39
0001
0000
1000
0100
0000
0100
1000
0000
0000
0010
0000
0000
0100
0000
0001
0000
,  // measure 40
0011
0000
0000
0101
0000
0000
1001
0000
0000
1100
0000
0000
0010
0000
1000
0000
,  // measure 41
0001
0000
1000
0100
0000
0100
1000
0100
0000
0000
0010
0100
0000
0100
0010
0100
,  // measure 42
0000
0000
0100
0001
0000
0001
0100
0001
0000
1000
0001
0010
0000
0000
0000
0000
,  // measure 43
1000
1100
0100
0110
0010
0011
0001
0101
,  // measure 44
0100
0110
0010
1010
1000
1100
0100
0110
;

//---------------dance-single - BEGINNER----------------
#NOTES:
     dance-single:
     BEGINNER:
     Beginner:
     1:
     0.124,0.267,0.014,0.095,0.000:
0000
0000
0000
0000
,
0000
0000
0000
0000
,
0000
0000
0000
0000
,
0000
0000
0000
0000
,
1000
0000
0000
0000
,
0001
0000
0000
0000
,
0100
0000
0000
0000
,
0010
0000
0000
0000
,
0000
0100
0000
0100
,
0000
0100
0000
0000
,
0000
0010
0000
0010
,
0000
0010
0000
0000
,
0000
0001
0000
0001
,
0000
0001
0000
0000
,
1000
0000
0010
0000
,
1000
0010
1000
0010
,
0100
0000
0000
0000
,
0100
0000
0000
0000
,
0010
0000
0000
0000
,
0010
0000
0000
0000
,
1000
0000
0000
0000
,
1000
0000
0000
0000
,
0001
0000
0000
0000
,
0001
0000
0000
0000
,
0100
0000
0000
0000
,
0100
0000
0000
0000
,
0001
0000
0000
0000
,
0001
0000
0000
0000
,
1000
0000
0000
0000
,
1000
0000
0000
0000
,
0220
0000
0000
0000
,
0000
0000
0000
0330
,
0100
0000
0001
0000
,
0100
0000
0001
0000
,
1000
0000
0100
0000
,
1000
0000
0010
0000
,
0100
0000
0001
0000
,
1000
0000
0100
0000
,
1000
0000
0010
0000
,
0100
0000
0001
0000
,
2000
0000
3002
0000
,
0203
0000
0320
0000
,
2030
0000
0000
0000
,
0000
0000
0000
0000
0000
0000
0000
3001
;
