#TITLE:Hellraiser;
#SUBTITLE:(VNV Nations Mix);
#ARTIST:Suicide Commando;
#TITLETRANSLIT:;
#SUBTITLETRANSLIT:;
#ARTISTTRANSLIT:;
#CREDIT:;
#BANNER:;
#BACKGROUND:;
#LYRICSPATH:;
#CDTITLE:kykaCD.png;
#MUSIC:Hellraiser (VNV Nations Mix).mp3;
#OFFSET:-0.100;
#SAMPLESTART:36.060;
#SAMPLELENGTH:13.660;
#SELECTABLE:YES;
#BPMS:0.000=140.030,80.000=143.030,84.000=140.530,115.000=145.250,116.000=140.030;
#STOPS:;
#BGCHANGES:;

//---------------dance-single - ----------------
#NOTES:
     dance-single:
     :
     Challenge:
     10:
     0.667,0.720,0.156,0.049,0.753: // measure 1
0000
0000
0000
0000
,  // measure 2
0000
0000
0000
0000
,  // measure 3
0000
0000
0000
0000
,  // measure 4
0000
0000
0000
0000
,  // measure 5
0000
0000
0000
0000
,  // measure 6
1000
0000
0000
0100
1000
0000
0000
0100
1000
0000
0000
0100
1000
0000
0000
0010
,  // measure 7
0100
0000
0000
0010
0100
0000
0000
0010
0100
0000
0000
0010
0100
0000
0000
0001
,  // measure 8
1000
0000
0000
0001
1000
0000
0000
0001
1000
0000
0000
0001
0100
0000
0000
0010
,  // measure 9
1000
0000
0000
0001
0010
0000
0000
0001
0010
0000
0000
0100
1000
0000
0000
0100
,  // measure 10
1000
0000
0010
0100
0000
0000
0010
1000
0000
0000
0001
0100
0000
0000
0001
1000
,  // measure 11
0000
0000
0100
1000
0000
0000
0010
0100
0000
0000
0001
1000
0000
0000
0100
1000
,  // measure 12
0000
0000
0010
0100
0000
0000
0001
0010
0000
0000
0001
1000
0000
0000
0010
1000
,  // measure 13
0000
0000
0001
0100
0000
0000
0001
1000
0000
0000
0010
1000
0000
0000
0001
0100
,  // measure 14
0000
0000
0001
0010
0000
0000
0001
0100
0000
0000
0010
1000
0000
0000
0100
1000
,  // measure 15
0000
0000
0010
0100
0000
0000
0001
0010
0000
0000
0100
0010
0000
0000
0001
1000
,  // measure 16
0000
0000
0010
1000
0000
0000
0010
0100
0000
0000
0001
1000
0000
0000
0001
0100
,  // measure 17
0010
0000
0000
1000
0100
0000
0000
0010
0001
0000
0000
1001
0000
0000
0000
0000
,  // measure 18
1001
0100
1000
0000
0001
0100
0001
0000
1000
0100
1000
0000
0010
0100
0010
0000
,  // measure 19
1000
0100
1000
0000
0001
0100
0001
0000
0100
0010
0100
0000
0010
1000
0010
0000
,  // measure 20
1000
0100
1000
0000
0001
0100
0001
0000
0010
0001
0010
0000
0001
1000
0001
0000
,  // measure 21
2000
0000
0000
0000
,  // measure 22
3001
0000
0000
1000
0100
0000
0000
0010
0001
0000
0000
0100
0010
0000
0000
1000
,  // measure 23
0001
0000
0000
0100
0001
0000
0000
1000
0100
0000
0000
1000
0010
0000
0000
0100
,  // measure 24
0010
0000
0000
1000
0001
0000
0000
0100
0001
0000
0000
0010
0001
0000
0000
0100
,  // measure 25
0010
0000
0000
1000
0100
0000
0000
1000
0010
0000
0000
0100
0001
0000
0000
0100
,  // measure 26
0010
0000
0000
0100
0001
0000
0000
0100
1000
0000
0000
0100
0001
0000
0000
1000
,  // measure 27
0100
0000
0000
0010
0001
0000
0000
0100
0001
0000
0000
0010
0100
0000
0000
0010
,  // measure 28
0001
0000
0000
1000
0100
0000
0000
0010
0100
0000
0000
1000
0001
0000
0000
0100
,  // measure 29
0001
0000
0000
1000
0100
0000
0000
1000
0010
0000
0000
0100
0020
0000
0000
0000
,  // measure 30
1030
0100
1000
0010
0100
0000
0001
0000
,  // measure 31
1000
0100
1000
0010
0100
0000
0001
0000
,  // measure 32
1000
0100
1000
0100
1000
0000
0001
0000
,  // measure 33
0100
0001
0010
0001
0100
0001
1000
0000
,  // measure 34
0001
0100
0001
1000
0200
0000
0000
0000
,  // measure 35
0310
0001
1000
0100
1000
0010
0100
0000
,  // measure 36
0001
1000
0100
1000
0002
0000
0000
0000
,  // measure 37
0103
0001
1000
0001
1001
0000
1100
0010
,  // measure 38
1000
0000
0001
0000
0010
0001
0000
0010
0001
0000
0100
0001
0000
0100
0001
0000
,  // measure 39
0100
0000
0000
0000
0010
0000
0100
0010
0100
0000
0000
0001
1000
0000
0010
0000
,  // measure 40
0100
0001
0000
0010
0001
0000
1000
0100
0000
1000
0010
0000
0100
0000
0010
1000
,  // measure 41
0010
0000
0000
0100
0001
0000
1000
0100
0000
1000
0010
0000
0100
0010
1000
0001
,  // measure 42
0100
0010
0100
0000
0010
1000
0000
0010
0100
0000
0001
1000
0000
0001
0100
0000
,  // measure 43
0010
0000
0000
1000
0100
0000
0010
0001
0000
0100
0001
0000
1000
0001
0000
0100
,  // measure 44
0010
0000
1000
0100
0000
1000
0010
0000
0100
0001
0000
0000
0010
0000
0001
0100
,  // measure 45
0000
0001
0100
0000
0010
1000
0000
0100
0010
0000
0001
1000
0001
0100
0001
0000
,  // measure 46
1000
0100
1000
0000
0010
0000
0010
1000
0100
0000
0100
0000
0010
0000
0010
0001
,  // measure 47
0100
0000
0100
0000
0010
0000
0010
1000
0100
0000
0100
0000
0010
0000
0010
0001
,  // measure 48
1000
0000
1000
0000
0001
0000
0001
0100
0010
0000
0010
0000
1000
0000
1000
0100
,  // measure 49
0010
0000
0010
0000
0001
0000
0001
0100
0010
0000
0010
0000
1000
0000
1000
0001
,  // measure 50
0100
0000
0100
0000
0001
0000
0001
0010
0100
0000
0100
0000
0010
0000
0010
0001
,  // measure 51
1000
0000
1000
0000
0010
0000
0010
0100
0001
0000
0001
0000
0100
0000
0100
0001
,  // measure 52
0010
0000
0010
0000
0001
0000
0001
1000
0100
0000
0100
0000
1000
0000
1000
0010
,  // measure 53
0100
0000
0100
0000
0010
0000
0010
1000
0001
0000
0001
0000
0100
0000
0100
0001
,  // measure 54
1000
0000
1000
0000
0100
1000
0000
0100
1000
0000
0010
1000
0000
0010
1000
0000
,  // measure 55
0010
0000
0000
0000
0100
0000
0010
0100
0010
0000
0000
1000
0001
0000
0100
0000
,  // measure 56
0010
1000
0000
0100
1000
0000
0001
0010
0000
0001
0100
0000
0010
0000
0100
0001
,  // measure 57
0100
0000
0000
0010
1000
0000
0001
0010
0000
0001
0100
0000
0010
0100
0001
1000
,  // measure 58
0010
0100
0010
0000
0100
0001
0000
0100
0010
0000
1000
0001
0000
1000
0010
0000
,  // measure 59
0100
0000
0000
0001
0010
0000
0100
1000
0000
0010
1000
0000
0001
1000
0000
0010
,  // measure 60
0100
0000
0001
0010
0000
0001
0100
0000
0010
1000
0000
0000
0100
0000
1000
0010
,  // measure 61
0000
1000
0010
0000
0100
0001
0000
0010
0100
0000
1000
0000
0001
0010
0001
0000
,  // measure 62
1000
0100
0000
0000
0010
0000
0001
0000
0011
0000
0000
0000
0001
0000
1000
0000
,  // measure 63
1001
0000
0000
0000
1000
0000
0100
0000
0110
0000
0000
0000
1000
0000
0001
0100
,  // measure 64
0001
0100
0000
0000
0001
0000
1000
0000
0101
0000
0000
0000
0010
0000
1000
0000
,  // measure 65
1100
0000
0000
0000
0001
0000
0010
0000
1100
0000
0000
0000
0010
0000
0001
0100
,  // measure 66
0001
0010
0000
0000
1000
0000
0100
0000
1100
0000
0000
0000
0010
0000
0100
0000
,  // measure 67
0110
0000
0000
0000
1000
0000
0001
0000
0011
0000
0000
0000
0001
0000
1000
0100
,  // measure 68
1000
0010
0000
0000
0100
0000
0010
0000
0110
0000
0000
0000
0010
0000
1000
0000
,  // measure 69
1010
1001
0110
1001
,  // measure 70
0220
0000
0000
0000
,  // measure 71
0330
0000
0000
0000
;
