#TITLE:Healing-D-Vision;
#SUBTITLE:(another);
#ARTIST:DE-STRAD;
#TITLETRANSLIT:;
#SUBTITLETRANSLIT:;
#ARTISTTRANSLIT:;
#CREDIT:;
#BANNER:Healing-D-Vision(another).png;
#BACKGROUND:Healing-D-Vision(another)-bg.png;
#LYRICSPATH:;
#CDTITLE:kykaCD.png;
#MUSIC:Healing-D-Vision(another).mp3;
#OFFSET:-1.493;
#SAMPLESTART:70.760;
#SAMPLELENGTH:15.000;
#SELECTABLE:YES;
#DISPLAYBPM:*;
#BPMS:0.000=180.000,208.000=360.000;
#STOPS:;
#BGCHANGES:;

//---------------dance-single - ----------------
#NOTES:
     dance-single:
     :
     Challenge:
     10:
     0.970,1.000,1.000,0.019,1.000:
1100
0000
0011
0000
0101
0000
1001
0000
1100
0000
0000
0000
,
1100
0000
1001
0000
0101
0000
1001
0000
1100
0000
0000
0000
,
1100
0000
0101
0000
1001
0000
1100
0000
1001
0000
0000
1010
,
1100
0000
0001
0000
0010
0000
0001
0000
0100
0000
0001
0000
,
1000
0100
0010
0001
0100
0001
0010
0001
,
0100
0010
1000
0100
0010
0001
0100
0001
,
1000
0100
0010
0001
0100
0001
0010
0001
,
0110
1100
0101
1010
,
0100
0010
1000
0100
0001
0010
1000
0001
,
0100
0010
1000
0001
0100
0001
0010
0001
,
0100
0010
1000
0001
0100
0001
0010
0001
,
1000
0010
0100
0001
0010
0001
0100
0010
,
1000
0000
0000
0010
0000
0000
0100
0000
0000
0010
0000
0000
1001
0000
0000
0000
1001
0000
0000
0000
1001
0000
0000
0000
,
1001
0000
0000
0100
0000
0000
0010
0000
0000
0000
0001
0000
0100
0000
0000
0010
0000
0000
1000
0000
0000
0001
0000
0000
,
0100
0000
0000
0001
0000
0000
0010
0000
0000
0001
0000
0000
0110
0000
0000
0000
0110
0000
0000
0000
0110
0000
0000
0000
,
0110
1100
0101
1001
,
0001
0000
0000
0100
0000
0000
0010
0000
0000
0100
0000
0000
1001
0000
0000
0000
1001
0000
0000
0000
1001
0000
0000
0000
,
1001
0000
0000
0010
0000
0000
0100
0000
0000
0000
1000
0000
0010
0000
0000
0100
0000
0000
0001
0000
0000
1000
0000
0000
,
0010
0000
0000
1000
0000
0000
0100
0000
0000
1000
0000
0000
0110
0000
0000
0000
0110
0000
0000
0000
0110
0000
0000
0000
,
0110
1000
0010
0100
0001
0010
0001
1000
,
0001
0010
0001
0010
0100
0010
0100
1000
0100
1000
0001
1000
,
0001
0100
0001
0100
0010
0100
0010
1000
0010
1000
0010
1000
,
0010
0100
0010
0100
0001
0100
0001
1000
0001
1000
0100
1000
,
0100
0010
0100
0010
0001
0010
0001
1000
0001
1000
0001
1000
,
0001
0010
0001
0010
0100
0010
0100
1000
0100
1000
0001
1000
,
0001
0100
0001
0100
0010
0100
0010
1000
0010
1000
0010
1000
,
0010
0100
0010
0100
0001
0100
0001
1000
0001
1000
0100
1000
,
0100
0010
0100
0010
0001
0010
0001
1000
0001
1000
0001
1000
,
1001
0000
0000
0000
0000
0000
1100
0000
0000
0010
0000
0000
0000
0000
0000
0000
0100
0000
1001
0000
0000
0000
0000
0000
,
1100
0110
1001
0101
,
1001
0000
0000
0000
0000
0000
1100
0000
0000
0001
0000
0000
0000
0000
0000
0000
0100
0000
0011
0000
0000
0000
0000
0000
,
1100
0101
0011
1001
,
1001
0000
0000
0000
0000
0000
0011
0000
0000
0100
0000
0000
0000
0000
0000
0000
0010
0000
1001
0000
0000
0000
0000
0000
,
0011
0110
1001
1010
,
1001
0000
0000
0000
0000
0000
0011
0000
0000
1000
0000
0000
0000
0000
0000
0000
0010
0000
1100
0000
0000
0000
0000
0000
,
0011
0000
1010
0000
1100
1100
0000
0000
,
1000
0100
1000
0100
1000
0100
1000
0100
1000
0100
1000
0100
,
0010
0001
0010
0001
0010
0001
0010
0001
0010
0001
0010
0001
,
0100
0010
0100
0010
0100
0010
0100
0010
0100
0010
0100
0010
,
1000
0001
1000
0001
1000
0001
1000
0001
1000
0001
1000
0001
,
1010
0000
1001
0000
0110
0000
1100
0000
1001
0000
0000
0000
,
1100
0000
0101
0000
0011
0000
1100
0000
1001
0000
0000
0000
,
1100
0000
1001
0000
0110
0000
0011
0000
1100
0000
0000
1100
,
1100
0000
0000
0000
,
1100
0000
0101
0000
0011
0000
1100
0000
1001
0000
0000
0000
,
1100
0000
1100
0000
1001
0000
0011
0000
0101
0000
0000
0000
,
1100
0000
1100
0000
1001
0000
0101
0000
0011
0000
0000
0000
,
0101
0000
0101
0000
1100
0000
1001
0000
0110
0000
0000
0000
,
0101
0000
0101
0000
1100
0000
1001
0000
0110
0000
0000
0000
,
0101
0000
1100
0000
1001
0000
0101
0000
1010
0000
0000
0000
,
0101
0000
1100
0000
0101
0000
1001
0000
1100
0000
0000
0101
,
1001
0000
0000
0000
,
1100
0000
0000
0000
0011
0000
0000
0000
1001
0000
0000
0000
,
1100
0000
0000
0000
1001
0000
0000
0000
0000
0000
0000
0000
,
1100
0000
0000
0000
0011
0000
0000
0000
1001
0000
0000
0000
,
1100
0000
0000
0000
0110
0000
0000
0000
0000
0000
0000
0000
,
0101
0000
0000
0000
1100
0000
0000
0000
1001
0000
0000
0000
,
0011
0000
0000
0000
1100
0000
0000
0000
0000
0000
1100
0000
,
1001
0000
0000
0000
0010
0000
0000
0000
1000
0000
0000
0000
,
0001
0000
0000
0000
0100
0000
0000
0000
0001
0000
0000
0000
,
1000
0000
0100
0000
0010
0000
0001
0000
0000
0000
0100
0000
,
0001
0000
0000
0000
1000
0000
0001
0000
0100
0000
0001
0000
,
1000
0000
0100
0000
1000
0000
0010
0000
0000
0000
1000
0000
,
0001
0000
0000
0000
0100
0000
0001
0000
1000
0000
0010
0000
,
0100
0000
0001
0000
1000
0000
0001
0000
0000
0000
0010
0000
,
0001
0000
0000
0000
0100
0000
0010
0000
1000
0000
0010
0000
,
0100
0000
0001
0000
1000
0000
0001
0000
0000
0000
1000
0000
,
0100
0000
0000
0000
1000
0000
0010
0000
0100
0000
0001
0000
,
1000
0000
0100
0000
1000
0000
0001
0000
0000
0000
0100
0000
,
0010
0000
0000
0000
1000
0000
0010
0000
0100
0000
0001
0000
,
1000
0000
0010
0000
1000
0000
0010
0000
0000
0000
0100
0000
,
0001
0000
0000
0000
0100
0000
0010
0000
0100
0000
0010
0000
,
0100
0000
0001
0000
1000
0000
0001
0000
0000
0000
0010
0000
,
0001
0000
0000
0000
0100
0000
0010
0000
1000
0000
0010
0000
,
0100
0000
0001
0000
1000
0000
0001
0000
0000
0000
1000
0000
,
0100
0000
0000
0000
1000
0000
0010
0000
0100
0000
0001
0000
,
1000
1001
0010
1000
,
1010
0000
0000
0110
0000
0000
1001
0000
,
0010
1100
0001
0100
,
1001
0000
0000
1100
0000
0000
0011
0000
,
1000
0110
0001
1000
,
0011
0000
0000
1100
0000
0000
0110
0000
,
0010
1100
0010
0100
,
0011
0000
0000
1001
0000
0000
1100
0000
,
1010
0000
0000
0000
1100
0000
0000
0000
0101
0000
0000
0000
,
1001
0000
0000
0000
1100
0000
0000
0000
0000
0000
0000
0000
,
1001
0000
0000
0000
0011
0000
0000
0000
0101
0000
0000
0000
,
1001
0000
0000
0000
1100
0000
0000
0000
0000
0000
0000
0000
,
0011
0000
0000
0000
0101
0000
0000
0000
1001
0000
0000
0000
,
1100
0000
0000
0000
0110
0000
0000
0000
0000
0000
1010
0000
,
0101
0000
0000
0000
1001
0000
0000
0000
1100
0000
0000
0000
,
0110
0000
0000
0000
0000
0000
0000
0000
1001
0000
0000
0000
,
0220
0000
0000
0000
,
0000
0000
0000
0000
,
0330
0000
0000
0000
;

//---------------dance-double - ----------------
#NOTES:
     dance-double:
     :
     Hard:
     10:
     0.730,0.862,0.811,0.019,0.415:
00000000
00000000
00000000
00000000
,
00000000
00000000
00000000
00000000
,
00000000
00000000
00000000
00000000
,
00000000
00000000
00000000
00000000
,
10000000
00000000
00000000
10000000
01000000
00000000
00000000
01000000
00010000
00000000
00000000
00000000
00011000
00000000
00000000
00000000
,
00000010
00000000
00000000
00000010
00001000
00000000
00000000
00001000
00010000
00000000
00000000
00000000
01010000
00000000
00000000
00000000
,
10000000
00000000
00000000
10000000
00100000
00000000
00000000
00100000
00010000
00000000
00000000
00000000
00011000
00000000
00000000
00000000
,
00000100
00001000
00010000
00100000
,
10000000
00000000
00000000
10000000
01000000
00000000
00000000
01000000
00010000
00000000
00000000
00000000
00011000
00000000
00000000
00000000
,
00000010
00000000
00000000
00000010
00000001
00000000
00000000
00000000
00000100
00000000
00000000
00000000
00001100
00000000
00000000
00000000
,
00010000
00000000
00000000
00010000
00001000
00000000
00000000
00001000
01000000
00000000
00000000
00000000
01100000
00000000
00000000
00000000
,
10000000
00000000
00000000
00000000
00010000
00000000
00000000
00000000
01000000
00000000
00000000
00100000
10000000
00000000
00000000
00010000
,
10000000
00000000
00000000
01000000
00100000
00000000
00000000
00000000
00001000
00000000
00000000
00010000
00000000
00000000
00001000
00000000
,
00010000
00000000
00000000
00000100
00000010
00000000
00000000
00000001
00001000
00000000
00000000
00000001
00000000
00000000
00000000
00000100
,
00000010
00000000
00000000
00010000
00001000
00000000
00000000
00000000
00010000
00000000
00000000
00001000
00000000
00000000
00010000
00000000
,
00001000
00000000
00000000
01000000
00100000
00000000
00000000
10000000
00010000
00000000
00000000
01000000
00100000
00000000
00000000
10000000
,
00010000
00000000
00000000
00100000
00001000
00000000
00000000
00000000
00010000
00000000
00000000
00001000
00000000
00000000
00010000
00000000
,
00000100
00000000
00000000
00000010
00000001
00000000
00000000
00001000
00000100
00000000
00000000
00000000
00010000
00000000
00000000
00001000
,
00010000
00000000
00000000
00001000
01000000
00000000
00000000
00000000
00001000
00000000
00000000
00010000
00000000
00000000
00001000
00000000
,
00100000
00000000
00000000
01000000
10000000
00000000
00000000
00010000
10000000
00000000
00000000
00000000
00100000
00000000
00000000
10000000
,
01000000
00000000
00000000
00000000
00010000
00000000
00000000
01000000
00100000
00000000
00000000
00000000
00001000
00000000
00010000
00000000
,
00001000
00000000
00000000
00000000
00010000
00000000
00000000
00000100
00000010
00000000
00000000
00000001
00000000
00000000
00000001
00000000
,
00000100
00000000
00000000
00000000
00001000
00000000
00000000
00000100
00000010
00000000
00000000
00000000
00010000
00000000
00001000
00000000
,
00010000
00000000
00000000
00000000
00001000
00000000
00000000
01000000
00100000
00000000
00000000
10000000
00000000
00000000
10000000
00000000
,
01000000
00000000
00000000
00000000
00010000
00000000
00000000
01000000
00100000
00000000
00000000
00000000
00001000
00000000
00010000
00000000
,
00001000
00000000
00000000
00000000
00010000
00000000
00000000
00000100
00000010
00000000
00000000
00000001
00000000
00000000
00000001
00000000
,
00000100
00000000
00000000
00000000
00001000
00000000
00000000
00000100
00000010
00000000
00000000
00000000
00010000
00000000
00001000
00000000
,
00010000
00000000
00000000
00000000
00001000
00000000
00000000
01000000
00100000
00000000
00000000
10000000
00000000
00000000
00010000
00000000
,
10000000
00000000
00000000
10000000
01000000
00000000
00000000
00000000
00010000
00000000
00000000
00000000
01010000
00000000
00000000
00000000
,
00010000
00000000
00000000
00010000
00001000
00000000
00000000
00000000
00000010
00000000
00000000
00000000
00001010
00000000
00000000
00000000
,
00000010
00000000
00000000
00000010
00000001
00000000
00000000
00000000
00000100
00000000
00000000
00000000
00001100
00000000
00000000
00000000
,
00000100
00000000
00000000
00000100
00001000
00000000
00000000
00000000
00010000
00000000
00000000
00000000
00011000
00000000
00000000
00000000
,
00010000
00000000
00000000
00010000
00100000
00000000
00000000
00000000
10000000
00000000
00000000
00000000
11000000
00000000
00000000
00000000
,
01000000
00000000
00000000
01000000
00010000
00000000
00000000
00000000
00001000
00000000
00000000
00000000
00011000
00000000
00000000
00000000
,
00001000
00000000
00000000
00001000
00000010
00000000
00000000
00000000
00000001
00000000
00000000
00000000
00000011
00000000
00000000
00000000
,
00000001
00000000
00000000
00000001
00000100
00000000
00000000
00000000
00001000
00000000
00000000
00000000
00011000
00000000
00000000
00000000
,
01000000
00100000
01000000
00000000
10000000
00000000
00000000
01000000
00010000
00000000
00000000
00000000
00001000
00010000
00001000
00000000
,
00000010
00000100
00000010
00000000
00000001
00000000
00000000
00000010
00001000
00000000
00000000
00000000
00010000
00001000
00010000
00000000
,
01000000
00100000
01000000
00000000
10000000
00000000
00000000
01000000
00010000
00000000
00000000
00000000
00001000
00010000
00001000
00000000
,
00000010
00000100
00000010
00000000
00000001
00000000
00000000
00000010
00001000
00000000
00000000
00000000
00011000
00000000
00000000
00000000
,
00010000
00000000
00000000
00110000
00000000
00000000
01100000
00000000
00000000
11000000
00000000
00000000
10000000
00000000
00000000
00000000
,
10000000
00000000
00000000
11000000
00000000
00000000
01100000
00000000
00000000
00110000
00000000
00000000
00010000
00000000
00000000
00000000
,
00001000
00000000
00000000
00001010
00000000
00000000
00000110
00000000
00000000
00000101
00000000
00000000
00000001
00000000
00000000
00000000
,
00000110
00000000
00000000
00000000
,
00001000
00000000
00000000
00001010
00000000
00000000
00000110
00000000
00000000
00000011
00000000
00000000
00001001
00000000
00000000
00000000
,
00000001
00000000
00000000
00000101
00000000
00000000
00000110
00000000
00000000
00001100
00000000
00000000
00011000
00000000
00000000
00000000
,
00010000
00000000
00000000
01010000
00000000
00000000
01100000
00000000
00000000
11000000
00000000
00000000
10010000
00000000
00000000
00000000
,
10000000
00000000
00000000
11000000
00000000
00000000
01100000
00000000
00000000
01010000
00000000
00000000
00011000
00000000
00000000
00000000
,
00001000
00000000
00000000
00001010
00000000
00000000
00000110
00000000
00000000
00000011
00000000
00000000
00001001
00000000
00000000
00000000
,
00000001
00000000
00000000
00000101
00000000
00000000
00000110
00000000
00000000
00001100
00000000
00000000
00011000
00000000
00000000
00000000
,
00010000
00000000
00000000
01010000
00000000
00000000
01100000
00000000
00000000
11000000
00000000
00000000
10010000
00000000
00000000
00000000
,
01100000
00000000
00000000
00000000
,
10100000
00000000
00000000
10010000
00000000
00000000
11000000
00000000
,
00000000
01100000
00000000
00000000
00101000
00000000
00000000
00000000
,
00011000
00000000
00000000
00010100
00000000
00000000
00001100
00000000
,
00000000
00000110
00000000
00000000
00000011
00000000
00000000
00000000
,
00000101
00000000
00000000
00001001
00000000
00000000
00000011
00000000
,
00000000
00000110
00000000
00000000
00010100
00000000
00000000
00000000
,
00010000
00000000
00000000
00001000
00000000
00000000
00100000
00000000
,
01000000
00000000
00000000
10000000
00000000
00000000
00010000
00000000
,
10000000
01000000
10000000
00010000
00000000
00000000
00000000
00100000
,
00001000
00000000
00000000
00010000
00000100
00001000
00000001
00000000
,
00000010
00000001
00000010
00000100
00000000
00000000
00000000
00010000
,
00001000
00000000
00000000
00100000
01000000
10000000
00010000
00000000
,
10000000
00100000
10000000
00010000
00000000
00000000
00000000
01000000
,
00001000
00000000
00000000
00010000
00000010
00001000
00000001
00000000
,
00000100
00000001
00000100
00000010
00000000
00000000
00000000
00010000
,
00001000
00000000
00000000
01000000
00100000
10000000
00010000
00000000
,
10000000
01000000
10000000
00010000
00000000
00000000
00000000
00100000
,
00001000
00000000
00000000
00010000
00000100
00001000
00000001
00000000
,
00000010
00000001
00000010
00000100
00000000
00000000
00000000
00010000
,
00001000
00000000
00000000
00100000
01000000
10000000
00010000
00000000
,
10000000
00100000
10000000
00010000
00000000
00000000
00000000
01000000
,
00001000
00000000
00000000
00010000
00000010
00001000
00000001
00000000
,
00000100
00000001
00000100
00000010
00000000
00000000
00000000
00010000
,
00001000
00000000
00000000
01000000
00100000
10000000
00010000
00000000
,
10000000
01000000
00100000
00000000
01000000
00100000
00001000
00000000
,
00100000
00001000
00010000
00000000
00001000
00010000
00000100
00000000
,
00010000
00000100
00000010
00000000
00000100
00000010
00000001
00000000
,
00000010
00000001
00000100
00000000
00000001
00000100
00000010
00001000
,
00000001
00000010
00000100
00000000
00000010
00000100
00010000
00000000
,
00000100
00010000
00001000
00000000
00010000
00001000
00100000
00000000
,
00001000
00100000
01000000
00000000
00100000
01000000
10000000
00000000
,
01000000
10000000
00100000
00000000
10000000
00100000
01000000
00000000
,
01100000
00000000
00000000
01010000
00000000
00000000
01001000
00000000
,
00000000
00011000
00000000
00000000
00010010
00000000
00000000
00000000
,
00011000
00000000
00000000
00101000
00000000
00000000
00110000
00000000
,
00000000
01100000
00000000
00000000
11000000
00000000
00000000
00000000
,
01100000
00000000
00000000
00110000
00000000
00000000
00101000
00000000
,
00000000
00011000
00000000
00000000
00010100
00000000
00000000
00000000
,
00000010
00000000
00000000
00000001
00000000
00000000
00000010
00000000
,
00000000
00000100
00000000
00000000
00000000
00000000
00020000
00000000
,
00002000
00000000
00000000
00000000
,
00000000
00000000
00000000
00000000
,
00033000
00000000
00000000
00000000
;

//---------------dance-double - ----------------
#NOTES:
     dance-double:
     :
     Easy:
     7:
     0.407,0.590,0.126,0.174,0.097:
00000000
00000000
00000000
00000000
,
00000000
00000000
00000000
00000000
,
00000000
00000000
00000000
00000000
,
00000000
00000000
00000000
00000000
,
10000000
00000000
10000000
00000000
,
10000000
00000000
00100000
00000000
,
10000000
00000000
00100000
00000000
,
10000000
01000000
00010000
00001000
,
00000010
00000000
00000100
00000000
,
00000010
00000000
00000001
00000000
,
00000010
00000000
00000001
00000000
,
00000100
00001000
00010000
00100000
,
10000000
01000000
00010000
00000000
,
00010000
00001000
00000100
00000000
,
00000100
00000001
00000010
00000000
,
00000010
00001000
00010000
00000000
,
01000000
10000000
01000000
00000000
,
10000000
00100000
00010000
00000000
,
00001000
00000010
00000001
00000000
,
00000001
00000100
00001000
00010000
,
00100000
10000000
01000000
10000000
,
00100000
00010000
00001000
00011000
,
00000010
00000001
00000100
00000001
,
00000010
00001000
00010000
00011000
,
01000000
10000000
00100000
10000000
,
01000000
00010000
00001000
00011000
,
00000100
00000001
00000010
00000001
,
00000100
00001000
00010000
00011000
,
00002000
00003100
00020000
01030000
,
00002000
00003100
00020000
01030000
,
00002000
00003010
00020000
00130000
,
00002000
00003010
00020000
00130000
,
00002000
00003100
00020000
01030000
,
00002000
00003010
00020000
00130000
,
00002000
00003100
00020000
01030000
,
00002000
00003010
00020000
00130000
,
00010000
00001000
00000010
00000001
,
00000010
00001000
00010000
00011000
,
01000000
00010000
00001000
00010000
,
01000000
10000000
00100000
00010000
,
00001000
00000000
00000000
00001000
00000000
00000000
00010000
00000000
00000000
00001000
00000000
00000000
00001000
00000000
00000000
00000000
,
00000100
00000000
00000000
00000100
00000000
00000000
00001000
00000000
00000000
00000100
00000000
00000000
00000100
00000000
00000000
00000000
,
00001000
00000000
00000000
00001000
00000000
00000000
00010000
00000000
00000000
00001000
00000000
00000000
00001000
00000000
00000000
00000000
,
00010000
00000000
00000000
00001000
,
00010000
00000000
00000000
00010000
00000000
00000000
00001000
00000000
00000000
00010000
00000000
00000000
00010000
00000000
00000000
00000000
,
00100000
00000000
00000000
00100000
00000000
00000000
00010000
00000000
00000000
00100000
00000000
00000000
00100000
00000000
00000000
00000000
,
00010000
00000000
00000000
00010000
00000000
00000000
00001000
00000000
00000000
00010000
00000000
00000000
00010000
00000000
00000000
00000000
,
00001000
00000000
00000000
00001000
00000000
00000000
00000100
00000000
00000000
00001000
00000000
00000000
00001000
00000000
00000000
00000000
,
00010000
00000000
00000000
00010000
00000000
00000000
00001000
00000000
00000000
00010000
00000000
00000000
00010000
00000000
00000000
00000000
,
01000000
00000000
00000000
01000000
00000000
00000000
00010000
00000000
00000000
00001000
00000000
00000000
00001000
00000000
00000000
00000000
,
00000010
00000000
00000000
00000010
00000000
00000000
00001000
00000000
00000000
00010000
00000000
00000000
00010000
00000000
00000000
00000000
,
00001000
00000000
00000000
00000000
,
00010000
00000000
00000000
01000000
00000000
00000000
10000000
00000000
,
00000000
01000000
00000000
00000000
00010000
00000000
00000000
00000000
,
00001000
00000000
00000000
00000100
00000000
00000000
00000001
00000000
,
00000000
00000100
00000000
00000000
00001000
00000000
00000000
00000000
,
00010000
00000000
00000000
00100000
00000000
00000000
10000000
00000000
,
00000000
00100000
00000000
00000000
00010000
00000000
00000000
00000000
,
00001000
00000000
00000000
00000010
00000000
00000000
00000001
00000000
,
00000010
00000000
00000000
00001000
00000000
00000000
00000000
00000000
,
00010000
00000000
01010000
00000000
,
01000000
00000000
00000000
00000000
,
00100000
00000000
00101000
00000000
,
00001000
00000000
00000000
00000000
,
00001000
00000000
00001100
00000000
,
00000100
00000000
00000000
00000000
,
00000010
00000000
00010010
00000000
,
00010000
00000000
00000000
00000000
,
00010000
00000000
00110000
00000000
,
00100000
00000000
00000000
00000000
,
01000000
00000000
01001000
00000000
,
00001000
00000000
00000000
00000000
,
00001000
00000000
00001010
00000000
,
00000010
00000000
00000000
00000000
,
00000100
00000000
00010100
00000000
,
00010000
00000000
00001000
00000000
,
00010000
00000000
01000000
00000000
,
00010000
00001000
00010000
00000000
,
00001000
00000000
00000010
00000000
,
00001000
00010000
00001000
00000000
,
00010000
00000000
00100000
00000000
,
00010000
00001000
00010000
00000000
,
00001000
00000000
00000100
00000000
,
00001000
00010000
00001000
00000000
,
01000000
00000000
00000000
00100000
00000000
00000000
00010000
00000000
,
00000000
00001000
00000000
00000000
00000100
00000000
00000000
00000000
,
00000100
00000000
00000000
00001000
00000000
00000000
00000000
00010000
,
00000000
00100000
00000000
00000000
01000000
00000000
00000000
00000000
,
01000000
00000000
00000000
00100000
00000000
00000000
00010000
00000000
,
00000000
00001000
00000000
00000000
00000100
00000000
00000000
00000000
,
00000100
00000000
00000000
00001000
00000000
00000000
00010000
00000000
,
00000000
00100000
00000000
00000000
00000000
00000000
02000000
00000000
,
00200000
00000000
00000000
00000000
,
00000000
00000000
00000000
00000000
,
03300000
00000000
00000000
00000000
;

//---------------dance-double - ----------------
#NOTES:
     dance-double:
     :
     Medium:
     9:
     0.531,0.590,0.367,0.019,0.309:
00000000
00000000
00000000
00000000
,
00000000
00000000
00000000
00000000
,
00000000
00000000
00000000
00000000
,
00000000
00000000
00000000
00000000
,
00100000
00000000
00000000
00000000
01000000
00000000
00000000
00000000
00100000
00000000
00000000
00001000
00010000
00000000
00000000
00000000
,
00001000
00000000
00000000
00000000
00000100
00000000
00000000
00000000
00000001
00000000
00000000
00000010
00000001
00000000
00000000
00000000
,
00000010
00000000
00000000
00000000
00000100
00000000
00000000
00000000
00000010
00000000
00000000
00001000
00010000
00000000
00000000
00000000
,
00001000
00100000
01000000
00010000
,
00100000
00000000
00000000
00000000
01000000
00000000
00000000
00000000
00100000
00000000
00000000
00001000
00010000
00000000
00000000
00000000
,
00001000
00000000
00000000
00000000
00000100
00000000
00000000
00000000
00000001
00000000
00000000
00000010
00000001
00000000
00000000
00000000
,
00000010
00000000
00000000
00000000
00000100
00000000
00000000
00000000
00000010
00000000
00000000
00001000
00010000
00000000
00000000
00000000
,
00001000
00100000
01000000
00010000
,
00100000
00000000
00000000
00000000
00001000
00000000
00000000
00000000
01000000
00000000
00000000
00001000
00010000
00000000
00000000
00000000
,
00000100
00000000
00000000
00000000
00000010
00000000
00000000
00000000
00000001
00000000
00000000
00001000
00000000
00000000
00000000
00000100
,
00000010
00000000
00000000
00000000
00001000
00000000
00000000
00000000
00010000
00000000
00000000
00001000
00010000
00000000
00000000
00000000
,
01000000
00000000
00000000
00000000
00100000
00000000
00000000
00000000
00001000
00000000
00000000
00010000
00000000
00000000
00000000
00001000
,
00000010
00000000
00000000
00000000
00000100
00000000
00000000
00000000
00010000
00000000
00000000
00001000
00010000
00000000
00000000
00000000
,
01000000
00000000
00000000
00000000
00100000
00000000
00000000
00000000
00001000
00000000
00000000
00010000
00000000
00000000
00000000
00001000
,
00100000
00000000
00000000
00000000
00001000
00000000
00000000
00000000
00010000
00000000
00000000
00001000
00000100
00000000
00000000
00000000
,
00000001
00000000
00000000
00000000
00001000
00000000
00000000
00000000
00000010
00000000
00000000
00000100
00000000
00000000
00000000
00000001
,
00000010
00000000
00000000
00000001
00000100
00000000
00000000
00000000
00000100
00000000
00000000
00001000
00000000
00000000
00010000
00000000
,
00100000
00000000
00000000
10000000
01000000
00000000
00000000
00000000
01000000
00000000
00000000
00010000
00000000
00000000
00001000
00000000
,
00000100
00000000
00000000
00000001
00000010
00000000
00000000
00000000
00000010
00000000
00000000
00001000
00000000
00000000
00010000
00000000
,
01000000
00000000
00000000
10000000
00100000
00000000
00000000
00000000
00100000
00000000
00010000
00000000
00000000
00000000
00001000
00000000
,
00000010
00000000
00000000
00000001
00000100
00000000
00000000
00000000
00000100
00000000
00000000
00001000
00000000
00000000
00010000
00000000
,
00100000
00000000
00000000
10000000
01000000
00000000
00000000
00000000
01000000
00000000
00000000
00010000
00000000
00000000
00001000
00000000
,
00000100
00000000
00000000
00000001
00000010
00000000
00000000
00000000
00000010
00000000
00000000
00001000
00000000
00000000
00010000
00000000
,
01000000
00000000
00000000
10000000
00100000
00000000
00000000
00000000
00100000
00000000
00010000
00000000
00000000
00000000
00001000
00000000
,
00010000
01010000
00001000
00001100
,
00010000
01010000
00001000
00001100
,
00010000
01010000
00001000
00001100
,
00010000
01010000
00001000
00001100
,
00010000
00110000
00001000
00001010
,
00010000
00110000
00001000
00001010
,
00010000
00110000
00001000
00001010
,
00010000
00110000
00001000
00001010
,
00000010
00000000
00000000
00000001
00000100
00000000
00000000
00000000
00001000
00000000
00000000
00010000
00001000
00000000
00000000
00000000
,
00001000
00000000
00000000
01000000
00100000
00000000
00000000
00000000
10000000
00000000
00000000
00010000
00000000
00000000
00000000
01000000
,
00100000
00000000
00000000
10000000
01000000
00000000
00000000
00000000
00010000
00000000
00000000
00001000
00010000
00000000
00000000
00000000
,
00010000
00000000
00000000
00000100
00000010
00000000
00000000
00000000
00000001
00000000
00000000
00001000
00000000
00000000
00000000
00000100
,
00000010
00000000
00000000
00000010
00000000
00000000
00000001
00000000
00000000
00000001
00000000
00000000
00000101
00000000
00000000
00000000
,
00001000
00000000
00000000
00001000
00000000
00000000
00010000
00000000
00000000
00010000
00000000
00000000
01010000
00000000
00000000
00000000
,
10000000
00000000
00000000
10000000
00000000
00000000
00100000
00000000
00000000
00100000
00000000
00000000
00110000
00000000
00000000
00000000
,
00001000
00000000
00000000
00010000
,
00001000
00000000
00000000
00000100
00000000
00000000
00001000
00000000
00000000
00010000
00000000
00000000
01010000
00000000
00000000
00000000
,
00010000
00000000
00000000
01000000
00000000
00000000
00010000
00000000
00000000
00001000
00000000
00000000
00001100
00000000
00000000
00000000
,
00001000
00000000
00000000
00000100
00000000
00000000
00001000
00000000
00000000
00010000
00000000
00000000
01010000
00000000
00000000
00000000
,
00010000
00000000
00000000
01000000
00000000
00000000
00010000
00000000
00000000
00001000
00000000
00000000
00001100
00000000
00000000
00000000
,
00001000
00000000
00000000
00000100
00000000
00000000
00001000
00000000
00000000
00010000
00000000
00000000
00110000
00000000
00000000
00000000
,
00010000
00000000
00000000
00100000
00000000
00000000
00010000
00000000
00000000
00001000
00000000
00000000
00001010
00000000
00000000
00000000
,
00001000
00000000
00000000
00000010
00000000
00000000
00001000
00000000
00000000
00010000
00000000
00000000
00110000
00000000
00000000
00000000
,
00010000
00000000
00000000
00100000
00000000
00000000
00010000
00000000
00000000
00001000
00000000
00000000
00000100
00000000
00000000
00000000
,
00000010
00000000
00000000
00000001
00000000
00000000
00000100
00000000
,
00000000
00001000
00000000
00000000
00001100
00000000
00000000
00000000
,
00001000
00000000
00000000
00010000
00000000
00000000
00100000
00000000
,
00000000
10000000
00000000
00000000
10100000
00000000
00000000
00000000
,
10000000
00000000
00000000
01000000
00000000
00000000
00010000
00000000
,
00000000
00001000
00000000
00000000
00011000
00000000
00000000
00000000
,
00001000
00000000
00000000
00000010
00000000
00000000
00000001
00000000
,
00000010
00000000
00000000
00000100
00000000
00000000
00001000
00000000
,
00000001
00000000
00000000
00000100
00001000
00000000
00000000
00000000
,
00010000
00000000
00100000
00000000
,
10000000
00000000
00000000
01000000
00010000
00000000
00000000
00000000
,
00001000
00000000
00000010
00000000
,
00000001
00000000
00000000
00000010
00001000
00000000
00000000
00000000
,
00010000
00000000
01000000
00000000
,
10000000
00000000
00000000
00100000
00010000
00000000
00000000
00000000
,
00001000
00000000
00000000
00000000
00000100
00000000
00000000
00000100
,
00000001
00000000
00000000
00000010
00001000
00000000
00000000
00000000
,
00010000
00000000
01000000
00000000
,
10000000
00000000
00000000
00100000
00010000
00000000
00000000
00000000
,
00001000
00000000
00000100
00000000
,
00000001
00000000
00000000
00000100
00001000
00000000
00000000
00000000
,
00010000
00000000
00100000
00000000
,
10000000
00000000
00000000
01000000
00010000
00000000
00000000
00000000
,
00001000
00000000
00000000
00000000
00000010
00000000
00000000
00000010
,
00000100
00010000
00001000
00000000
,
01000000
00001000
00010000
00000000
,
00000100
00010000
00001000
00000000
,
01000000
00000000
00011000
00000000
,
00000010
00010000
00001000
00000000
,
00100000
00001000
00010000
00000000
,
00000010
00010000
00001000
00000000
,
00100000
00000000
00011000
00000000
,
00000100
00000000
00000000
00000110
00000000
00000000
00000001
00000000
,
00000000
00001001
00000000
00000000
00000100
00000000
00000000
00000000
,
00001000
00000000
00000000
00011000
00000000
00000000
00100000
00000000
,
00000000
01100000
00000000
00000000
01000000
00000000
00000000
00000000
,
01000000
00000000
00000000
01100000
00000000
00000000
10000000
00000000
,
00000000
10010000
00000000
00000000
01000000
00000000
00000000
00000000
,
00010000
00000000
00000000
00011000
00000000
00000000
00000010
00000000
,
00000000
00000100
00000000
00000000
00000000
00000000
00002000
00000000
,
00000002
00000000
00000000
00000000
,
00000000
00000000
00000000
00000000
,
00003003
00000000
00000000
00000000
;

//---------------dance-double - ----------------
#NOTES:
     dance-double:
     :
     Challenge:
     10:
     0.828,0.998,0.782,0.019,0.628:
00000000
00000000
00000000
00000000
,
00000000
00000000
00000000
00000000
,
00000000
00000000
00000000
00000000
,
00000000
00000000
00000000
00000000
,
10000000
00000000
00000000
10000000
01000000
00000000
00000000
01000000
00010000
00000000
00000000
00010000
00001000
00000000
00000000
00000000
,
00000010
00000000
00000000
00000010
00001000
00000000
00000000
00001000
00010000
00000000
00000000
00010000
01000000
00000000
00000000
00000000
,
10000000
00000000
00000000
10000000
00100000
00000000
00000000
00100000
00010000
00000000
00000000
00010000
00001000
00000000
00000000
00000000
,
00000100
00001000
00010000
00100000
,
10000000
00000000
00000000
10000000
01000000
00000000
00000000
01000000
00010000
00000000
00000000
00010000
00001000
00000000
00000000
00000000
,
00000010
00000000
00000000
00000010
00000001
00000000
00000000
00000000
00000100
00000000
00000000
00000100
00001000
00000000
00000000
00000000
,
00010000
00000000
00000000
00010000
00001000
00000000
00000000
00001000
01000000
00000000
00000000
01000000
00100000
00000000
00000000
00000000
,
10000000
00000000
00000000
00000000
00010000
00000000
00000000
00000000
01000000
00000000
00000000
00100000
10000000
00000000
00000000
00010000
,
10000000
00000000
00000000
01000000
00100000
00000000
00000000
00000000
00001000
00000000
00000000
00010000
00000000
00000000
00001000
00000000
,
00010000
00000000
00000000
00000100
00000010
00000000
00000000
00000001
00001000
00000000
00000000
00000001
00000000
00000000
00000000
00000100
,
00000010
00000000
00000000
00010000
00001000
00000000
00000000
00000000
00010000
00000000
00000000
00001000
00000000
00000000
00010000
00000000
,
00001000
00000000
00000000
01000000
00100000
00000000
00000000
10000000
00010000
00000000
00000000
01000000
00100000
00000000
00000000
10000000
,
00010000
00000000
00000000
00100000
00001000
00000000
00000000
00000000
00010000
00000000
00000000
00001000
00000000
00000000
00010000
00000000
,
00000100
00000000
00000000
00000010
00000001
00000000
00000000
00001000
00000100
00000000
00000000
00000000
00010000
00000000
00000000
00001000
,
00010000
00000000
00000000
00001000
01000000
00000000
00000000
00000000
00001000
00000000
00000000
00010000
00000000
00000000
00001000
00000000
,
00100000
00000000
00000000
01000000
10000000
00000000
00000000
00010000
10000000
00000000
00000000
00000000
00100000
00000000
00000000
10000000
,
01000000
00000000
00000000
01000000
00010000
00000000
00000000
01000000
00100000
00000000
00000000
00100000
00001000
00000000
00010000
00000000
,
00001000
00000000
00000000
00010000
00000100
00000000
00000000
00000100
00000010
00000000
00000000
00000001
00000000
00000000
00000001
00000000
,
00000100
00000000
00000000
00000100
00001000
00000000
00000000
00000100
00000010
00000000
00000000
00000010
00010000
00000000
00001000
00000000
,
00010000
00000000
00000000
00001000
01000000
00000000
00000000
01000000
00100000
00000000
00000000
10000000
00000000
00000000
10000000
00000000
,
00100000
00000000
00000000
00100000
00010000
00000000
00000000
00100000
01000000
00000000
00000000
01000000
00001000
00000000
00010000
00000000
,
00001000
00000000
00000000
00010000
00000010
00000000
00000000
00000010
00000100
00000000
00000000
00000001
00000000
00000000
00000001
00000000
,
00000010
00000000
00000000
00000010
00001000
00000000
00000000
00000010
00000100
00000000
00000000
00000100
00010000
00000000
00001000
00000000
,
00010000
00000000
00000000
00001000
00100000
00000000
00000000
00100000
01000000
00000000
00000000
10000000
00000000
00000000
00000000
10000000
,
00100000
00000000
00000000
00010000
01000000
00000000
00000000
00001000
00010000
00000000
00000000
00010000
00001000
00000000
00000000
00000010
,
00000100
00000000
00000000
00001000
00000010
00000000
00000000
00000001
00001000
00000000
00000000
00001000
00000100
00000000
00000000
00010000
,
00001000
00000000
00000000
00001000
00010000
00000000
00000000
00100000
01000000
00000000
00000000
00010000
00100000
00000000
00000000
01000000
,
10000000
00000000
00000000
10000000
01000000
00000000
00000000
00100000
00001000
00000000
00000000
00000000
00011000
00000000
00000000
00000000
,
00000010
00000000
00000000
00001000
00000100
00000000
00000000
00010000
00001000
00000000
00000000
00001000
00010000
00000000
00000000
00100000
,
01000000
00000000
00000000
00010000
00100000
00000000
00000000
10000000
00010000
00000000
00000000
00010000
01000000
00000000
00000000
00001000
,
00010000
00000000
00000000
00010000
00001000
00000000
00000000
00000010
00000100
00000000
00000000
00001000
00000010
00000000
00000000
00000100
,
00000001
00000000
00000000
00000001
00000100
00000000
00000000
00000010
00010000
00000000
00000000
00000000
00011000
00000000
00000000
00000000
,
00010000
00001000
00010000
00000000
01000000
00000000
00000000
01000000
00010000
00000000
00000000
00001000
00000100
00000010
00000100
00000000
,
00001000
00010000
00001000
00000000
00000100
00000000
00000000
00000100
00001000
00000000
00000000
00010000
00100000
01000000
00100000
00000000
,
00001000
00010000
00001000
00000000
00000100
00000000
00000000
00000100
00001000
00000000
00000000
00010000
01000000
00100000
01000000
00000000
,
00010000
00001000
00010000
00000000
01000000
00000000
00000000
01000000
00010000
00000000
00000000
00001000
00000010
00000100
00000010
00000000
,
00001000
00000000
00000000
00001001
00000000
00000000
00000101
00000000
00000000
00000110
00000000
00000000
00001100
00000000
00000000
00000000
,
00001000
00000000
00000000
00011000
00000000
00000000
01010000
00000000
00000000
01100000
00000000
00000000
11000000
00000000
00000000
00000000
,
10000000
00000000
00000000
10100000
00000000
00000000
00110000
00000000
00000000
00011000
00000000
00000000
00001100
00000000
00000000
00000000
,
00001001
00000000
00000000
00000000
,
00000011
00000000
00000000
00000110
00000000
00000000
00001010
00000000
00000000
00011000
00000000
00000000
01010000
00000000
00000000
00000000
,
01100000
00000000
00000000
11000000
00000000
00000000
10010000
00000000
00000000
10100000
00000000
00000000
01100000
00000000
00000000
00000000
,
01010000
00000000
00000000
00011000
00000000
00000000
00001100
00000000
00000000
00000101
00000000
00000000
00001001
00000000
00000000
00000000
,
00000101
00000000
00000000
00000110
00000000
00000000
00001100
00000000
00000000
00011000
00000000
00000000
00110000
00000000
00000000
00000000
,
01100000
00000000
00000000
10100000
00000000
00000000
10010000
00000000
00000000
11000000
00000000
00000000
01100000
00000000
00000000
00000000
,
00110000
00000000
00000000
00011000
00000000
00000000
00001010
00000000
00000000
00000011
00000000
00000000
00001001
00000000
00000000
00000000
,
00000011
00000000
00000000
00000110
00000000
00000000
00001010
00000000
00000000
00011000
00000000
00000000
01010000
00000000
00000000
00000000
,
01100000
00000000
00000000
00000000
,
11000000
00000000
00000000
01100000
00000000
00000000
00101000
00000000
,
00000000
00011000
00000000
00000000
00010100
00000000
00000000
00000000
,
00010010
00000000
00000000
00011000
00000000
00000000
01001000
00000000
,
00000000
01100000
00000000
00000000
10100000
00000000
00000000
00000000
,
11000000
00000000
00000000
01100000
00000000
00000000
00101000
00000000
,
00000000
00011000
00000000
00000000
00010100
00000000
00000000
00000000
,
00000010
00000000
00000000
00000100
00000000
00000000
00010000
00000000
,
00001000
00000000
00000000
01000000
00000000
00000000
00100000
00000000
,
10000000
01000000
10000000
01000000
00010000
00000000
00010000
00001000
,
00000010
00000000
00000100
00000010
00000001
00000000
00000100
00000000
,
00000001
00000100
00000001
00000100
00001000
00000000
00001000
00010000
,
00100000
00000000
01000000
00100000
10000000
00000000
01000000
00000000
,
10000000
00100000
10000000
00100000
00010000
00000000
00010000
00001000
,
00000100
00000000
00000010
00000100
00000001
00000000
00000010
00000000
,
00000001
00000010
00000001
00000010
00001000
00000000
00001000
00010000
,
01000000
00000000
00100000
01000000
10000000
00000000
00100000
00000000
,
10000000
01000000
00100000
01000000
00010000
00000000
00010000
00001000
,
00000010
00000000
00000100
00000010
00000001
00000000
00000100
00000000
,
00000001
00000100
00000010
00000100
00001000
00000000
00001000
00010000
,
00100000
00000000
01000000
00100000
10000000
00000000
01000000
00000000
,
10000000
00100000
01000000
00100000
00010000
00000000
00010000
00001000
,
00000100
00000000
00000010
00000100
00000001
00000000
00000010
00000000
,
00000001
00000010
00000100
00000010
00001000
00000000
00001000
00010000
,
01000000
00000000
00100000
01000000
10000000
00000000
00100000
00000000
,
10000000
01000000
00010000
01000000
10000000
01000000
00010000
01000000
,
00010000
00001000
00000010
00001000
00010000
00001000
00000010
00001000
,
00000010
00000001
00000100
00000001
00000010
00000001
00000100
00000001
,
00000100
00001000
00010000
00001000
00000100
00001000
00010000
00001000
,
00010000
00100000
10000000
00100000
00010000
00100000
10000000
00100000
,
10000000
01000000
00010000
01000000
10000000
01000000
00010000
01000000
,
00010000
00001000
00000100
00001000
00010000
00001000
00000100
00001000
,
00000100
00000001
00000100
00001000
00000100
00000001
00000100
00000000
,
00000110
00000000
00000000
00001100
00000000
00000000
00010100
00000000
,
00000000
00011000
00000000
00000000
00101000
00000000
00000000
00000000
,
00011000
00000000
00000000
00010010
00000000
00000000
00001010
00000000
,
00000000
00000110
00000000
00000000
00000101
00000000
00000000
00000000
,
00000110
00000000
00000000
00001010
00000000
00000000
00010010
00000000
,
00000000
00011000
00000000
00000000
01001000
00000000
00000000
00000000
,
00100000
00000000
00000000
10000000
00000000
00000000
00100000
00000000
,
00000000
01000000
00000000
00000000
00000000
00000000
00002000
00000000
,
00020000
00000000
00000000
00000000
,
00000000
00000000
00000000
00000000
,
00033000
00000000
00000000
00000000
;

//---------------dance-single - ----------------
#NOTES:
     dance-single:
     :
     Hard:
     10:
     0.855,1.000,1.000,0.106,1.000: // measure 1
1100
0000
1100
0000
1100
0000
1100
0000
1100
0000
0000
0000
,  // measure 2
0011
0000
0011
0000
0011
0000
0011
0000
0011
0000
0000
0000
,  // measure 3
1001
0000
0110
0000
1001
0000
0110
0000
1001
0000
0000
1000
,  // measure 4
0001
0000
0010
0000
0001
0000
0100
0000
0001
0000
1000
0000
,  // measure 5
0001
1000
0001
1000
0100
0010
0100
0010
,  // measure 6
0100
1000
0100
1000
0001
0100
0001
0100
,  // measure 7
0010
0100
0010
0100
0010
1000
0010
1000
,  // measure 8
0101
0011
0101
1001
,  // measure 9
1000
0100
1000
0100
0010
0001
0010
0001
,  // measure 10
0100
0001
0100
0001
0100
0010
0100
0010
,  // measure 11
1000
0010
1000
0010
0100
0001
0100
0001
,  // measure 12
0010
0001
0010
0001
1000
0001
1000
0001
,  // measure 13
2001
0000
0000
0000
0000
0000
3020
0000
0100
0000
1000
0000
,  // measure 14
0230
0000
0000
0000
0000
0301
1000
0000
0000
0000
0000
0001
,  // measure 15
0100
0000
0000
0001
0000
0000
2000
0000
0100
0000
0010
0000
,  // measure 16
3001
1100
1010
1001
,  // measure 17
1002
0000
0000
0000
0000
0000
0203
0000
0010
0000
0001
0000
,  // measure 18
0320
0000
0000
0000
0000
1030
0001
0000
0000
0000
0000
1000
,  // measure 19
0010
0000
0000
1000
0000
0000
0002
0000
0010
0000
0100
0000
,  // measure 20
1003
0011
0101
1001
,  // measure 21
1100
0000
1000
0010
0000
0010
1000
0000
1000
0100
0000
0100
,  // measure 22
0010
0000
0010
0001
0000
0001
0100
0001
1000
0001
0100
0001
,  // measure 23
1000
0000
1000
0100
0000
0100
0010
0000
0010
0001
0000
0001
,  // measure 24
0100
0000
0100
0010
0000
0010
1000
0100
1000
0010
0100
0001
,  // measure 25
0010
0000
0010
0100
0000
0100
1000
0000
1000
0010
0000
0010
,  // measure 26
0100
0000
0100
0001
0000
0001
1000
0100
1000
0001
0010
0001
,  // measure 27
0100
0000
0100
0010
0000
0010
1000
0000
1000
0001
0000
0001
,  // measure 28
0100
0000
0100
0001
0000
0001
0010
0001
1000
0100
0010
0100
,  // measure 29
1010
0000
0000
0000
0000
0000
1000
0000
0000
0010
0000
0000
0000
0000
0000
0000
0010
0000
1000
0000
0000
0000
0000
0000
,  // measure 30
1001
0110
0011
1010
,  // measure 31
1001
0000
0000
0000
0000
0000
0100
0000
0000
0010
0000
0000
0000
0000
0000
0000
0010
0000
1000
0000
0000
0000
0000
0000
,  // measure 32
0011
1001
1100
0110
,  // measure 33
1001
0000
0000
0000
0000
0000
0001
0000
0000
1000
0000
0000
0000
0000
0000
0000
1000
0000
0010
0000
0000
0000
0000
0000
,  // measure 34
1100
0011
0101
1001
,  // measure 35
1010
0000
0000
0000
0000
0000
0001
0000
0000
1000
0000
0000
0000
0000
0000
0000
1000
0000
0001
0000
0000
0000
0000
0000
,  // measure 36
0011
0000
1001
0000
1000
0002
0000
0000
,  // measure 37
1003
0100
1000
0100
1000
0100
1000
0100
1000
0100
1000
0100
,  // measure 38
1000
0010
1000
0010
1000
0010
1000
0010
1000
0010
1000
0010
,  // measure 39
0100
0010
0100
0010
0100
0010
0100
0010
0100
0010
0100
0010
,  // measure 40
0100
0001
0100
0001
0100
0001
0100
0001
0100
0001
0100
0001
,  // measure 41
0100
0000
0011
0000
1001
0000
1100
0000
0110
0000
0000
0000
,  // measure 42
1100
0000
0011
0000
0101
0000
1001
0000
1100
0000
0000
0000
,  // measure 43
0110
0000
1001
0000
1100
0000
0011
0000
0101
0000
0000
1000
,  // measure 44
0001
0000
0000
0000
,  // measure 45
1100
0000
0011
0000
0101
0000
1001
0000
1100
0000
0000
0000
,  // measure 46
0110
0000
1001
0000
1100
0000
0011
0000
0101
0000
0000
0000
,  // measure 47
0101
0000
1001
0000
1100
0000
1010
0000
0110
0000
0000
0000
,  // measure 48
0110
0000
1001
0000
1100
0000
1010
0000
0101
0000
0000
0000
,  // measure 49
1100
0000
0011
0000
0101
0000
1001
0000
0101
0000
0000
0000
,  // measure 50
0101
0000
1100
0000
1010
0000
0110
0000
1001
0000
0000
0000
,  // measure 51
0011
0000
1001
0000
1100
0000
0110
0000
1001
0000
0000
0001
,  // measure 52
1000
0000
0000
0000
,  // measure 53
0110
0000
0000
0000
1001
0000
0000
0000
1100
0000
0000
0000
,  // measure 54
0110
0000
0000
0000
1001
0000
0000
0000
0000
0000
0000
0000
,  // measure 55
0011
0000
0000
0000
0101
0000
0000
0000
0011
0000
0000
0000
,  // measure 56
1001
0000
0000
0000
1100
0000
0000
0000
0000
0000
0000
0000
,  // measure 57
1100
0000
0000
0000
0110
0000
0000
0000
1001
0000
0000
0000
,  // measure 58
0011
0000
0000
0000
1001
0000
0000
0000
0000
0000
1000
0000
,  // measure 59
0001
0000
0000
0000
1000
0000
0000
0000
0010
0000
0000
0000
,  // measure 60
0100
0000
0000
0000
0001
0000
0000
0000
1000
0000
0000
0000
,  // measure 61
0001
0000
0010
0000
0100
0000
1000
0000
0000
0000
0010
0000
,  // measure 62
1000
0000
0000
0000
0001
0000
1000
0000
0010
0000
1000
0000
,  // measure 63
0001
0000
0010
0000
0001
0000
0100
0000
0000
0000
0001
0000
,  // measure 64
1000
0000
0000
0000
0010
0000
1000
0000
0001
0000
0100
0000
,  // measure 65
0010
0000
1000
0000
0001
0000
1000
0000
0000
0000
0100
0000
,  // measure 66
1000
0000
0000
0000
0010
0000
0100
0000
0001
0000
0100
0000
,  // measure 67
0010
0000
1000
0000
0001
0000
1000
0000
0000
0000
0001
0000
,  // measure 68
0010
0000
0000
0000
0001
0000
0100
0000
0010
0000
1000
0000
,  // measure 69
0001
0000
0010
0000
0001
0000
1000
0000
0000
0000
0010
0000
,  // measure 70
0100
0000
0000
0000
0001
0000
0100
0000
0010
0000
1000
0000
,  // measure 71
0001
0000
0100
0000
0001
0000
0100
0000
0000
0000
0010
0000
,  // measure 72
1000
0000
0000
0000
0010
0000
0100
0000
0010
0000
0100
0000
,  // measure 73
0010
0000
1000
0000
0001
0000
1000
0000
0000
0000
0100
0000
,  // measure 74
1000
0000
0000
0000
0010
0000
0100
0000
0001
0000
0100
0000
,  // measure 75
0010
0000
1000
0000
0001
0000
1000
0000
0000
0000
0001
0000
,  // measure 76
0010
0000
0000
0000
0001
0000
0100
0000
0010
0000
1000
0000
,  // measure 77
0001
1000
0001
0100
,  // measure 78
0001
0010
0001
0100
,  // measure 79
0001
1000
0100
1000
,  // measure 80
0100
0010
0001
0100
,  // measure 81
0001
0010
0001
0100
,  // measure 82
0001
1000
0010
0100
,  // measure 83
0010
1000
0001
0100
,  // measure 84
0001
1000
0010
0100
,  // measure 85
1001
0000
0000
0000
1100
0000
0000
0000
1001
0000
0000
0000
,  // measure 86
1100
0000
0000
0000
0110
0000
0000
0000
0000
0000
0000
0000
,  // measure 87
0101
0000
0000
0000
1100
0000
0000
0000
0110
0000
0000
0000
,  // measure 88
1001
0000
0000
0000
0011
0000
0000
0000
0000
0000
0000
0000
,  // measure 89
1100
0000
0000
0000
0011
0000
0000
0000
0110
0000
0000
0000
,  // measure 90
1001
0000
0000
0000
0011
0000
0000
0000
0000
0000
1000
0000
,  // measure 91
0001
0000
0000
0000
0100
0000
0000
0000
0001
0000
0000
0000
,  // measure 92
1000
0000
0000
0000
0000
0000
0000
0000
1001
0000
0000
0000
,  // measure 93
2002
0000
0000
0000
,  // measure 94
0000
0000
0000
0000
,  // measure 95
3003
0000
0000
0000
;

//---------------dance-single - ----------------
#NOTES:
     dance-single:
     :
     Medium:
     9:
     0.539,0.908,0.183,0.241,0.439: // measure 1
1000
0000
1000
0000
1000
0000
1000
0000
2000
0000
0000
0000
,  // measure 2
3001
0000
0001
0000
0001
0000
0001
0000
0002
0000
0000
0000
,  // measure 3
0103
0000
0100
0000
0100
0000
0100
0000
0200
0000
0000
0310
,  // measure 4
2000
0000
3020
0000
0230
0000
0302
0000
0023
0000
0230
0000
,  // measure 5
1300
0001
0100
0001
,  // measure 6
1000
0100
1000
0010
,  // measure 7
0100
0001
1000
0001
,  // measure 8
0021
0000
0030
1002
0000
0003
2100
0000
3000
0210
0000
0300
,  // measure 9
1002
1000
0100
1003
,  // measure 10
2010
0100
0001
3010
,  // measure 11
2001
0100
0001
3010
,  // measure 12
0001
1000
0100
0010
,  // measure 13
0100
0000
0000
1000
0000
0000
0001
0000
1000
0000
0001
0000
,  // measure 14
1000
0000
0000
0001
0000
0100
0001
0000
0000
1000
0000
0000
,  // measure 15
0010
0000
0000
0100
0000
0000
0001
0000
0010
0000
0001
0000
,  // measure 16
2001
0000
3000
0012
0000
0003
0120
0000
0030
2001
0000
3000
,  // measure 17
0001
0000
0000
1000
0000
0000
0010
0000
1000
0000
0010
0000
,  // measure 18
0100
0000
0000
0001
0000
1000
0010
0000
0000
0100
0000
0000
,  // measure 19
0001
0000
0000
0010
0000
0000
0100
0000
1000
0000
0010
0000
,  // measure 20
0021
0000
0030
2100
0000
3000
0021
0000
0030
0201
0000
0300
,  // measure 21
0001
1000
0010
0100
,  // measure 22
0001
0000
0000
0010
0000
0000
0001
0000
1000
0001
0000
1000
,  // measure 23
0001
0100
0010
1000
,  // measure 24
0001
0000
0000
0100
0000
0000
0001
0000
0100
0001
0000
0100
,  // measure 25
0001
1000
0010
0100
,  // measure 26
0001
0000
0000
1000
0000
0000
0001
0000
1000
0100
0000
0010
,  // measure 27
0001
1000
0001
0100
,  // measure 28
0001
0000
0000
1000
0000
0000
0010
0000
1000
0100
0000
0010
,  // measure 29
0001
0000
0000
1000
0000
0000
0001
0000
,  // measure 30
1000
0100
0010
0001
,  // measure 31
0100
0000
0000
0010
0000
0000
1000
0000
,  // measure 32
0001
0010
0001
0100
,  // measure 33
0010
0000
0000
1000
0000
0000
0100
0000
,  // measure 34
1000
0010
0100
0001
,  // measure 35
0010
0000
0000
0001
0000
0000
1000
0000
,  // measure 36
0001
0000
0100
0000
0010
1000
0000
0000
,  // measure 37
0001
1000
0100
1000
,  // measure 38
0010
0100
0010
1000
,  // measure 39
0001
0100
0001
0010
,  // measure 40
0001
1000
0001
1000
,  // measure 41
0010
0000
1000
0000
0010
0000
1000
0000
0010
0000
0000
0000
,  // measure 42
0100
0000
0001
0000
0010
0000
0001
0000
1000
0000
0000
0000
,  // measure 43
0010
0000
1000
0000
0100
0000
1000
0000
0010
0000
0000
0100
,  // measure 44
0010
0000
0000
0000
,  // measure 45
0001
0000
1000
0000
0100
0000
1000
0000
0001
0000
0000
0000
,  // measure 46
1000
0000
0010
0000
0100
0000
0010
0000
1000
0000
0000
0000
,  // measure 47
0001
0000
0100
0000
0010
0000
1000
0000
0100
0000
0000
0000
,  // measure 48
1000
0000
0010
0000
0001
0000
0010
0000
1000
0000
0000
0000
,  // measure 49
0001
0000
0100
0000
1000
0000
0100
0000
0001
0000
0000
0000
,  // measure 50
1000
0000
0100
0000
1000
0000
0001
0000
0010
0000
0000
0000
,  // measure 51
0010
0000
0001
0000
0100
0000
0001
0000
1000
0000
0000
0010
,  // measure 52
1000
0000
0000
0000
,  // measure 53
0001
0000
0000
0000
1000
0000
0000
0000
0001
0000
0000
0000
,  // measure 54
0100
0000
0000
0000
0001
0000
0000
0000
0000
0000
0000
0000
,  // measure 55
1000
0000
0000
0000
0100
0000
0000
0000
1000
0000
0000
0000
,  // measure 56
0001
0000
0000
0000
0100
0000
0000
0000
0000
0000
0000
0000
,  // measure 57
0010
0000
0000
0000
0100
0000
0000
0000
0001
0000
0000
0000
,  // measure 58
1000
0000
0000
0000
0001
0000
0000
0000
0000
0000
1000
0000
,  // measure 59
0001
0000
0000
0000
1000
0000
0000
0000
0010
0000
0000
0000
,  // measure 60
0100
0000
0000
0000
0010
0000
0000
0000
1000
0000
0000
0000
,  // measure 61
0001
1000
0010
0000
,  // measure 62
0100
0001
1000
0100
,  // measure 63
1000
0010
0100
0000
,  // measure 64
0001
1000
0100
1000
,  // measure 65
0010
0100
0001
0000
,  // measure 66
1000
0100
1000
0010
,  // measure 67
0100
0010
1000
0000
,  // measure 68
0001
0010
0001
0100
,  // measure 69
0001
1000
0010
0000
,  // measure 70
1000
0100
1000
0010
,  // measure 71
0100
0010
1000
0000
,  // measure 72
0001
0100
0001
0010
,  // measure 73
0001
1000
0001
0000
,  // measure 74
0100
0010
1000
0100
,  // measure 75
1000
0010
0100
0000
,  // measure 76
0001
1000
0001
0100
,  // measure 77
0010
1100
0000
0000
,  // measure 78
0001
0000
0000
0001
0000
0000
0001
0000
,  // measure 79
0000
1100
0000
0000
,  // measure 80
0010
0000
0000
0010
0000
0000
0010
0000
,  // measure 81
0000
1001
0000
0000
,  // measure 82
1000
0000
0000
1000
0000
0000
1000
0000
,  // measure 83
0000
0101
0000
0000
,  // measure 84
0010
0000
0000
0010
0000
0000
0010
0000
,  // measure 85
1000
0000
0000
0000
1000
0000
0000
0000
1000
0000
0000
0000
,  // measure 86
1000
0000
0000
0000
1000
0000
0000
0000
0000
0000
0000
0000
,  // measure 87
0010
0000
0000
0000
0010
0000
0000
0000
0010
0000
0000
0000
,  // measure 88
0010
0000
0000
0000
0010
0000
0000
0000
0000
0000
0000
0000
,  // measure 89
0100
0000
0000
0000
0100
0000
0000
0000
0100
0000
0000
0000
,  // measure 90
0100
0000
0000
0000
0100
0000
0000
0000
0000
0000
0001
0000
,  // measure 91
1000
0000
0000
0000
0010
0000
0000
0000
0100
0000
0000
0000
,  // measure 92
0001
0000
0000
0000
0000
0000
0000
0000
1000
0000
0000
0000
,  // measure 93
0002
0000
0000
0000
,  // measure 94
0000
0000
0000
0000
,  // measure 95
0003
0000
0000
0000
;

//---------------dance-single - ----------------
#NOTES:
     dance-single:
     :
     Easy:
     6:
     0.320,0.454,0.135,0.087,0.193: // measure 1
1000
0000
0000
0000
0001
0000
0000
0000
1001
0000
0000
0000
,  // measure 2
1000
0000
0000
0000
0010
0000
0000
0000
0110
0000
0000
0000
,  // measure 3
0001
0000
0000
0000
1000
0000
0000
0000
0011
0000
0000
0000
,  // measure 4
1001
0000
0110
0000
,  // measure 5
1001
0000
0010
0000
,  // measure 6
1001
0000
1000
0000
,  // measure 7
0001
0000
0100
0000
,  // measure 8
0002
1000
1000
1000
,  // measure 9
2003
0000
3010
0000
,  // measure 10
0200
0000
0301
0000
,  // measure 11
0001
0000
1000
0000
,  // measure 12
0001
0000
1000
0000
,  // measure 13
0001
0000
1000
1000
,  // measure 14
0002
0000
0103
0000
,  // measure 15
0010
0000
1000
1000
,  // measure 16
0002
0100
0010
0103
,  // measure 17
0010
0000
1000
0001
,  // measure 18
0200
0000
0301
0000
,  // measure 19
1000
0000
0001
1000
,  // measure 20
0020
1000
0001
1030
,  // measure 21
0010
0000
1000
0000
,  // measure 22
0001
0000
0001
1000
,  // measure 23
0001
0000
0100
0000
,  // measure 24
0010
0000
1000
0100
,  // measure 25
1000
0000
0001
0000
,  // measure 26
0010
0000
0001
1000
,  // measure 27
0001
0000
0100
0000
,  // measure 28
0010
0000
1000
0001
,  // measure 29
1000
0000
0001
0000
,  // measure 30
0100
0000
0001
0000
,  // measure 31
1000
0000
0100
0000
,  // measure 32
1000
0000
0010
0000
,  // measure 33
0100
0000
0001
0000
,  // measure 34
1000
0000
0001
0000
,  // measure 35
1000
0000
0010
0000
,  // measure 36
0100
0000
0001
0000
,  // measure 37
1000
0010
1000
0010
,  // measure 38
0100
0010
0100
0010
,  // measure 39
0100
0001
0100
0001
,  // measure 40
0010
0001
0010
0001
,  // measure 41
1000
0000
0000
0000
0010
0000
0000
0000
1000
0000
0000
0000
,  // measure 42
0001
0000
0000
0000
0100
0000
0000
0000
0001
0000
0000
0000
,  // measure 43
1000
0000
0000
0000
0100
0000
0000
0000
1000
0000
0000
0000
,  // measure 44
0011
0000
0000
0000
,  // measure 45
1000
0000
0000
0000
0001
0000
0000
0000
0010
0000
0000
0000
,  // measure 46
0001
0000
0000
0000
1000
0000
0000
0000
0100
0000
0000
0000
,  // measure 47
1000
0000
0000
0000
0010
0000
0000
0000
0100
0000
0000
0000
,  // measure 48
0010
0000
0000
0000
1000
0000
0000
0000
0100
0000
0000
0000
,  // measure 49
1000
0000
0000
0000
0001
0000
0000
0000
0100
0000
0000
0000
,  // measure 50
0001
0000
0000
0000
0010
0000
0000
0000
0001
0000
0000
0000
,  // measure 51
1000
0000
0000
0000
0010
0000
0000
0000
0100
0000
0000
0000
,  // measure 52
0010
0000
0000
0000
,  // measure 53
1000
0000
0000
0000
0000
0000
0000
0000
0100
0000
0000
0000
,  // measure 54
0000
0000
0000
0000
1000
0000
0000
0000
0000
0000
0000
0000
,  // measure 55
0001
0000
0000
0000
0000
0000
0000
0000
0010
0000
0000
0000
,  // measure 56
0000
0000
0000
0000
0100
0000
0000
0000
0000
0000
0000
0000
,  // measure 57
0001
0000
0000
0000
0000
0000
0000
0000
1000
0000
0000
0000
,  // measure 58
0000
0000
0000
0000
0010
0000
0000
0000
0000
0000
0000
0000
,  // measure 59
1000
0000
0000
0000
0000
0000
0000
0000
0010
0000
0000
0000
,  // measure 60
0000
0000
0000
0000
0100
0000
0000
0000
0000
0000
0000
0000
,  // measure 61
0001
0000
1000
0000
,  // measure 62
0010
0000
0100
0000
,  // measure 63
0001
0000
0010
0000
,  // measure 64
0001
0000
0100
0000
,  // measure 65
0001
0000
1000
0000
,  // measure 66
0100
0000
1000
0000
,  // measure 67
0010
0000
0100
0000
,  // measure 68
0001
0000
0010
0000
,  // measure 69
0001
0000
1000
0000
,  // measure 70
0001
0000
1000
0000
,  // measure 71
0100
0000
1000
0000
,  // measure 72
0010
0000
0100
0000
,  // measure 73
0010
0000
1000
0000
,  // measure 74
0001
0000
0100
0000
,  // measure 75
0001
0000
0010
0000
,  // measure 76
0001
0000
0100
0000
,  // measure 77
0001
0000
1000
0000
,  // measure 78
0010
0000
0100
0000
,  // measure 79
0001
0000
1000
0000
,  // measure 80
0001
0000
0100
0000
,  // measure 81
0001
0000
0010
0000
,  // measure 82
0001
0000
0100
0000
,  // measure 83
0001
0000
1000
0000
,  // measure 84
0100
0000
1000
0000
,  // measure 85
0010
0000
0000
0000
0000
0000
0000
0000
1000
0000
0000
0000
,  // measure 86
0000
0000
0000
0000
0110
0000
0000
0000
0000
0000
0000
0000
,  // measure 87
0010
0000
0000
0000
0000
0000
0000
0000
1000
0000
0000
0000
,  // measure 88
0000
0000
0000
0000
1001
0000
0000
0000
0000
0000
0000
0000
,  // measure 89
0010
0000
0000
0000
0000
0000
0000
0000
1000
0000
0000
0000
,  // measure 90
0000
0000
0000
0000
1001
0000
0000
0000
0000
0000
0000
0000
,  // measure 91
1001
0000
0000
0000
,  // measure 92
1001
0000
0000
0000
,  // measure 93
2002
0000
0000
0000
,  // measure 94
0000
0000
0000
0000
,  // measure 95
3003
0000
0000
0000
;

//---------------dance-single - ----------------
#NOTES:
     dance-single:
     :
     Beginner:
     2:
     0.128,0.227,0.000,0.019,0.000: // measure 1
1000
0000
0000
0000
,  // measure 2
0001
0000
0000
0000
,  // measure 3
0100
0000
0000
0000
,  // measure 4
0001
0000
0000
0000
,  // measure 5
1000
0000
0000
0000
,  // measure 6
0001
0000
0000
0000
,  // measure 7
0000
0000
0000
0000
,  // measure 8
1000
0001
1000
0001
,  // measure 9
1000
0000
0000
0000
,  // measure 10
0010
0000
0000
0000
,  // measure 11
0100
0000
0000
0000
,  // measure 12
0000
0000
0000
0000
,  // measure 13
0001
0000
0000
0000
,  // measure 14
1000
0000
0000
0000
,  // measure 15
0000
0000
0000
0000
,  // measure 16
0001
0100
0001
0100
,  // measure 17
0001
0000
0000
0000
,  // measure 18
1000
0000
0000
0000
,  // measure 19
0001
0000
0000
0000
,  // measure 20
0000
0000
0000
0000
,  // measure 21
0100
0000
0000
0000
,  // measure 22
0001
0000
1000
0000
,  // measure 23
0001
0000
0000
0000
,  // measure 24
0100
0000
0010
0000
,  // measure 25
1000
0000
0000
0000
,  // measure 26
0001
0000
0100
0000
,  // measure 27
0001
0000
0000
0000
,  // measure 28
1000
0000
0001
0000
,  // measure 29
1000
0000
0000
0000
,  // measure 30
0001
0000
0000
0000
,  // measure 31
1000
0000
0000
0000
,  // measure 32
0010
0000
0000
0000
,  // measure 33
0100
0000
0000
0000
,  // measure 34
0001
0000
0000
0000
,  // measure 35
1000
0000
0000
0000
,  // measure 36
0001
0000
0000
0000
,  // measure 37
1000
0000
0000
0000
,  // measure 38
0001
0000
0000
0000
,  // measure 39
0100
0000
0000
0000
,  // measure 40
0001
0000
0000
0000
,  // measure 41
1000
0000
0000
0000
,  // measure 42
0001
0000
0000
0000
,  // measure 43
0100
0000
0000
0000
,  // measure 44
0001
0000
0000
0000
,  // measure 45
0010
0000
0000
0000
,  // measure 46
0001
0000
0000
0000
,  // measure 47
0100
0000
0000
0000
,  // measure 48
0001
0000
0000
0000
,  // measure 49
1000
0000
0000
0000
,  // measure 50
0100
0000
0000
0000
,  // measure 51
1000
0000
0000
0000
,  // measure 52
0010
0000
0000
0000
,  // measure 53
1000
0000
0000
0000
,  // measure 54
0000
0000
0000
0000
,  // measure 55
0001
0000
0000
0000
,  // measure 56
0000
0000
0000
0000
,  // measure 57
0100
0000
0000
0000
,  // measure 58
0000
0000
0000
0000
,  // measure 59
0001
0000
0000
0000
,  // measure 60
0000
0000
0000
0000
,  // measure 61
1000
0000
0000
0000
,  // measure 62
0001
0000
0000
0000
,  // measure 63
0100
0000
0000
0000
,  // measure 64
0001
0000
0000
0000
,  // measure 65
1000
0000
0000
0000
,  // measure 66
1000
0000
0000
0000
,  // measure 67
0001
0000
0000
0000
,  // measure 68
0001
0000
0000
0000
,  // measure 69
0100
0000
0000
0000
,  // measure 70
0010
0000
0000
0000
,  // measure 71
1000
0000
0000
0000
,  // measure 72
0010
0000
0000
0000
,  // measure 73
0010
0000
0000
0000
,  // measure 74
0100
0000
0000
0000
,  // measure 75
0100
0000
0000
0000
,  // measure 76
0001
0000
0000
0000
,  // measure 77
1000
0000
0000
0000
,  // measure 78
0010
0000
0000
0000
,  // measure 79
1000
0000
0000
0000
,  // measure 80
0001
0000
0000
0000
,  // measure 81
0100
0000
0000
0000
,  // measure 82
0001
0000
0000
0000
,  // measure 83
0010
0000
0000
0000
,  // measure 84
0001
0000
0000
0000
,  // measure 85
0100
0000
0000
0000
,  // measure 86
0000
0000
0000
0000
,  // measure 87
0001
0000
0000
0000
,  // measure 88
0000
0000
0000
0000
,  // measure 89
1000
0000
0000
0000
,  // measure 90
0000
0000
0000
0000
,  // measure 91
0002
0000
0000
0000
,  // measure 92
0000
0000
0000
0000
,  // measure 93
2000
0000
0000
0000
,  // measure 94
0000
0000
0000
0000
,  // measure 95
3003
0000
0000
0000
;
