#TITLE:HELL SCAPER;
#SUBTITLE:;
#ARTIST:L.E.D.LIGHT-G;
#TITLETRANSLIT:;
#SUBTITLETRANSLIT:;
#ARTISTTRANSLIT:;
#CREDIT:;
#BANNER:hell scaper-bn.png;
#BACKGROUND:hell scaper-bg.png;
#LYRICSPATH:;
#CDTITLE:kyka2016.png;
#MUSIC:HELL SCAPER.mp3;
#OFFSET:0.854;
#SAMPLESTART:34.190;
#SAMPLELENGTH:17.400;
#SELECTABLE:YES;
#BPMS:0.000=190.000,136.000=195.000,152.000=200.000;
#STOPS:51.000=2.200
,272.000=4.200
;
#BGCHANGES:3.000=HELL SCAPER.avi=1.000=1=0=0,
99999=-nosongbg-=1.000=0=0=0 // don't automatically add -songbackground-
;

//---------------dance-single - ----------------
#NOTES:
     dance-single:
     :
     Hard:
     9:
     0.818,1.000,1.000,0.192,0.224:
0000
0000
0000
0000
,
0000
0000
0000
0000
,
0000
0000
0000
1100
,
0000
0000
0000
0102
,
0000
0000
0000
0100
0013
0000
1001
0000
,
1100
0000
1010
0000
0110
0000
0001
1000
,
1100
0000
0110
0000
0010
1000
0101
0000
,
1100
1010
0110
1001
,
0101
0000
0011
0101
0110
1010
1100
0000
,
0101
1010
0110
1001
,
1001
0000
0000
0000
0110
0000
0000
0010
1000
0000
0001
0000
1000
0000
0000
0000
,
0011
0101
0110
1010
,
1001
0000
0101
1100
1010
0110
1001
0000
,
1000
0100
1000
0010
0100
0001
0010
0001
0100
0001
0010
0100
1000
0010
0100
0001
,
2002
0000
0000
0000
0000
0000
0000
0000
3003
1100
0000
0000
1010
0000
0000
0000
,
0010
1000
0010
1000
0010
1000
0010
0000
0100
0001
0100
0001
0100
0001
0100
0000
,
2020
0000
0000
0000
0000
0000
0000
0000
3030
0110
0000
0000
1001
0000
0000
0000
,
0011
0000
0000
0000
0001
0000
1000
0000
0002
0000
0000
0000
0103
0010
1000
0001
,
0010
0000
0001
0000
0100
0000
0010
1000
,
0010
0000
0100
0000
0010
1000
0100
1000
,
0001
1000
0100
1000
,
0010
0000
0000
0000
0100
0000
0000
0000
0001
0000
1000
0000
0001
0000
0100
0010
,
1000
0000
0010
0000
0100
0000
0010
0100
,
0010
0000
0000
0000
1000
0000
0000
0000
0001
0000
0000
1000
0001
0000
0100
0000
,
0010
0000
0000
0000
1000
0000
0000
0000
0100
0000
0010
0001
1000
0000
0001
1000
,
0001
0000
0010
0000
0100
0000
1000
0000
0001
0000
0100
0000
0010
1000
0010
1000
,
0010
1100
0000
1010
0000
1000
0100
1000
,
0000
0101
0000
0001
0010
0001
0100
0010
,
0000
1010
0000
1100
0000
0010
0100
0010
,
0000
1001
0000
0101
0000
0001
0010
0001
,
0000
0101
0000
1010
0000
0010
0100
0001
,
0000
0000
1010
0000
0000
0000
1100
0000
1001
0000
0000
1100
0000
0000
1010
0000
,
0000
0110
0000
1010
0000
1100
0000
0101
,
0000
0011
0000
0101
0000
0010
1000
0010
,
0000
1100
0000
1010
0000
0110
0000
0101
,
0000
0000
0011
0000
0000
0000
0101
0000
0011
0000
0000
0101
0000
0000
0110
0000
,
0000
1010
0000
1100
0000
0011
0000
0101
,
0000
0110
0000
1010
0000
0001
1000
0001
,
0000
0011
0000
0101
0000
0110
0000
1010
,
0000
0000
1100
0000
0000
0000
1010
0000
0110
0000
0000
1001
0000
0000
0110
0000
,
1100
0010
0101
0010
,
0101
1001
0110
1010
,
1000
0100
1010
0000
0001
0100
0110
0000
,
0010
0000
1000
0010
1000
0000
0001
0000
0100
0000
0110
0000
0000
0000
1010
0000
,
0000
1100
0000
0011
0000
0101
0000
0110
,
1001
0000
0000
0000
1100
0000
0000
0000
0202
0000
0303
0000
0001
0000
1000
0001
,
1000
0010
1000
0001
0202
0000
0303
1010
,
0000
0110
0000
0001
0010
0001
0100
0010
,
1000
0100
1000
0010
1001
0000
0101
1001
,
0000
1100
0000
0010
0100
0010
1000
0001
,
0101
0000
1010
0000
0110
0000
0000
1001
,
0000
0000
0000
0000
0101
0000
0100
0000
0001
1000
0010
1000
0001
0010
0100
0010
,
0001
0000
1100
0000
0010
1000
0001
0000
,
1001
0000
0000
0000
0110
0000
0000
0000
1000
0000
0000
0100
1000
0000
0100
0000
,
1000
0000
0000
0000
0101
0000
0000
0000
0100
0000
0000
0010
0100
0000
0001
0000
,
1000
0000
0000
0000
0101
0000
0000
0000
1000
0000
0010
0000
1000
0100
0010
0001
,
1000
0000
0101
0000
0101
0000
0001
1100
,
0000
1100
0000
0010
0110
0000
1000
1100
,
0000
1010
0001
0000
0101
0000
1010
0000
,
1100
0000
1001
0000
0000
0000
0000
0000
0001
0010
0100
0010
0001
0100
1000
0100
,
0001
1000
1010
0110
,
0101
0001
0100
0102
0000
2003
0000
3000
,
1001
0001
0110
1010
,
1100
0010
0100
1002
0000
0203
0000
0300
,
1010
1000
0011
0101
,
0110
0010
1000
2100
0000
3020
0000
0030
,
0110
0010
1010
0101
,
0001
0100
0010
1000
0100
1000
0010
0100
,
2002
3003
0000
0000
0000
0000
0000
0000
0000
0000
0000
0000
0000
0000
0000
0000
0000
0000
0000
0000
0000
0000
0000
0000
0000
0000
0000
0000
0000
0000
0000
0000
1010
0000
0000
0000
0000
0000
0000
0000
0000
0000
0000
0000
0000
0000
0000
0000
0000
0000
0000
0000
0000
0000
0000
0000
0000
0000
0000
0000
0000
0000
0000
0000
;

//---------------dance-single - ----------------
#NOTES:
     dance-single:
     :
     Medium:
     6:
     0.517,0.548,0.245,0.363,0.027:
0000
0000
0000
0000
,
0000
0000
0000
0000
,
0000
0000
0000
0101
,
0000
0000
0000
1002
,
0000
0000
0003
0100
0010
0000
1000
0000
,
0001
0000
0100
0000
0010
0000
1000
0001
,
0100
0000
0001
0000
1000
0010
0100
0000
,
0001
1000
0100
1010
,
0110
0000
0001
1000
0001
1000
0001
0000
,
0001
0000
0100
0000
0010
0000
1000
0100
,
1000
0000
0010
0000
0100
0010
0100
0000
,
0001
1000
0100
1100
,
0110
0000
0000
0000
0000
0000
0000
0000
0000
0000
0000
0000
0000
0000
0000
0000
0001
0000
0000
0000
0000
0000
0000
0000
0100
0000
0000
0000
0000
0000
0000
0000
0010
0000
0000
0000
0000
0000
0000
0000
0100
0000
0000
0000
0000
0000
0000
0000
0002
0003
0000
0000
0000
0000
0000
0000
0000
0000
0000
0000
0000
0000
0000
0000
,
1000
0100
1000
0100
2000
0000
0000
0000
,
3020
0000
0000
0000
0000
0000
0000
0000
0030
0100
0000
0000
0010
0000
0000
0000
,
1100
0000
0000
1010
0000
0000
0110
0000
,
0101
0000
0000
0000
0000
0000
0000
0000
0000
1000
0000
0000
0010
0000
0000
0000
,
1001
0000
1000
0100
1000
0000
2002
3003
,
0010
0000
0100
0000
0010
0000
1000
0100
,
1000
0000
0001
0000
0100
0001
0010
0001
,
0100
0010
1000
0100
,
1000
0000
0010
0000
0010
1000
0100
1000
,
0001
0000
1000
0000
0100
0000
1000
0001
,
1000
0000
0010
0000
0100
0000
0010
1000
,
0001
0000
0100
0000
0010
1000
0001
1000
,
0010
0100
0010
0100
0010
0100
0010
0100
,
0010
1000
0000
0010
0000
0100
1000
0100
,
0000
0010
0000
0100
0010
0000
0100
0010
,
0000
0100
0000
0001
0000
0010
0001
0010
,
0000
0100
0000
1000
0000
1000
0010
1000
,
0000
0001
0000
0100
0000
0001
0000
0010
,
0000
0000
0100
0000
0000
0000
1000
0000
0010
0000
0000
0010
0000
0000
0010
0000
,
0000
1000
0000
0100
0000
1000
0000
0010
,
0000
0100
0000
0001
0000
0010
0001
0010
,
0000
0001
0000
1000
0000
0001
0000
0100
,
0000
0000
0010
0000
0000
0000
1000
0000
0100
0000
0000
1000
0000
0000
0100
0000
,
0000
0010
0000
0001
0000
0100
0000
0010
,
0000
1000
0000
0001
0000
0100
0010
0100
,
0000
0010
0000
1000
0000
0100
0000
1000
,
0000
0000
0001
0000
0000
0000
0100
0000
0010
0000
0000
0010
0000
0000
0100
0000
,
0001
0000
1001
0000
,
1100
0110
0011
2001
,
3001
0100
0010
0000
1000
0100
1000
0000
,
0010
0100
0010
1000
0010
0100
0000
0100
,
0000
0001
0000
0001
0000
0001
0000
1000
,
0002
1000
1003
0001
,
1000
0000
0100
1000
0100
0000
0000
0010
,
0000
0001
0000
0100
0010
0000
1000
0000
,
0001
0000
0100
0010
0100
0000
0000
0010
,
0000
1000
0000
0010
0100
0000
0010
0000
,
1000
0000
0010
0000
1000
0000
0000
1001
,
0000
0000
0220
0000
0000
0000
0000
0330
,
2000
0000
3010
0100
,
0020
0000
0000
2030
0000
0000
0000
0000
,
3002
0000
0103
0001
,
0020
0000
0000
0230
0000
0000
0000
0000
,
1300
0000
0010
0000
2000
0000
0000
0010
,
0000
3020
0000
0000
0230
0000
0000
0001
,
0000
0302
0000
0000
1000
0000
1000
0000
,
1003
0001
0000
0000
0100
0010
1000
0100
,
2000
3000
0001
0100
,
0020
0000
0000
2030
0000
3002
0000
0003
,
2100
0000
3010
0100
,
0020
0000
0000
0230
0000
0320
0000
0030
,
2001
0000
3001
0100
,
0020
0000
0000
2030
0000
3002
0000
0003
,
0021
0000
0031
0100
,
0010
1000
0010
0100
0010
1000
0001
0100
,
0020
0030
0000
0000
0000
0000
0000
0000
0000
0000
0000
0000
0000
0000
0000
0000
0000
0000
0000
0000
0000
0000
0000
0000
0000
0000
0000
0000
0000
0000
0000
0000
1001
0000
0000
0000
0000
0000
0000
0000
0000
0000
0000
0000
0000
0000
0000
0000
0000
0000
0000
0000
0000
0000
0000
0000
0000
0000
0000
0000
0000
0000
0000
0000
;

//---------------dance-single - ----------------
#NOTES:
     dance-single:
     :
     Challenge:
     10:
     1.000,1.000,1.000,0.224,0.693: // measure 1
0000
0000
0000
0000
,  // measure 2
0000
0000
0000
0000
,  // measure 3
0000
0000
0000
0000
0000
0000
0000
0000
0000
0000
0000
0000
1100
0000
0001
0100
,  // measure 4
0010
0100
0010
0001
0010
0000
1000
0100
1000
0000
0001
0100
0002
0000
0000
0000
,  // measure 5
0000
0000
0000
0000
0000
0000
1000
0000
0100
0000
0000
0003
1010
0000
1000
0010
,  // measure 6
0100
0010
1000
0001
0010
0000
0001
0100
0010
1000
0010
0100
0001
1000
0100
1000
,  // measure 7
0010
1000
0001
0100
0001
0000
1000
0100
0010
0001
0100
0010
1000
0100
1000
0010
,  // measure 8
0100
0010
1000
0001
0100
0000
0010
0100
0010
1000
0100
1000
0001
0100
0001
0010
,  // measure 9
0100
1000
0010
0100
1001
0000
1100
0000
1010
0000
0011
0000
1001
0000
1000
0010
,  // measure 10
0100
0010
1000
0001
0010
0000
0001
0100
0010
1000
0001
0100
0001
0010
0100
1000
,  // measure 11
0010
0100
0001
0010
0001
0000
1000
0100
0010
0100
1000
0001
0010
0001
0100
0010
,  // measure 12
1000
0001
0100
0001
0010
0000
0001
0100
0010
1000
0100
1000
0010
0100
0001
0010
,  // measure 13
0001
1000
0100
0010
0101
0000
1010
0000
0110
0000
1001
0000
1100
0000
0000
0000
,  // measure 14
0001
0000
0100
0000
0010
0000
1000
0000
0100
0000
1000
0000
0010
0000
0100
0000
0001
0010
0100
1000
0001
0010
0100
1000
0001
0100
0010
1000
0001
0100
0010
1000
,  // measure 15
0001
0000
0000
0000
0000
0000
0000
0000
0000
1001
0000
0000
0110
0000
0000
0000
,  // measure 16
0010
1000
0010
0100
0001
0010
0001
0000
0100
0010
1000
0010
0100
0001
1000
0000
,  // measure 17
0202
0000
0000
0000
0000
0000
0000
0000
0303
1010
0000
0000
0110
0000
0000
0000
,  // measure 18
1010
0000
0000
0000
0000
0000
0000
0000
0000
0000
0000
0000
0000
0000
0000
0000
0000
0000
0000
0000
0000
0000
0000
0000
1000
0010
1000
0010
0100
0010
0100
0010
,  // measure 19
1000
0000
1010
0000
0101
0000
0001
0100
,  // measure 20
1010
0000
0000
0000
1100
0000
0000
0000
0010
0000
0100
0000
0010
0000
1000
0100
,  // measure 21
1000
0110
1010
1001
,  // measure 22
1001
0000
0000
0000
0101
0000
0000
0000
0010
0000
1000
0000
0010
0000
0100
0010
,  // measure 23
1000
1100
0101
0011
,  // measure 24
0101
0000
0000
0000
0110
0000
0000
0000
0010
0000
1000
0100
0001
0000
0001
0100
,  // measure 25
0010
0000
0000
0000
0011
0000
0000
0000
0101
0000
0001
1000
0001
0000
0100
0000
,  // measure 26
1010
0000
0000
0000
0010
0000
0000
0000
1000
0000
0000
0000
0100
0000
0000
0000
0010
0000
0000
0000
0001
0000
0000
0000
0100
0010
0100
0010
0100
0010
0100
0010
,  // measure 27
0100
1010
0000
0110
0000
0101
0011
0101
,  // measure 28
0000
0110
0000
1010
1000
0100
1000
0110
,  // measure 29
0000
1001
0000
0011
0000
1001
0110
0110
,  // measure 30
0000
1010
0000
1100
0000
0011
0101
0110
,  // measure 31
0000
1010
0000
1100
0000
1010
0110
1010
,  // measure 32
0000
0000
0101
0000
0000
0000
0011
0000
0101
0000
0000
0110
0000
0000
1010
0000
,  // measure 33
0000
1100
0000
0011
0000
0101
0000
0110
,  // measure 34
0000
1010
0000
1100
0000
1001
0110
0101
,  // measure 35
0000
1100
0000
1100
0000
0011
0000
0011
,  // measure 36
0000
0000
0101
0000
0000
0000
0101
0000
0110
0000
0000
1010
0000
0000
0101
0000
,  // measure 37
0000
1010
0000
1100
0000
0011
0000
0101
,  // measure 38
0000
0110
0000
1010
0000
0110
1100
0110
,  // measure 39
0000
0101
0000
0011
0000
0101
0000
1001
,  // measure 40
0000
0000
0101
0000
0000
0000
0011
0000
1100
0000
0000
0011
0000
0000
0110
0000
,  // measure 41
1010
1000
0100
1000
0110
0010
1000
0001
,  // measure 42
0101
0000
0110
0000
1010
0000
1001
0101
,  // measure 43
1010
0110
1010
0000
0101
0101
0011
0000
,  // measure 44
1001
0000
1000
0100
1000
0000
0010
0000
0100
0000
1001
0000
0000
0000
0011
0000
,  // measure 45
0000
0000
0000
0000
0101
0000
0000
0000
0000
0000
0000
0000
1001
0000
0000
0000
0000
0000
0000
0000
0110
0000
0000
0000
1000
0100
0010
0001
1000
0010
0100
0010
,  // measure 46
1000
0000
0000
0000
1010
0000
0000
0000
0220
0000
0330
0000
0010
0000
1000
0001
,  // measure 47
1000
0100
1000
0010
0220
0000
0330
0101
,  // measure 48
0000
0011
0000
1001
0001
0100
0010
1000
,  // measure 49
0100
1000
0010
0100
0101
0000
1010
1100
,  // measure 50
0000
1010
0000
0010
0100
0010
1000
0001
,  // measure 51
1001
0000
1100
0000
0110
0000
0000
1001
,  // measure 52
1000
0000
0000
0000
0100
0000
0000
0000
1100
0000
0000
0000
1000
0000
0000
0000
0001
0000
0100
0000
0001
0000
0010
0000
0001
1000
0001
1000
0001
1000
0001
1000
,  // measure 53
1010
0000
0110
0000
1001
0100
0001
0000
,  // measure 54
0110
0000
0000
0000
1010
0000
0000
0000
1001
0000
0010
1000
0001
0000
0000
0000
,  // measure 55
0101
0000
0000
0000
1010
0000
0000
0000
0010
0000
0100
0001
0010
0000
0000
0000
,  // measure 56
1001
0000
0000
0000
0000
0000
0000
0000
1100
0000
0000
0000
0000
0000
0000
0000
0101
0000
0000
0000
0001
0000
1000
0000
0001
0010
0100
1000
0001
0100
0010
1000
,  // measure 57
0010
0000
1100
0000
0101
0010
1000
1100
,  // measure 58
0001
0101
1000
0000
1010
0000
0010
1001
,  // measure 59
0000
1010
1100
0000
1010
0000
0110
0000
,  // measure 60
1001
0000
0000
0000
0110
0000
0000
0000
0000
0000
0000
0000
0000
0000
0000
0000
0001
0000
1000
0000
0001
0000
1000
0000
0001
1000
0001
1000
0001
1000
0001
1000
,  // measure 61
0002
0000
1000
0003
0110
0000
1010
0000
,  // measure 62
0101
0010
1000
2010
0000
3020
0100
0130
,  // measure 63
1002
0000
0000
0003
0110
0000
1010
0000
,  // measure 64
2100
0000
3000
0120
0000
2030
0001
3001
,  // measure 65
0102
0000
0000
0003
1100
0000
1010
0000
,  // measure 66
0102
0000
0000
0203
0000
0320
1000
0130
,  // measure 67
1002
0000
0100
0003
1010
0000
0110
0000
,  // measure 68
0101
0001
0010
0001
0100
0010
1000
0001
,  // measure 69
2020
3030
0000
0000
0000
0000
0000
0000
0000
0000
0000
0000
0000
0000
0000
0000
0000
0000
0000
0000
0000
0000
0000
0000
0000
0000
0000
0000
0000
0000
0000
0000
1001
0000
0000
0000
0000
0000
0000
0000
0000
0000
0000
0000
0000
0000
0000
0000
0000
0000
0000
0000
0000
0000
0000
0000
0000
0000
0000
0000
0000
0000
0000
0000
;

//---------------dance-single - ----------------
#NOTES:
     dance-single:
     :
     Easy:
     4:
     0.326,0.402,0.213,0.373,0.000:
0000
0000
0000
0000
,
0000
0000
0000
0000
,
0000
0000
0000
1000
,
0000
0000
0000
0002
,
0000
0000
0003
1000
,
0000
0010
0000
0100
,
0010
1000
0001
0100
,
0000
0001
0000
1000
,
0100
0010
0001
0100
,
0000
0010
0000
1000
,
0100
1000
0000
0001
,
0000
0100
0000
0010
,
0100
0010
1000
0001
,
1000
0100
2000
0000
,
3020
0000
0000
0000
,
1030
0000
0001
0000
,
0200
0000
0000
0000
,
0310
0000
0010
0000
,
1000
0000
0001
1000
,
0001
0000
1000
0000
,
0010
0000
0100
0010
,
1000
0000
0001
0000
,
0010
0000
0001
0100
,
0001
0000
1000
0000
,
0100
0000
1000
0010
,
1000
0010
0100
0010
,
1000
0000
1000
0000
,
0010
0000
0100
0100
,
0010
0000
0100
0000
,
0010
0000
1000
0000
,
0001
0000
0100
0000
,
0001
0000
1001
0000
,
1100
0000
0010
0000
,
0100
0000
0010
0000
,
1000
0000
0100
0000
,
1000
0000
1001
0000
,
1001
0000
0001
0000
,
0100
0000
0010
0000
,
1000
0000
0010
0000
,
0100
0000
0110
0000
,
1010
0000
1010
0000
,
1000
0100
0010
0001
,
0101
0000
1001
0000
,
1100
0000
0110
0000
,
1010
0000
0110
0000
,
1001
1000
0001
0000
,
1000
0100
1000
0000
,
0001
0000
0100
0000
,
0010
1000
0010
0000
,
0100
0000
0010
0000
,
1010
0000
1010
0000
,
2002
0000
0000
3003
,
2000
0000
3002
2003
,
3002
0000
0203
0000
,
0320
0000
2030
0000
,
3002
0000
0023
0032
,
0103
0000
0000
0000
0010
0000
0000
1000
,
0000
1000
0000
0000
0010
0000
0000
1000
,
0000
1000
0000
0000
0001
0000
0001
0000
,
1001
0000
0110
0000
,
0200
0000
0320
2030
,
3020
0000
0230
0000
,
0302
0000
2003
3200
,
2300
0000
3020
0000
,
0230
0000
0302
0023
,
0032
0000
0203
0000
,
0320
0000
2030
3002
,
1003
0001
1000
0001
,
2000
3000
0000
0000
0000
0000
0000
0000
0000
0000
0000
0000
0000
0000
0000
0000
0000
0000
0000
0000
0000
0000
0000
0000
0000
0000
0000
0000
0000
0000
0000
0000
1001
0000
0000
0000
0000
0000
0000
0000
0000
0000
0000
0000
0000
0000
0000
0000
0000
0000
0000
0000
0000
0000
0000
0000
0000
0000
0000
0000
0000
0000
0000
0000
;

//---------------dance-single - ----------------
#NOTES:
     dance-single:
     :
     Beginner:
     2:
     0.210,0.256,0.000,0.128,0.000:
0000
0000
0000
0000
,
0000
0000
0000
0000
,
0000
0000
0000
1000
,
0000
0000
0000
1000
,
0000
0000
0000
0001
,
0000
0000
0000
0001
,
0000
0000
0000
1000
,
0000
0000
0000
1000
,
0000
0000
0000
0001
,
0000
0100
0000
0010
,
0000
1000
0000
0010
,
0000
0100
0000
0010
,
0000
0100
0010
0100
,
0000
0000
0000
0000
,
0020
0000
0000
0000
,
1030
0000
0000
0000
,
0002
0000
0000
0000
,
0103
0000
0000
0000
,
0010
0000
1000
0100
,
1000
0000
0010
0000
,
0100
0000
0010
0100
,
0010
0000
1000
0000
,
0001
0000
0100
0001
,
0100
0000
0010
0000
,
1000
0000
0100
1000
,
0200
0000
0000
0000
,
0310
0000
0010
0000
,
0001
0000
1000
0000
,
0010
0000
0100
0000
,
0010
0000
1000
0100
,
1000
0000
0100
0000
,
1000
0000
0010
0000
,
0100
0000
0100
0000
,
0100
0000
0100
0000
,
0010
0000
1000
0000
,
0001
0000
0100
0001
,
0100
0000
0010
0000
,
0010
0000
1000
0100
,
1000
0000
0010
0000
,
0100
0000
0010
1000
,
0010
0000
0010
0000
,
1000
0100
1000
0100
,
1000
0000
0001
0000
,
0100
0000
0001
0000
,
0100
0000
0010
0000
,
1000
0000
0000
0000
,
0010
1000
0010
0000
,
0100
0000
0010
0000
,
1000
0100
1000
0000
,
0001
0000
0100
0000
,
0001
0000
0001
0000
,
0002
0000
0000
0000
,
1003
0000
1000
0000
,
2000
0000
0000
0000
,
3010
0000
0010
0000
,
0020
0000
0000
0000
,
0130
0000
0100
0000
,
0200
0000
0000
0000
,
0301
0000
0001
0000
,
0002
0000
0000
0000
,
0103
0000
0100
0000
,
0200
0000
0000
0000
,
0310
0000
0010
0000
,
0020
0000
0000
0000
,
1030
0000
1000
0000
,
2000
0000
0000
0000
,
3001
0000
0001
0000
,
0001
0001
0001
0001
,
0200
0300
0000
0000
0000
0000
0000
0000
0000
0000
0000
0000
0000
0000
0000
0000
0000
0000
0000
0000
0000
0000
0000
0000
0000
0000
0000
0000
0000
0000
0000
0000
0001
0000
0000
0000
0000
0000
0000
0000
0000
0000
0000
0000
0000
0000
0000
0000
0000
0000
0000
0000
0000
0000
0000
0000
0000
0000
0000
0000
0000
0000
0000
0000
;
